  0
SECTION
  2
HEADER
  9
$ACADVER
  1
AC1021
  9
$ACADMAINTVER
 70
    25
  9
$DWGCODEPAGE
  3
ANSI_1250
  9
$INSBASE
 10
0.0
 20
0.0
 30
0.0
  9
$EXTMIN
 10
0.0
 20
0.0
 30
0.0
  9
$EXTMAX
 10
594.0
 20
420.0
 30
0.0
  9
$LIMMIN
 10
0.0
 20
0.0
  9
$LIMMAX
 10
594.0
 20
420.0
  9
$ORTHOMODE
 70
     0
  9
$REGENMODE
 70
     1
  9
$FILLMODE
 70
     1
  9
$QTEXTMODE
 70
     0
  9
$MIRRTEXT
 70
     1
  9
$LTSCALE
 40
1.0
  9
$ATTMODE
 70
     1
  9
$TEXTSIZE
 40
3.048
  9
$TRACEWID
 40
1.0
  9
$TEXTSTYLE
  7
Standard
  9
$CLAYER
  8
0
  9
$CELTYPE
  6
ByLayer
  9
$CECOLOR
 62
   256
  9
$CELTSCALE
 40
1.0
  9
$DISPSILH
 70
     0
  9
$DIMSCALE
 40
1.0
  9
$DIMASZ
 40
2.5
  9
$DIMEXO
 40
0.625
  9
$DIMDLI
 40
3.75
  9
$DIMRND
 40
0.0
  9
$DIMDLE
 40
0.0
  9
$DIMEXE
 40
1.25
  9
$DIMTP
 40
0.0
  9
$DIMTM
 40
0.0
  9
$DIMTXT
 40
2.5
  9
$DIMCEN
 40
2.5
  9
$DIMTSZ
 40
0.0
  9
$DIMTOL
 70
     0
  9
$DIMLIM
 70
     0
  9
$DIMTIH
 70
     0
  9
$DIMTOH
 70
     0
  9
$DIMSE1
 70
     0
  9
$DIMSE2
 70
     0
  9
$DIMTAD
 70
     1
  9
$DIMZIN
 70
     8
  9
$DIMBLK
  1

  9
$DIMASO
 70
     1
  9
$DIMSHO
 70
     1
  9
$DIMPOST
  1

  9
$DIMAPOST
  1

  9
$DIMALT
 70
     0
  9
$DIMALTD
 70
     3
  9
$DIMALTF
 40
0.0393700787
  9
$DIMLFAC
 40
1.0
  9
$DIMTOFL
 70
     1
  9
$DIMTVP
 40
0.0
  9
$DIMTIX
 70
     0
  9
$DIMSOXD
 70
     0
  9
$DIMSAH
 70
     0
  9
$DIMBLK1
  1

  9
$DIMBLK2
  1

  9
$DIMSTYLE
  2
ISO-25
  9
$DIMCLRD
 70
     0
  9
$DIMCLRE
 70
     0
  9
$DIMCLRT
 70
     0
  9
$DIMTFAC
 40
1.0
  9
$DIMGAP
 40
0.625
  9
$DIMJUST
 70
     0
  9
$DIMSD1
 70
     0
  9
$DIMSD2
 70
     0
  9
$DIMTOLJ
 70
     0
  9
$DIMTZIN
 70
     8
  9
$DIMALTZ
 70
     0
  9
$DIMALTTZ
 70
     0
  9
$DIMUPT
 70
     0
  9
$DIMDEC
 70
     2
  9
$DIMTDEC
 70
     2
  9
$DIMALTU
 70
     2
  9
$DIMALTTD
 70
     3
  9
$DIMTXSTY
  7
Standard
  9
$DIMAUNIT
 70
     0
  9
$DIMADEC
 70
     0
  9
$DIMALTRND
 40
0.0
  9
$DIMAZIN
 70
     0
  9
$DIMDSEP
 70
    44
  9
$DIMATFIT
 70
     3
  9
$DIMFRAC
 70
     0
  9
$DIMLDRBLK
  1

  9
$DIMLUNIT
 70
     2
  9
$DIMLWD
 70
    -2
  9
$DIMLWE
 70
    -2
  9
$DIMTMOVE
 70
     0
  9
$DIMFXL
 40
1.0
  9
$DIMFXLON
 70
     0
  9
$DIMJOGANG
 40
0.7853981634
  9
$DIMTFILL
 70
     0
  9
$DIMTFILLCLR
 70
     0
  9
$DIMARCSYM
 70
     0
  9
$DIMLTYPE
  6

  9
$DIMLTEX1
  6

  9
$DIMLTEX2
  6

  9
$LUNITS
 70
     2
  9
$LUPREC
 70
     4
  9
$SKETCHINC
 40
1.0
  9
$FILLETRAD
 40
10.0
  9
$AUNITS
 70
     0
  9
$AUPREC
 70
     0
  9
$MENU
  1
.
  9
$ELEVATION
 40
0.0
  9
$PELEVATION
 40
0.0
  9
$THICKNESS
 40
0.0
  9
$LIMCHECK
 70
     0
  9
$CHAMFERA
 40
0.0
  9
$CHAMFERB
 40
0.0
  9
$CHAMFERC
 40
0.0
  9
$CHAMFERD
 40
0.0
  9
$SKPOLY
 70
     0
  9
$TDCREATE
 40
2457775.952958831
  9
$TDUCREATE
 40
2457775.911292164
  9
$TDUPDATE
 40
2457775.952962859
  9
$TDUUPDATE
 40
2457775.911296192
  9
$TDINDWG
 40
0.0000000116
  9
$TDUSRTIMER
 40
0.0000000116
  9
$USRTIMER
 70
     1
  9
$ANGBASE
 50
0.0
  9
$ANGDIR
 70
     0
  9
$PDMODE
 70
     0
  9
$PDSIZE
 40
0.0
  9
$PLINEWID
 40
0.0
  9
$SPLFRAME
 70
     0
  9
$SPLINETYPE
 70
     6
  9
$SPLINESEGS
 70
     8
  9
$HANDSEED
  5
398
  9
$SURFTAB1
 70
     6
  9
$SURFTAB2
 70
     6
  9
$SURFTYPE
 70
     6
  9
$SURFU
 70
     6
  9
$SURFV
 70
     6
  9
$UCSBASE
  2

  9
$UCSNAME
  2

  9
$UCSORG
 10
0.0
 20
0.0
 30
0.0
  9
$UCSXDIR
 10
1.0
 20
0.0
 30
0.0
  9
$UCSYDIR
 10
0.0
 20
1.0
 30
0.0
  9
$UCSORTHOREF
  2

  9
$UCSORTHOVIEW
 70
     0
  9
$UCSORGTOP
 10
0.0
 20
0.0
 30
0.0
  9
$UCSORGBOTTOM
 10
0.0
 20
0.0
 30
0.0
  9
$UCSORGLEFT
 10
0.0
 20
0.0
 30
0.0
  9
$UCSORGRIGHT
 10
0.0
 20
0.0
 30
0.0
  9
$UCSORGFRONT
 10
0.0
 20
0.0
 30
0.0
  9
$UCSORGBACK
 10
0.0
 20
0.0
 30
0.0
  9
$PUCSBASE
  2

  9
$PUCSNAME
  2

  9
$PUCSORG
 10
0.0
 20
0.0
 30
0.0
  9
$PUCSXDIR
 10
1.0
 20
0.0
 30
0.0
  9
$PUCSYDIR
 10
0.0
 20
1.0
 30
0.0
  9
$PUCSORTHOREF
  2

  9
$PUCSORTHOVIEW
 70
     0
  9
$PUCSORGTOP
 10
0.0
 20
0.0
 30
0.0
  9
$PUCSORGBOTTOM
 10
0.0
 20
0.0
 30
0.0
  9
$PUCSORGLEFT
 10
0.0
 20
0.0
 30
0.0
  9
$PUCSORGRIGHT
 10
0.0
 20
0.0
 30
0.0
  9
$PUCSORGFRONT
 10
0.0
 20
0.0
 30
0.0
  9
$PUCSORGBACK
 10
0.0
 20
0.0
 30
0.0
  9
$USERI1
 70
     0
  9
$USERI2
 70
     0
  9
$USERI3
 70
     0
  9
$USERI4
 70
     0
  9
$USERI5
 70
     0
  9
$USERR1
 40
0.0
  9
$USERR2
 40
0.0
  9
$USERR3
 40
0.0
  9
$USERR4
 40
0.0
  9
$USERR5
 40
0.0
  9
$WORLDVIEW
 70
     1
  9
$SHADEDGE
 70
     3
  9
$SHADEDIF
 70
    70
  9
$TILEMODE
 70
     1
  9
$MAXACTVP
 70
    64
  9
$PINSBASE
 10
0.0
 20
0.0
 30
0.0
  9
$PLIMCHECK
 70
     0
  9
$PEXTMIN
 10
0.0
 20
0.0
 30
0.0
  9
$PEXTMAX
 10
594.0
 20
420.0
 30
0.0
  9
$PLIMMIN
 10
0.0
 20
0.0
  9
$PLIMMAX
 10
594.0
 20
420.0
  9
$UNITMODE
 70
     0
  9
$VISRETAIN
 70
     1
  9
$PLINEGEN
 70
     0
  9
$PSLTSCALE
 70
     1
  9
$TREEDEPTH
 70
  3020
  9
$CMLSTYLE
  2
Standard
  9
$CMLJUST
 70
     0
  9
$CMLSCALE
 40
20.0
  9
$PROXYGRAPHICS
 70
     1
  9
$MEASUREMENT
 70
     1
  9
$CELWEIGHT
370
    -1
  9
$ENDCAPS
280
     0
  9
$JOINSTYLE
280
     0
  9
$LWDISPLAY
290
     0
  9
$INSUNITS
 70
     4
  9
$HYPERLINKBASE
  1

  9
$STYLESHEET
  1

  9
$XEDIT
290
     1
  9
$CEPSNTYPE
380
     0
  9
$PSTYLEMODE
290
     1
  9
$FINGERPRINTGUID
  2
{283969A7-4292-47F8-BB2C-4CCA8EB96C5E}
  9
$VERSIONGUID
  2
{FAEB1C32-E019-11D5-929B-00C0DF256EC4}
  9
$EXTNAMES
290
     1
  9
$PSVPSCALE
 40
0.0
  9
$OLESTARTUP
290
     0
  9
$SORTENTS
280
   127
  9
$INDEXCTL
280
     0
  9
$HIDETEXT
280
     1
  9
$XCLIPFRAME
290
     0
  9
$HALOGAP
280
     0
  9
$OBSCOLOR
 70
   257
  9
$OBSLTYPE
280
     0
  9
$INTERSECTIONDISPLAY
280
     0
  9
$INTERSECTIONCOLOR
 70
   257
  9
$DIMASSOC
280
     2
  9
$PROJECTNAME
  1

  9
$CAMERADISPLAY
290
     0
  9
$LENSLENGTH
 40
50.0
  9
$CAMERAHEIGHT
 40
0.0
  9
$STEPSPERSEC
 40
2.0
  9
$STEPSIZE
 40
6.0
  9
$3DDWFPREC
 40
2.0
  9
$PSOLWIDTH
 40
5.0
  9
$PSOLHEIGHT
 40
80.0
  9
$LOFTANG1
 40
1.5707963268
  9
$LOFTANG2
 40
1.5707963268
  9
$LOFTMAG1
 40
0.0
  9
$LOFTMAG2
 40
0.0
  9
$LOFTPARAM
 70
     7
  9
$LOFTNORMALS
280
     1
  9
$LATITUDE
 40
37.795
  9
$LONGITUDE
 40
-122.394
  9
$NORTHDIRECTION
 40
0.0
  9
$TIMEZONE
 70
 -8000
  9
$LIGHTGLYPHDISPLAY
280
     1
  9
$TILEMODELIGHTSYNCH
280
     1
  9
$CMATERIAL
347
44
  9
$SOLIDHIST
280
     0
  9
$SHOWHIST
280
     1
  9
$DWFFRAME
280
     2
  9
$DGNFRAME
280
     2
  9
$REALWORLDSCALE
290
     1
  9
$INTERFERECOLOR
 62
   256
  9
$CSHADOW
280
     0
  9
$SHADOWPLANELOCATION
 40
0.0
  0
ENDSEC
  0
SECTION
  2
CLASSES
  0
CLASS
  1
ACDBDICTIONARYWDFLT
  2
AcDbDictionaryWithDefault
  3
ObjectDBX Classes
 90
        0
 91
        4
280
     0
281
     0
  0
CLASS
  1
VISUALSTYLE
  2
AcDbVisualStyle
  3
ObjectDBX Classes
 90
     4095
 91
        4
280
     0
281
     0
  0
CLASS
  1
MATERIAL
  2
AcDbMaterial
  3
ObjectDBX Classes
 90
     1153
 91
        4
280
     0
281
     0
  0
CLASS
  1
SCALE
  2
AcDbScale
  3
ObjectDBX Classes
 90
     1153
 91
        4
280
     0
281
     0
  0
CLASS
  1
TABLESTYLE
  2
AcDbTableStyle
  3
ObjectDBX Classes
 90
     4095
 91
        4
280
     0
281
     0
  0
CLASS
  1
MLEADERSTYLE
  2
AcDbMLeaderStyle
  3
ACDB_MLEADERSTYLE_CLASS
 90
     4095
 91
        4
280
     0
281
     0
  0
CLASS
  1
SUN
  2
AcDbSun
  3
SCENEOE
 90
     1153
 91
        4
280
     0
281
     0
  0
CLASS
  1
MULTILEADER
  2
AcDbMLeader
  3
ACDB_MLEADER_CLASS
 90
     1025
 91
        4
280
     0
281
     1
  0
CLASS
  1
DICTIONARYVAR
  2
AcDbDictionaryVar
  3
ObjectDBX Classes
 90
        0
 91
        4
280
     0
281
     0
  0
CLASS
  1
CELLSTYLEMAP
  2
AcDbCellStyleMap
  3
ObjectDBX Classes
 90
     1152
 91
        4
280
     0
281
     0
  0
ENDSEC
  0
SECTION
  2
TABLES
  0
TABLE
  2
VPORT
  5
8
330
0
100
AcDbSymbolTable
 70
     1
  0
VPORT
  5
29
330
8
100
AcDbSymbolTableRecord
100
AcDbViewportTableRecord
  2
*Active
 70
     0
 10
0.0
 20
0.0
 11
1.0
 21
1.0
 12
344.1869158879
 22
148.5
 13
0.0
 23
0.0
 14
10.0
 24
10.0
 15
10.0
 25
10.0
 16
0.0
 26
0.0
 36
1.0
 17
0.0
 27
0.0
 37
0.0
 40
297.0
 41
1.9729729729
 42
50.0
 43
0.0
 44
0.0
 50
0.0
 51
0.0
 71
     0
 72
   100
 73
     1
 74
     3
 75
     0
 76
     0
 77
     0
 78
     0
281
     0
 65
     1
110
0.0
120
0.0
130
0.0
111
1.0
121
0.0
131
0.0
112
0.0
122
1.0
132
0.0
 79
     0
146
0.0
348
2F
 60
     3
 61
     5
292
     1
282
     1
141
0.0
142
0.0
 63
   250
361
6D
  0
ENDTAB
  0
TABLE
  2
LTYPE
  5
5
330
0
100
AcDbSymbolTable
 70
     3
  0
LTYPE
  5
14
330
5
100
AcDbSymbolTableRecord
100
AcDbLinetypeTableRecord
  2
ByBlock
 70
     0
  3

 72
    65
 73
     0
 40
0.0
  0
LTYPE
  5
15
330
5
100
AcDbSymbolTableRecord
100
AcDbLinetypeTableRecord
  2
ByLayer
 70
     0
  3

 72
    65
 73
     0
 40
0.0
  0
LTYPE
  5
16
330
5
100
AcDbSymbolTableRecord
100
AcDbLinetypeTableRecord
  2
Continuous
 70
     0
  3
Solid line
 72
    65
 73
     0
 40
0.0
  0
LTYPE
  5
8E
330
5
100
AcDbSymbolTableRecord
100
AcDbLinetypeTableRecord
  2
HIDDEN2
 70
     0
  3
Hidden (.5x) _ _ _ _ _ _ _ _ _ _ _ _ _ _ _ _ _ 
 72
    65
 73
     2
 40
4.7625
 49
3.175
 74
     4
 75
     0
340
0
 46
0.0
 50
0.0
 44
0.0
 45
0.0
 49
-1.5875
 74
     4
 75
     0
340
0
 46
0.0
 50
0.0
 44
0.0
 45
0.0
  0
LTYPE
  5
BA
330
5
100
AcDbSymbolTableRecord
100
AcDbLinetypeTableRecord
  2
DOT2
 70
     0
  3
Dot (.5x) ........................................
 72
    65
 73
     2
 40
3.175
 49
0.0
 74
     4
 75
     0
340
0
 46
0.0
 50
0.0
 44
0.0
 45
0.0
 49
-3.175
 74
     4
 75
     0
340
0
 46
0.0
 50
0.0
 44
0.0
 45
0.0
  0
ENDTAB
  0
TABLE
  2
LAYER
  5
2
330
0
100
AcDbSymbolTable
 70
     3
  0
LAYER
  5
10
330
2
100
AcDbSymbolTableRecord
100
AcDbLayerTableRecord
  2
0
 70
     0
 62
     7
  6
Continuous
370
    -3
390
F
347
46
  0
LAYER
  5
6E
330
2
100
AcDbSymbolTableRecord
100
AcDbLayerTableRecord
  2
Default
 70
     0
 62
     7
  6
Continuous
370
    -3
390
F
347
46
  0
LAYER
  5
73
330
2
100
AcDbSymbolTableRecord
100
AcDbLayerTableRecord
  2
pomocnicze
 70
     0
 62
     7
  6
Continuous
370
    -3
390
F
347
46
  0
ENDTAB
  0
TABLE
  2
STYLE
  5
3
330
0
100
AcDbSymbolTable
 70
     2
  0
STYLE
  5
11
330
3
100
AcDbSymbolTableRecord
100
AcDbTextStyleTableRecord
  2
Standard
 70
     0
 40
0.0
 41
1.0
 50
0.0
 71
     0
 42
3.048
  3
txt
  4

  0
STYLE
  5
E4
330
3
100
AcDbSymbolTableRecord
100
AcDbTextStyleTableRecord
  2
SEACAD_Solid_Edge_ISO
 70
     0
 40
0.0
 41
1.0
 50
0.0
 71
     0
 42
2.5
  3
seiso.ttf
  4

1001
ACAD
1000
Solid Edge ISO
1071
        0
  0
ENDTAB
  0
TABLE
  2
VIEW
  5
6
330
0
100
AcDbSymbolTable
 70
     0
  0
ENDTAB
  0
TABLE
  2
UCS
  5
7
330
0
100
AcDbSymbolTable
 70
     0
  0
ENDTAB
  0
TABLE
  2
APPID
  5
9
330
0
100
AcDbSymbolTable
 70
     2
  0
APPID
  5
12
330
9
100
AcDbSymbolTableRecord
100
AcDbRegAppTableRecord
  2
ACAD
 70
     0
  0
APPID
  5
35B
330
9
100
AcDbSymbolTableRecord
100
AcDbRegAppTableRecord
  2
ACAD_MLEADERVER
 70
     0
  0
ENDTAB
  0
TABLE
  2
DIMSTYLE
  5
A
330
0
100
AcDbSymbolTable
 70
     3
100
AcDbDimStyleTable
  0
DIMSTYLE
105
27
330
A
100
AcDbSymbolTableRecord
100
AcDbDimStyleTableRecord
  2
ISO-25
 70
     0
 41
2.5
 42
0.625
 43
3.75
 44
1.25
 73
     0
 74
     0
 77
     1
 78
     8
140
2.5
141
2.5
143
0.0393700787
147
0.625
171
     3
172
     1
178
     0
271
     2
272
     2
274
     3
278
    44
283
     0
284
     8
340
11
  0
DIMSTYLE
105
D2
330
A
100
AcDbSymbolTableRecord
100
AcDbDimStyleTableRecord
  2
Standard
 70
     0
178
     0
340
11
  0
DIMSTYLE
105
E5
102
{ACAD_REACTORS
330
E6
330
F0
330
FA
330
105
330
10F
330
119
330
124
330
12F
330
13A
330
144
330
14F
330
15A
330
164
330
16E
330
178
330
182
330
18C
330
195
330
19F
330
1A9
330
1B3
330
1BD
330
1C5
330
1CF
330
1D9
330
1E3
330
1ED
330
1F7
330
201
330
20B
330
214
330
21D
330
225
330
22F
330
239
330
243
330
24B
330
255
330
25F
330
269
330
273
330
27B
330
285
330
28F
330
298
330
2A2
330
2AB
330
2B5
330
2BF
330
2C9
330
2D2
330
2DC
330
2E6
330
2F0
330
2FA
330
304
330
30E
102
}
330
A
100
AcDbSymbolTableRecord
100
AcDbDimStyleTableRecord
  2
ISO
 70
     0
 41
3.5
 42
0.0
 44
1.75
 73
     0
 74
     0
 77
     1
 78
     8
140
3.5
141
1.75
147
1.75
172
     1
173
     1
178
     0
271
     2
272
     3
278
    44
284
     8
340
E4
343
DF
344
DF
  0
ENDTAB
  0
TABLE
  2
BLOCK_RECORD
  5
1
330
0
100
AcDbSymbolTable
 70
    65
  0
BLOCK_RECORD
  5
1F
330
1
100
AcDbSymbolTableRecord
100
AcDbBlockTableRecord
  2
*Model_Space
340
22
 70
     0
280
     1
281
     0
  0
BLOCK_RECORD
  5
1B
330
1
100
AcDbSymbolTableRecord
100
AcDbBlockTableRecord
  2
*Paper_Space
340
1E
 70
     0
280
     1
281
     0
  0
BLOCK_RECORD
  5
D3
330
1
100
AcDbSymbolTableRecord
100
AcDbBlockTableRecord
  2
_OBLIQUE
340
0
 70
     0
280
     1
281
     0
  0
BLOCK_RECORD
  5
D7
330
1
100
AcDbSymbolTableRecord
100
AcDbBlockTableRecord
  2
_DOT
340
0
 70
     0
280
     1
281
     0
  0
BLOCK_RECORD
  5
DF
330
1
100
AcDbSymbolTableRecord
100
AcDbBlockTableRecord
  2
_SE_FILLED
340
0
 70
     0
280
     1
281
     0
  0
BLOCK_RECORD
  5
E7
330
1
100
AcDbSymbolTableRecord
100
AcDbBlockTableRecord
  2
DMBLK1
340
0
 70
     0
280
     1
281
     0
  0
BLOCK_RECORD
  5
F1
330
1
100
AcDbSymbolTableRecord
100
AcDbBlockTableRecord
  2
DMBLK2
340
0
 70
     0
280
     1
281
     0
  0
BLOCK_RECORD
  5
FB
330
1
100
AcDbSymbolTableRecord
100
AcDbBlockTableRecord
  2
DMBLK3
340
0
 70
     0
280
     1
281
     0
  0
BLOCK_RECORD
  5
106
330
1
100
AcDbSymbolTableRecord
100
AcDbBlockTableRecord
  2
DMBLK4
340
0
 70
     0
280
     1
281
     0
  0
BLOCK_RECORD
  5
110
330
1
100
AcDbSymbolTableRecord
100
AcDbBlockTableRecord
  2
DMBLK5
340
0
 70
     0
280
     1
281
     0
  0
BLOCK_RECORD
  5
11A
330
1
100
AcDbSymbolTableRecord
100
AcDbBlockTableRecord
  2
DMBLK6
340
0
 70
     0
280
     1
281
     0
  0
BLOCK_RECORD
  5
125
330
1
100
AcDbSymbolTableRecord
100
AcDbBlockTableRecord
  2
DMBLK7
340
0
 70
     0
280
     1
281
     0
  0
BLOCK_RECORD
  5
130
330
1
100
AcDbSymbolTableRecord
100
AcDbBlockTableRecord
  2
DMBLK8
340
0
 70
     0
280
     1
281
     0
  0
BLOCK_RECORD
  5
13B
330
1
100
AcDbSymbolTableRecord
100
AcDbBlockTableRecord
  2
DMBLK9
340
0
 70
     0
280
     1
281
     0
  0
BLOCK_RECORD
  5
145
330
1
100
AcDbSymbolTableRecord
100
AcDbBlockTableRecord
  2
DMBLK10
340
0
 70
     0
280
     1
281
     0
  0
BLOCK_RECORD
  5
150
330
1
100
AcDbSymbolTableRecord
100
AcDbBlockTableRecord
  2
DMBLK11
340
0
 70
     0
280
     1
281
     0
  0
BLOCK_RECORD
  5
15B
330
1
100
AcDbSymbolTableRecord
100
AcDbBlockTableRecord
  2
DMBLK12
340
0
 70
     0
280
     1
281
     0
  0
BLOCK_RECORD
  5
165
330
1
100
AcDbSymbolTableRecord
100
AcDbBlockTableRecord
  2
DMBLK13
340
0
 70
     0
280
     1
281
     0
  0
BLOCK_RECORD
  5
16F
330
1
100
AcDbSymbolTableRecord
100
AcDbBlockTableRecord
  2
DMBLK14
340
0
 70
     0
280
     1
281
     0
  0
BLOCK_RECORD
  5
179
330
1
100
AcDbSymbolTableRecord
100
AcDbBlockTableRecord
  2
DMBLK15
340
0
 70
     0
280
     1
281
     0
  0
BLOCK_RECORD
  5
183
330
1
100
AcDbSymbolTableRecord
100
AcDbBlockTableRecord
  2
DMBLK16
340
0
 70
     0
280
     1
281
     0
  0
BLOCK_RECORD
  5
18D
330
1
100
AcDbSymbolTableRecord
100
AcDbBlockTableRecord
  2
DMBLK17
340
0
 70
     0
280
     1
281
     0
  0
BLOCK_RECORD
  5
196
330
1
100
AcDbSymbolTableRecord
100
AcDbBlockTableRecord
  2
DMBLK18
340
0
 70
     0
280
     1
281
     0
  0
BLOCK_RECORD
  5
1A0
330
1
100
AcDbSymbolTableRecord
100
AcDbBlockTableRecord
  2
DMBLK19
340
0
 70
     0
280
     1
281
     0
  0
BLOCK_RECORD
  5
1AA
330
1
100
AcDbSymbolTableRecord
100
AcDbBlockTableRecord
  2
DMBLK20
340
0
 70
     0
280
     1
281
     0
  0
BLOCK_RECORD
  5
1B4
330
1
100
AcDbSymbolTableRecord
100
AcDbBlockTableRecord
  2
DMBLK21
340
0
 70
     0
280
     1
281
     0
  0
BLOCK_RECORD
  5
1BE
330
1
100
AcDbSymbolTableRecord
100
AcDbBlockTableRecord
  2
DMBLK22
340
0
 70
     0
280
     1
281
     0
  0
BLOCK_RECORD
  5
1C6
330
1
100
AcDbSymbolTableRecord
100
AcDbBlockTableRecord
  2
DMBLK23
340
0
 70
     0
280
     1
281
     0
  0
BLOCK_RECORD
  5
1D0
330
1
100
AcDbSymbolTableRecord
100
AcDbBlockTableRecord
  2
DMBLK24
340
0
 70
     0
280
     1
281
     0
  0
BLOCK_RECORD
  5
1DA
330
1
100
AcDbSymbolTableRecord
100
AcDbBlockTableRecord
  2
DMBLK25
340
0
 70
     0
280
     1
281
     0
  0
BLOCK_RECORD
  5
1E4
330
1
100
AcDbSymbolTableRecord
100
AcDbBlockTableRecord
  2
DMBLK26
340
0
 70
     0
280
     1
281
     0
  0
BLOCK_RECORD
  5
1EE
330
1
100
AcDbSymbolTableRecord
100
AcDbBlockTableRecord
  2
DMBLK27
340
0
 70
     0
280
     1
281
     0
  0
BLOCK_RECORD
  5
1F8
330
1
100
AcDbSymbolTableRecord
100
AcDbBlockTableRecord
  2
DMBLK28
340
0
 70
     0
280
     1
281
     0
  0
BLOCK_RECORD
  5
202
330
1
100
AcDbSymbolTableRecord
100
AcDbBlockTableRecord
  2
DMBLK29
340
0
 70
     0
280
     1
281
     0
  0
BLOCK_RECORD
  5
20C
330
1
100
AcDbSymbolTableRecord
100
AcDbBlockTableRecord
  2
DMBLK30
340
0
 70
     0
280
     1
281
     0
  0
BLOCK_RECORD
  5
215
330
1
100
AcDbSymbolTableRecord
100
AcDbBlockTableRecord
  2
DMBLK31
340
0
 70
     0
280
     1
281
     0
  0
BLOCK_RECORD
  5
21E
330
1
100
AcDbSymbolTableRecord
100
AcDbBlockTableRecord
  2
DMBLK32
340
0
 70
     0
280
     1
281
     0
  0
BLOCK_RECORD
  5
226
330
1
100
AcDbSymbolTableRecord
100
AcDbBlockTableRecord
  2
DMBLK33
340
0
 70
     0
280
     1
281
     0
  0
BLOCK_RECORD
  5
230
330
1
100
AcDbSymbolTableRecord
100
AcDbBlockTableRecord
  2
DMBLK34
340
0
 70
     0
280
     1
281
     0
  0
BLOCK_RECORD
  5
23A
330
1
100
AcDbSymbolTableRecord
100
AcDbBlockTableRecord
  2
DMBLK35
340
0
 70
     0
280
     1
281
     0
  0
BLOCK_RECORD
  5
244
330
1
100
AcDbSymbolTableRecord
100
AcDbBlockTableRecord
  2
DMBLK36
340
0
 70
     0
280
     1
281
     0
  0
BLOCK_RECORD
  5
24C
330
1
100
AcDbSymbolTableRecord
100
AcDbBlockTableRecord
  2
DMBLK37
340
0
 70
     0
280
     1
281
     0
  0
BLOCK_RECORD
  5
256
330
1
100
AcDbSymbolTableRecord
100
AcDbBlockTableRecord
  2
DMBLK38
340
0
 70
     0
280
     1
281
     0
  0
BLOCK_RECORD
  5
260
330
1
100
AcDbSymbolTableRecord
100
AcDbBlockTableRecord
  2
DMBLK39
340
0
 70
     0
280
     1
281
     0
  0
BLOCK_RECORD
  5
26A
330
1
100
AcDbSymbolTableRecord
100
AcDbBlockTableRecord
  2
DMBLK40
340
0
 70
     0
280
     1
281
     0
  0
BLOCK_RECORD
  5
274
330
1
100
AcDbSymbolTableRecord
100
AcDbBlockTableRecord
  2
DMBLK41
340
0
 70
     0
280
     1
281
     0
  0
BLOCK_RECORD
  5
27C
330
1
100
AcDbSymbolTableRecord
100
AcDbBlockTableRecord
  2
DMBLK42
340
0
 70
     0
280
     1
281
     0
  0
BLOCK_RECORD
  5
286
330
1
100
AcDbSymbolTableRecord
100
AcDbBlockTableRecord
  2
DMBLK43
340
0
 70
     0
280
     1
281
     0
  0
BLOCK_RECORD
  5
290
330
1
100
AcDbSymbolTableRecord
100
AcDbBlockTableRecord
  2
DMBLK44
340
0
 70
     0
280
     1
281
     0
  0
BLOCK_RECORD
  5
299
330
1
100
AcDbSymbolTableRecord
100
AcDbBlockTableRecord
  2
DMBLK45
340
0
 70
     0
280
     1
281
     0
  0
BLOCK_RECORD
  5
2A3
330
1
100
AcDbSymbolTableRecord
100
AcDbBlockTableRecord
  2
DMBLK46
340
0
 70
     0
280
     1
281
     0
  0
BLOCK_RECORD
  5
2AC
330
1
100
AcDbSymbolTableRecord
100
AcDbBlockTableRecord
  2
DMBLK47
340
0
 70
     0
280
     1
281
     0
  0
BLOCK_RECORD
  5
2B6
330
1
100
AcDbSymbolTableRecord
100
AcDbBlockTableRecord
  2
DMBLK48
340
0
 70
     0
280
     1
281
     0
  0
BLOCK_RECORD
  5
2C0
330
1
100
AcDbSymbolTableRecord
100
AcDbBlockTableRecord
  2
DMBLK49
340
0
 70
     0
280
     1
281
     0
  0
BLOCK_RECORD
  5
2CA
330
1
100
AcDbSymbolTableRecord
100
AcDbBlockTableRecord
  2
DMBLK50
340
0
 70
     0
280
     1
281
     0
  0
BLOCK_RECORD
  5
2D3
330
1
100
AcDbSymbolTableRecord
100
AcDbBlockTableRecord
  2
DMBLK51
340
0
 70
     0
280
     1
281
     0
  0
BLOCK_RECORD
  5
2DD
330
1
100
AcDbSymbolTableRecord
100
AcDbBlockTableRecord
  2
DMBLK52
340
0
 70
     0
280
     1
281
     0
  0
BLOCK_RECORD
  5
2E7
330
1
100
AcDbSymbolTableRecord
100
AcDbBlockTableRecord
  2
DMBLK53
340
0
 70
     0
280
     1
281
     0
  0
BLOCK_RECORD
  5
2F1
330
1
100
AcDbSymbolTableRecord
100
AcDbBlockTableRecord
  2
DMBLK54
340
0
 70
     0
280
     1
281
     0
  0
BLOCK_RECORD
  5
2FB
330
1
100
AcDbSymbolTableRecord
100
AcDbBlockTableRecord
  2
DMBLK55
340
0
 70
     0
280
     1
281
     0
  0
BLOCK_RECORD
  5
305
330
1
100
AcDbSymbolTableRecord
100
AcDbBlockTableRecord
  2
DMBLK56
340
0
 70
     0
280
     1
281
     0
  0
BLOCK_RECORD
  5
30F
330
1
100
AcDbSymbolTableRecord
100
AcDbBlockTableRecord
  2
DMBLK57
340
0
 70
     0
280
     1
281
     0
  0
BLOCK_RECORD
  5
333
330
1
100
AcDbSymbolTableRecord
100
AcDbBlockTableRecord
  2
SEANNOT_GROUP
340
0
102
{BLKREFS
331
334
102
}
 70
     0
280
     1
281
     0
  0
BLOCK_RECORD
  5
339
330
1
100
AcDbSymbolTableRecord
100
AcDbBlockTableRecord
  2
SEANNOT_GROUP1
340
0
102
{BLKREFS
331
33A
102
}
 70
     0
280
     1
281
     0
  0
BLOCK_RECORD
  5
344
330
1
100
AcDbSymbolTableRecord
100
AcDbBlockTableRecord
  2
SEANNOT_GROUP2
340
0
102
{BLKREFS
331
345
102
}
 70
     0
280
     1
281
     0
  0
BLOCK_RECORD
  5
34B
330
1
100
AcDbSymbolTableRecord
100
AcDbBlockTableRecord
  2
SEANNOT_GROUP3
340
0
102
{BLKREFS
331
34C
102
}
 70
     0
280
     1
281
     0
  0
ENDTAB
  0
ENDSEC
  0
SECTION
  2
BLOCKS
  0
BLOCK
  5
20
330
1F
100
AcDbEntity
  8
0
100
AcDbBlockBegin
  2
*Model_Space
 70
     0
 10
0.0
 20
0.0
 30
0.0
  3
*Model_Space
  1

  0
ENDBLK
  5
21
330
1F
100
AcDbEntity
  8
0
100
AcDbBlockEnd
  0
BLOCK
  5
1C
330
1B
100
AcDbEntity
 67
     1
  8
0
100
AcDbBlockBegin
  2
*Paper_Space
 70
     0
 10
0.0
 20
0.0
 30
0.0
  3
*Paper_Space
  1

  0
ENDBLK
  5
1D
330
1B
100
AcDbEntity
 67
     1
  8
0
100
AcDbBlockEnd
  0
BLOCK
  5
D4
330
D3
100
AcDbEntity
  8
0
100
AcDbBlockBegin
  2
_OBLIQUE
 70
     0
 10
0.0
 20
0.0
 30
0.0
  3
_OBLIQUE
  1

  0
LINE
  5
D6
330
D3
100
AcDbEntity
  8
0
  6
ByBlock
 62
     0
370
    -2
100
AcDbLine
 10
-0.5
 20
-0.5
 30
0.0
 11
0.5
 21
0.5
 31
0.0
  0
ENDBLK
  5
D5
330
D3
100
AcDbEntity
  8
0
100
AcDbBlockEnd
  0
BLOCK
  5
D8
330
D7
100
AcDbEntity
  8
0
100
AcDbBlockBegin
  2
_DOT
 70
     0
 10
0.0
 20
0.0
 30
0.0
  3
_DOT
  1

  0
POLYLINE
  5
DA
330
D7
100
AcDbEntity
  8
0
  6
ByBlock
 62
     0
100
AcDb2dPolyline
 66
     1
 10
0.0
 20
0.0
 30
0.0
 70
     1
 40
0.5
 41
0.5
  0
VERTEX
  5
DC
330
DA
100
AcDbEntity
  8
0
  6
ByBlock
 62
     0
100
AcDbVertex
100
AcDb2dVertex
 10
-0.25
 20
0.0
 30
0.0
 42
1.0
  0
VERTEX
  5
DD
330
DA
100
AcDbEntity
  8
0
  6
ByBlock
 62
     0
100
AcDbVertex
100
AcDb2dVertex
 10
0.25
 20
0.0
 30
0.0
 42
1.0
  0
SEQEND
  5
DE
330
DA
100
AcDbEntity
  8
0
  6
ByBlock
 62
     0
  0
LINE
  5
DB
330
D7
100
AcDbEntity
  8
0
  6
ByBlock
 62
     0
370
    -2
100
AcDbLine
 10
-0.5
 20
0.0
 30
0.0
 11
-1.0
 21
0.0
 31
0.0
  0
ENDBLK
  5
D9
330
D7
100
AcDbEntity
  8
0
100
AcDbBlockEnd
  0
BLOCK
  5
E2
330
DF
100
AcDbEntity
  8
0
100
AcDbBlockBegin
  2
_SE_FILLED
 70
     0
 10
0.0
 20
0.0
 30
0.0
  3
_SE_FILLED
  1

  0
SOLID
  5
E0
330
DF
100
AcDbEntity
  8
0
 62
     0
100
AcDbTrace
 10
0.0
 20
0.0
 30
0.0
 11
-1.0
 21
-0.1665
 31
0.0
 12
-1.0
 22
0.1665
 32
0.0
 13
0.0
 23
0.0
 33
0.0
  0
LINE
  5
E1
330
DF
100
AcDbEntity
  8
0
 62
     0
100
AcDbLine
 10
0.0
 20
0.0
 30
0.0
 11
-1.0
 21
0.0
 31
0.0
  0
ENDBLK
  5
E3
330
DF
100
AcDbEntity
  8
0
100
AcDbBlockEnd
  0
BLOCK
  5
EE
330
E7
100
AcDbEntity
  8
0
100
AcDbBlockBegin
  2
DMBLK1
 70
     0
 10
0.0
 20
0.0
 30
0.0
  3
DMBLK1
  1

  0
HATCH
  5
E8
330
E7
100
AcDbEntity
  8
pomocnicze
  6
Continuous
 62
     7
100
AcDbHatch
 10
0.0
 20
0.0
 30
0.0
210
0.0
220
0.0
230
1.0
  2
SOLID
 70
     1
 71
     0
 91
        1
 92
        1
 93
        3
 72
     1
 10
66.75760777455186
 20
287.4468040317247
 11
63.25760766651844
 21
286.8634706803858
 72
     1
 10
63.25760766651845
 20
286.8634706803858
 11
66.75760777455187
 21
286.2801373290469
 72
     1
 10
66.75760777455186
 20
286.2801373290469
 11
66.75760777455186
 21
287.4468040317247
 97
        0
 75
     0
 76
     1
 98
        0
  0
HATCH
  5
E9
330
E7
100
AcDbEntity
  8
pomocnicze
  6
Continuous
 62
     7
100
AcDbHatch
 10
0.0
 20
0.0
 30
0.0
210
0.0
220
0.0
230
1.0
  2
SOLID
 70
     1
 71
     0
 91
        1
 92
        1
 93
        3
 72
     1
 10
80.75760727536296
 20
287.4468040317247
 11
80.75760727536296
 21
286.2801373290469
 72
     1
 10
80.75760727536296
 20
286.2801373290469
 11
84.25760738339638
 21
286.8634706803858
 72
     1
 10
84.25760738339638
 20
286.8634706803858
 11
80.75760727536296
 21
287.4468040317247
 97
        0
 75
     0
 76
     1
 98
        0
  0
LINE
  5
EA
330
E7
100
AcDbEntity
  8
pomocnicze
  6
Continuous
 62
     7
100
AcDbLine
 10
63.2576076665
 20
279.7949307108
 30
0.0
 11
63.2576076665
 21
288.6134707344
 31
0.0
  0
LINE
  5
EB
330
E7
100
AcDbEntity
  8
pomocnicze
  6
Continuous
 62
     7
100
AcDbLine
 10
84.2576076665
 20
279.7949307108
 30
0.0
 11
84.2576076665
 21
288.6134707344
 31
0.0
  0
LINE
  5
EC
330
E7
100
AcDbEntity
  8
pomocnicze
  6
Continuous
 62
     7
100
AcDbLine
 10
47.213417513
 20
286.8634706804
 30
0.0
 11
84.2576073834
 21
286.8634706804
 31
0.0
  0
TEXT
  5
ED
330
E7
100
AcDbEntity
  8
pomocnicze
  6
Continuous
 62
     7
100
AcDbText
 10
48.438417388
 20
287.7384706804
 30
0.0
 40
3.5
  1
21
  7
SEACAD_Solid_Edge_ISO
 11
48.438417388
 21
291.2384706804
 31
0.0
100
AcDbText
 73
     3
  0
ENDBLK
  5
EF
330
E7
100
AcDbEntity
  8
0
100
AcDbBlockEnd
  0
BLOCK
  5
F8
330
F1
100
AcDbEntity
  8
0
100
AcDbBlockBegin
  2
DMBLK2
 70
     0
 10
0.0
 20
0.0
 30
0.0
  3
DMBLK2
  1

  0
HATCH
  5
F2
330
F1
100
AcDbEntity
  8
pomocnicze
  6
Continuous
 62
     7
100
AcDbHatch
 10
0.0
 20
0.0
 30
0.0
210
0.0
220
0.0
230
1.0
  2
SOLID
 70
     1
 71
     0
 91
        1
 92
        1
 93
        3
 72
     1
 10
45.45393178337928
 20
231.2949308187961
 11
46.03726513471818
 21
227.7949307107627
 72
     1
 10
46.03726513471818
 20
227.7949307107627
 11
46.62059848605708
 21
231.2949308187961
 72
     1
 10
46.62059848605708
 20
231.2949308187961
 11
45.45393178337928
 21
231.2949308187961
 97
        0
 75
     0
 76
     1
 98
        0
  0
HATCH
  5
F3
330
F1
100
AcDbEntity
  8
pomocnicze
  6
Continuous
 62
     7
100
AcDbHatch
 10
0.0
 20
0.0
 30
0.0
210
0.0
220
0.0
230
1.0
  2
SOLID
 70
     1
 71
     0
 91
        1
 92
        1
 93
        3
 72
     1
 10
45.45393178337928
 20
276.2949316756129
 11
46.62059848605708
 21
276.2949316756129
 72
     1
 10
46.62059848605708
 20
276.2949316756129
 11
46.03726513471818
 21
279.7949317836463
 72
     1
 10
46.03726513471818
 20
279.7949317836463
 11
45.45393178337928
 21
276.2949316756129
 97
        0
 75
     0
 76
     1
 98
        0
  0
LINE
  5
F4
330
F1
100
AcDbEntity
  8
pomocnicze
  6
Continuous
 62
     7
100
AcDbLine
 10
63.2576076665
 20
227.7949307108
 30
0.0
 11
44.2872650807
 21
227.7949307108
 31
0.0
  0
LINE
  5
F5
330
F1
100
AcDbEntity
  8
pomocnicze
  6
Continuous
 62
     7
100
AcDbLine
 10
63.2576076665
 20
279.7949307108
 30
0.0
 11
44.2872650807
 21
279.7949307108
 31
0.0
  0
LINE
  5
F6
330
F1
100
AcDbEntity
  8
pomocnicze
  6
Continuous
 62
     7
100
AcDbLine
 10
46.0372651347
 20
227.7949307108
 30
0.0
 11
46.0372651347
 21
279.7949317836
 31
0.0
  0
TEXT
  5
F7
330
F1
100
AcDbEntity
  8
pomocnicze
  6
Continuous
 62
     7
100
AcDbText
 10
45.1622651347
 20
251.726749429
 30
0.0
 40
3.5
  1
52
 50
90.0
  7
SEACAD_Solid_Edge_ISO
 11
41.6622651347
 21
251.726749429
 31
0.0
100
AcDbText
 73
     3
  0
ENDBLK
  5
F9
330
F1
100
AcDbEntity
  8
0
100
AcDbBlockEnd
  0
BLOCK
  5
103
330
FB
100
AcDbEntity
  8
0
100
AcDbBlockBegin
  2
DMBLK3
 70
     0
 10
0.0
 20
0.0
 30
0.0
  3
DMBLK3
  1

  0
LINE
  5
FC
330
FB
100
AcDbEntity
  8
pomocnicze
  6
Continuous
 62
     7
100
AcDbLine
 10
79.3077287047
 20
289.1685552686
 30
0.0
 11
83.285001432
 21
289.1685552686
 31
0.0
  0
HATCH
  5
FD
330
FB
100
AcDbEntity
  8
pomocnicze
  6
Continuous
 62
     7
100
AcDbHatch
 10
0.0
 20
0.0
 30
0.0
210
0.0
220
0.0
230
1.0
  2
SOLID
 70
     1
 71
     0
 91
        1
 92
        1
 93
        3
 72
     1
 10
95.83512210570196
 20
291.382570438082
 11
95.83512210570196
 21
290.2159037354042
 72
     1
 10
95.83512210570196
 20
290.2159037354042
 11
99.33512221373537
 21
290.7992370867431
 72
     1
 10
99.33512221373537
 20
290.7992370867431
 11
95.83512210570196
 21
291.382570438082
 97
        0
 75
     0
 76
     1
 98
        0
  0
HATCH
  5
FE
330
FB
100
AcDbEntity
  8
pomocnicze
  6
Continuous
 62
     7
100
AcDbHatch
 10
0.0
 20
0.0
 30
0.0
210
0.0
220
0.0
230
1.0
  2
SOLID
 70
     1
 71
     0
 91
        1
 92
        1
 93
        3
 72
     1
 10
66.75760803095916
 20
291.382570438082
 11
63.25760792292574
 21
290.7992370867431
 72
     1
 10
63.25760792292574
 20
290.7992370867431
 11
66.75760803095916
 21
290.2159037354042
 72
     1
 10
66.75760803095916
 20
290.2159037354042
 11
66.75760803095916
 21
291.382570438082
 97
        0
 75
     0
 76
     1
 98
        0
  0
LINE
  5
FF
330
FB
100
AcDbEntity
  8
pomocnicze
  6
Continuous
 62
     7
100
AcDbLine
 10
99.3351222137
 20
279.7949307108
 30
0.0
 11
99.3351222137
 21
292.5492371408
 31
0.0
  0
LINE
  5
100
330
FB
100
AcDbEntity
  8
pomocnicze
  6
Continuous
 62
     7
100
AcDbLine
 10
63.2576076665
 20
279.7949307108
 30
0.0
 11
63.2576076665
 21
292.5492371408
 31
0.0
  0
LINE
  5
101
330
FB
100
AcDbEntity
  8
pomocnicze
  6
Continuous
 62
     7
100
AcDbLine
 10
99.3351222137
 20
290.7992370867
 30
0.0
 11
63.2576079229
 21
290.7992370867
 31
0.0
  0
TEXT
  5
102
330
FB
100
AcDbEntity
  8
pomocnicze
  6
Continuous
 62
     7
100
AcDbText
 10
79.3077287047
 20
292.1117370867
 30
0.0
 40
3.5
  1
36
  7
SEACAD_Solid_Edge_ISO
 11
79.3077287047
 21
295.6117370867
 31
0.0
100
AcDbText
 73
     3
  0
ENDBLK
  5
104
330
FB
100
AcDbEntity
  8
0
100
AcDbBlockEnd
  0
BLOCK
  5
10D
330
106
100
AcDbEntity
  8
0
100
AcDbBlockBegin
  2
DMBLK4
 70
     0
 10
0.0
 20
0.0
 30
0.0
  3
DMBLK4
  1

  0
HATCH
  5
107
330
106
100
AcDbEntity
  8
pomocnicze
  6
Continuous
 62
     7
100
AcDbHatch
 10
0.0
 20
0.0
 30
0.0
210
0.0
220
0.0
230
1.0
  2
SOLID
 70
     1
 71
     0
 91
        1
 92
        1
 93
        3
 72
     1
 10
535.176341958892
 20
216.1054573791672
 11
538.6763420669254
 21
216.6887907305061
 72
     1
 10
538.6763420669254
 20
216.6887907305061
 11
535.176341958892
 21
217.272124081845
 72
     1
 10
535.176341958892
 20
217.272124081845
 11
535.176341958892
 21
216.1054573791672
 97
        0
 75
     0
 76
     1
 98
        0
  0
HATCH
  5
108
330
106
100
AcDbEntity
  8
pomocnicze
  6
Continuous
 62
     7
100
AcDbHatch
 10
0.0
 20
0.0
 30
0.0
210
0.0
220
0.0
230
1.0
  2
SOLID
 70
     1
 71
     0
 91
        1
 92
        1
 93
        3
 72
     1
 10
501.1763410424705
 20
216.1054573791672
 11
501.1763410424705
 21
217.272124081845
 72
     1
 10
501.1763410424705
 20
217.272124081845
 11
497.6763409344371
 21
216.6887907305061
 72
     1
 10
497.6763409344371
 20
216.6887907305061
 11
501.1763410424705
 21
216.1054573791672
 97
        0
 75
     0
 76
     1
 98
        0
  0
LINE
  5
109
330
106
100
AcDbEntity
  8
pomocnicze
  6
Continuous
 62
     7
100
AcDbLine
 10
538.6763420669
 20
227.7949307108
 30
0.0
 11
538.6763420669
 21
214.9387906765
 31
0.0
  0
LINE
  5
10A
330
106
100
AcDbEntity
  8
pomocnicze
  6
Continuous
 62
     7
100
AcDbLine
 10
497.6763420669
 20
227.7949307108
 30
0.0
 11
497.6763420669
 21
214.9387906765
 31
0.0
  0
LINE
  5
10B
330
106
100
AcDbEntity
  8
pomocnicze
  6
Continuous
 62
     7
100
AcDbLine
 10
538.6763420669
 20
216.6887907305
 30
0.0
 11
497.6763409344
 21
216.6887907305
 31
0.0
  0
TEXT
  5
10C
330
106
100
AcDbEntity
  8
pomocnicze
  6
Continuous
 62
     7
100
AcDbText
 10
516.4263415007
 20
217.5637907305
 30
0.0
 40
3.5
  1
41
  7
SEACAD_Solid_Edge_ISO
 11
516.4263415007
 21
221.0637907305
 31
0.0
100
AcDbText
 73
     3
  0
ENDBLK
  5
10E
330
106
100
AcDbEntity
  8
0
100
AcDbBlockEnd
  0
BLOCK
  5
117
330
110
100
AcDbEntity
  8
0
100
AcDbBlockBegin
  2
DMBLK5
 70
     0
 10
0.0
 20
0.0
 30
0.0
  3
DMBLK5
  1

  0
HATCH
  5
111
330
110
100
AcDbEntity
  8
pomocnicze
  6
Continuous
 62
     7
100
AcDbHatch
 10
0.0
 20
0.0
 30
0.0
210
0.0
220
0.0
230
1.0
  2
SOLID
 70
     1
 71
     0
 91
        1
 92
        1
 93
        3
 72
     1
 10
508.4981477905578
 20
224.2949306027292
 11
507.914814439219
 21
227.7949307107626
 72
     1
 10
507.914814439219
 20
227.7949307107626
 11
507.3314810878801
 21
224.2949306027292
 72
     1
 10
507.3314810878801
 20
224.2949306027292
 11
508.4981477905578
 21
224.2949306027292
 97
        0
 75
     0
 76
     1
 98
        0
  0
HATCH
  5
112
330
110
100
AcDbEntity
  8
pomocnicze
  6
Continuous
 62
     7
100
AcDbHatch
 10
0.0
 20
0.0
 30
0.0
210
0.0
220
0.0
230
1.0
  2
SOLID
 70
     1
 71
     0
 91
        1
 92
        1
 93
        3
 72
     1
 10
508.4981477905578
 20
238.294930818796
 11
507.3314810878801
 21
238.294930818796
 72
     1
 10
507.3314810878801
 20
238.294930818796
 11
507.914814439219
 21
234.7949307107626
 72
     1
 10
507.914814439219
 20
234.7949307107626
 11
508.4981477905578
 21
238.294930818796
 97
        0
 75
     0
 76
     1
 98
        0
  0
LINE
  5
113
330
110
100
AcDbEntity
  8
pomocnicze
  6
Continuous
 62
     7
100
AcDbLine
 10
497.6763420669
 20
227.7949307108
 30
0.0
 11
509.6648144932
 21
227.7949307108
 31
0.0
  0
LINE
  5
114
330
110
100
AcDbEntity
  8
pomocnicze
  6
Continuous
 62
     7
100
AcDbLine
 10
497.6763420669
 20
234.7949307108
 30
0.0
 11
509.6648144932
 21
234.7949307108
 31
0.0
  0
LINE
  5
115
330
110
100
AcDbEntity
  8
pomocnicze
  6
Continuous
 62
     7
100
AcDbLine
 10
507.9148144392
 20
220.7949304947
 30
0.0
 11
507.9148144392
 21
241.7949311429
 31
0.0
  0
TEXT
  5
116
330
110
100
AcDbEntity
  8
pomocnicze
  6
Continuous
 62
     7
100
AcDbText
 10
507.0398144392
 20
230.1812944552
 30
0.0
 40
3.5
  1
7
 50
90.0
  7
SEACAD_Solid_Edge_ISO
 11
503.5398144392
 21
230.1812944552
 31
0.0
100
AcDbText
 73
     3
  0
ENDBLK
  5
118
330
110
100
AcDbEntity
  8
0
100
AcDbBlockEnd
  0
BLOCK
  5
122
330
11A
100
AcDbEntity
  8
0
100
AcDbBlockBegin
  2
DMBLK6
 70
     0
 10
0.0
 20
0.0
 30
0.0
  3
DMBLK6
  1

  0
LINE
  5
11B
330
11A
100
AcDbEntity
  8
pomocnicze
  6
Continuous
 62
     7
100
AcDbLine
 10
337.9840424118
 20
333.7825754687
 30
0.0
 11
344.2681333208
 21
333.7825754687
 31
0.0
  0
HATCH
  5
11C
330
11A
100
AcDbEntity
  8
pomocnicze
  6
Continuous
 62
     7
100
AcDbHatch
 10
0.0
 20
0.0
 30
0.0
210
0.0
220
0.0
230
1.0
  2
SOLID
 70
     1
 71
     0
 91
        1
 92
        1
 93
        3
 72
     1
 10
224.1260896432646
 20
335.9965906381931
 11
220.6260895352312
 21
335.4132572868542
 72
     1
 10
220.6260895352312
 20
335.4132572868542
 11
224.1260896432646
 21
334.8299239355152
 72
     1
 10
224.1260896432646
 20
334.8299239355152
 11
224.1260896432646
 21
335.9965906381931
 97
        0
 75
     0
 76
     1
 98
        0
  0
HATCH
  5
11D
330
11A
100
AcDbEntity
  8
pomocnicze
  6
Continuous
 62
     7
100
AcDbHatch
 10
0.0
 20
0.0
 30
0.0
210
0.0
220
0.0
230
1.0
  2
SOLID
 70
     1
 71
     0
 91
        1
 92
        1
 93
        3
 72
     1
 10
458.1260860893377
 20
335.9965906381931
 11
458.1260860893377
 21
334.8299239355152
 72
     1
 10
458.1260860893377
 20
334.8299239355152
 11
461.6260861973711
 21
335.4132572868542
 72
     1
 10
461.6260861973711
 20
335.4132572868542
 11
458.1260860893377
 21
335.9965906381931
 97
        0
 75
     0
 76
     1
 98
        0
  0
LINE
  5
11E
330
11A
100
AcDbEntity
  8
pomocnicze
  6
Continuous
 62
     7
100
AcDbLine
 10
220.6260895352
 20
317.4615359613
 30
0.0
 11
220.6260895352
 21
337.1632573409
 31
0.0
  0
LINE
  5
11F
330
11A
100
AcDbEntity
  8
pomocnicze
  6
Continuous
 62
     7
100
AcDbLine
 10
461.6260895352
 20
317.4615359613
 30
0.0
 11
461.6260895352
 21
337.1632573409
 31
0.0
  0
LINE
  5
120
330
11A
100
AcDbEntity
  8
pomocnicze
  6
Continuous
 62
     7
100
AcDbLine
 10
220.6260895352
 20
335.4132572869
 30
0.0
 11
461.6260861974
 21
335.4132572869
 31
0.0
  0
TEXT
  5
121
330
11A
100
AcDbEntity
  8
pomocnicze
  6
Continuous
 62
     7
100
AcDbText
 10
337.9840424118
 20
336.7257572869
 30
0.0
 40
3.5
  1
240
  7
SEACAD_Solid_Edge_ISO
 11
337.9840424118
 21
340.2257572869
 31
0.0
100
AcDbText
 73
     3
  0
ENDBLK
  5
123
330
11A
100
AcDbEntity
  8
0
100
AcDbBlockEnd
  0
BLOCK
  5
12D
330
125
100
AcDbEntity
  8
0
100
AcDbBlockBegin
  2
DMBLK7
 70
     0
 10
0.0
 20
0.0
 30
0.0
  3
DMBLK7
  1

  0
LINE
  5
126
330
125
100
AcDbEntity
  8
pomocnicze
  6
Continuous
 62
     7
100
AcDbLine
 10
297.8249354477
 20
370.0067076176
 30
0.0
 11
304.1090263568
 21
370.0067076176
 31
0.0
  0
HATCH
  5
127
330
125
100
AcDbEntity
  8
pomocnicze
  6
Continuous
 62
     7
100
AcDbHatch
 10
0.0
 20
0.0
 30
0.0
210
0.0
220
0.0
230
1.0
  2
SOLID
 70
     1
 71
     0
 91
        1
 92
        1
 93
        3
 72
     1
 10
66.75760777455186
 20
372.2207227870772
 11
63.25760766651844
 21
371.6373894357383
 72
     1
 10
63.25760766651845
 20
371.6373894357383
 11
66.75760777455187
 21
371.0540560843993
 72
     1
 10
66.75760777455186
 20
371.0540560843993
 11
66.75760777455186
 21
372.2207227870772
 97
        0
 75
     0
 76
     1
 98
        0
  0
HATCH
  5
128
330
125
100
AcDbEntity
  8
pomocnicze
  6
Continuous
 62
     7
100
AcDbHatch
 10
0.0
 20
0.0
 30
0.0
210
0.0
220
0.0
230
1.0
  2
SOLID
 70
     1
 71
     0
 91
        1
 92
        1
 93
        3
 72
     1
 10
535.17635402989
 20
372.2207227870772
 11
535.17635402989
 21
371.0540560843993
 72
     1
 10
535.17635402989
 20
371.0540560843993
 11
538.6763541379235
 21
371.6373894357383
 72
     1
 10
538.6763541379235
 20
371.6373894357383
 11
535.17635402989
 21
372.2207227870772
 97
        0
 75
     0
 76
     1
 98
        0
  0
LINE
  5
129
330
125
100
AcDbEntity
  8
pomocnicze
  6
Continuous
 62
     7
100
AcDbLine
 10
63.2576076665
 20
279.7949317836
 30
0.0
 11
63.2576076665
 21
373.3873894898
 31
0.0
  0
LINE
  5
12A
330
125
100
AcDbEntity
  8
pomocnicze
  6
Continuous
 62
     7
100
AcDbLine
 10
538.6763420669
 20
227.7949307108
 30
0.0
 11
538.6763420669
 21
373.3873894898
 31
0.0
  0
LINE
  5
12B
330
125
100
AcDbEntity
  8
pomocnicze
  6
Continuous
 62
     7
100
AcDbLine
 10
63.2576076665
 20
371.6373894357
 30
0.0
 11
538.6763541379
 21
371.6373894357
 31
0.0
  0
TEXT
  5
12C
330
125
100
AcDbEntity
  8
pomocnicze
  6
Continuous
 62
     7
100
AcDbText
 10
297.8249354477
 20
372.9498894357
 30
0.0
 40
3.5
  1
475
  7
SEACAD_Solid_Edge_ISO
 11
297.8249354477
 21
376.4498894357
 31
0.0
100
AcDbText
 73
     3
  0
ENDBLK
  5
12E
330
125
100
AcDbEntity
  8
0
100
AcDbBlockEnd
  0
BLOCK
  5
138
330
130
100
AcDbEntity
  8
0
100
AcDbBlockBegin
  2
DMBLK8
 70
     0
 10
0.0
 20
0.0
 30
0.0
  3
DMBLK8
  1

  0
LINE
  5
131
330
130
100
AcDbEntity
  8
pomocnicze
  6
Continuous
 62
     7
100
AcDbLine
 10
176.5055196369
 20
333.9536335721
 30
0.0
 11
180.7214287278
 21
333.9536335721
 31
0.0
  0
HATCH
  5
132
330
130
100
AcDbEntity
  8
pomocnicze
  6
Continuous
 62
     7
100
AcDbHatch
 10
0.0
 20
0.0
 30
0.0
210
0.0
220
0.0
230
1.0
  2
SOLID
 70
     1
 71
     0
 91
        1
 92
        1
 93
        3
 72
     1
 10
207.1260894271977
 20
336.1676487416352
 11
207.1260894271977
 21
335.0009820389574
 72
     1
 10
207.1260894271977
 20
335.0009820389574
 11
210.6260895352312
 21
335.5843153902963
 72
     1
 10
210.6260895352312
 20
335.5843153902963
 11
207.1260894271977
 21
336.1676487416352
 97
        0
 75
     0
 76
     1
 98
        0
  0
HATCH
  5
133
330
130
100
AcDbEntity
  8
pomocnicze
  6
Continuous
 62
     7
100
AcDbHatch
 10
0.0
 20
0.0
 30
0.0
210
0.0
220
0.0
230
1.0
  2
SOLID
 70
     1
 71
     0
 91
        1
 92
        1
 93
        3
 72
     1
 10
150.1008589375265
 20
336.1676487416352
 11
146.6008588294931
 21
335.5843153902963
 72
     1
 10
146.6008588294931
 20
335.5843153902963
 11
150.1008589375265
 21
335.0009820389574
 72
     1
 10
150.1008589375265
 20
335.0009820389574
 11
150.1008589375265
 21
336.1676487416352
 97
        0
 75
     0
 76
     1
 98
        0
  0
LINE
  5
134
330
130
100
AcDbEntity
  8
pomocnicze
  6
Continuous
 62
     7
100
AcDbLine
 10
210.6260895352
 20
327.4615359613
 30
0.0
 11
210.6260895352
 21
337.3343154443
 31
0.0
  0
LINE
  5
135
330
130
100
AcDbEntity
  8
pomocnicze
  6
Continuous
 62
     7
100
AcDbLine
 10
146.6008600874
 20
327.4615359613
 30
0.0
 11
146.6008600874
 21
337.3343154443
 31
0.0
  0
LINE
  5
136
330
130
100
AcDbEntity
  8
pomocnicze
  6
Continuous
 62
     7
100
AcDbLine
 10
210.6260895352
 20
335.5843153903
 30
0.0
 11
146.6008588295
 21
335.5843153903
 31
0.0
  0
TEXT
  5
137
330
130
100
AcDbEntity
  8
pomocnicze
  6
Continuous
 62
     7
100
AcDbText
 10
176.5055196369
 20
336.8968153903
 30
0.0
 40
3.5
  1
64
  7
SEACAD_Solid_Edge_ISO
 11
176.5055196369
 21
340.3968153903
 31
0.0
100
AcDbText
 73
     3
  0
ENDBLK
  5
139
330
130
100
AcDbEntity
  8
0
100
AcDbBlockEnd
  0
BLOCK
  5
142
330
13B
100
AcDbEntity
  8
0
100
AcDbBlockBegin
  2
DMBLK9
 70
     0
 10
0.0
 20
0.0
 30
0.0
  3
DMBLK9
  1

  0
HATCH
  5
13C
330
13B
100
AcDbEntity
  8
pomocnicze
  6
Continuous
 62
     7
100
AcDbHatch
 10
0.0
 20
0.0
 30
0.0
210
0.0
220
0.0
230
1.0
  2
SOLID
 70
     1
 71
     0
 91
        1
 92
        1
 93
        3
 72
     1
 10
207.1260894271977
 20
336.394618572327
 11
207.1260894271977
 21
335.2279518696492
 72
     1
 10
207.1260894271977
 20
335.2279518696492
 11
210.6260895352312
 21
335.8112852209881
 72
     1
 10
210.6260895352312
 20
335.8112852209881
 11
207.1260894271977
 21
336.394618572327
 97
        0
 75
     0
 76
     1
 98
        0
  0
HATCH
  5
13D
330
13B
100
AcDbEntity
  8
pomocnicze
  6
Continuous
 62
     7
100
AcDbHatch
 10
0.0
 20
0.0
 30
0.0
210
0.0
220
0.0
230
1.0
  2
SOLID
 70
     1
 71
     0
 91
        1
 92
        1
 93
        3
 72
     1
 10
224.1260896432646
 20
336.394618572327
 11
220.6260895352312
 21
335.8112852209881
 72
     1
 10
220.6260895352312
 20
335.8112852209881
 11
224.1260896432646
 21
335.2279518696492
 72
     1
 10
224.1260896432646
 20
335.2279518696492
 11
224.1260896432646
 21
336.394618572327
 97
        0
 75
     0
 76
     1
 98
        0
  0
LINE
  5
13E
330
13B
100
AcDbEntity
  8
pomocnicze
  6
Continuous
 62
     7
100
AcDbLine
 10
210.6260895352
 20
327.4615359613
 30
0.0
 11
210.6260895352
 21
337.561285275
 31
0.0
  0
LINE
  5
13F
330
13B
100
AcDbEntity
  8
pomocnicze
  6
Continuous
 62
     7
100
AcDbLine
 10
220.6260895352
 20
317.4615359613
 30
0.0
 11
220.6260895352
 21
337.561285275
 31
0.0
  0
LINE
  5
140
330
13B
100
AcDbEntity
  8
pomocnicze
  6
Continuous
 62
     7
100
AcDbLine
 10
203.6260893192
 20
335.811285221
 30
0.0
 11
227.6260904591
 21
335.811285221
 31
0.0
  0
TEXT
  5
141
330
13B
100
AcDbEntity
  8
pomocnicze
  6
Continuous
 62
     7
100
AcDbText
 10
213.8760894235
 20
336.686285221
 30
0.0
 40
3.5
  1
10
  7
SEACAD_Solid_Edge_ISO
 11
213.8760894235
 21
340.186285221
 31
0.0
100
AcDbText
 73
     3
  0
ENDBLK
  5
143
330
13B
100
AcDbEntity
  8
0
100
AcDbBlockEnd
  0
BLOCK
  5
14D
330
145
100
AcDbEntity
  8
0
100
AcDbBlockBegin
  2
DMBLK10
 70
     0
 10
0.0
 20
0.0
 30
0.0
  3
DMBLK10
  1

  0
LINE
  5
146
330
145
100
AcDbEntity
  8
pomocnicze
  6
Continuous
 62
     7
100
AcDbLine
 10
497.9239436824
 20
333.8541327074
 30
0.0
 11
502.378489137
 21
333.8541327074
 31
0.0
  0
HATCH
  5
147
330
145
100
AcDbEntity
  8
pomocnicze
  6
Continuous
 62
     7
100
AcDbHatch
 10
0.0
 20
0.0
 30
0.0
210
0.0
220
0.0
230
1.0
  2
SOLID
 70
     1
 71
     0
 91
        1
 92
        1
 93
        3
 72
     1
 10
465.1260896432645
 20
336.0681478768911
 11
461.6260895352311
 21
335.4848145255522
 72
     1
 10
461.6260895352311
 20
335.4848145255522
 11
465.1260896432645
 21
334.9014811742133
 72
     1
 10
465.1260896432645
 20
334.9014811742133
 11
465.1260896432645
 21
336.0681478768911
 97
        0
 75
     0
 76
     1
 98
        0
  0
HATCH
  5
148
330
145
100
AcDbEntity
  8
pomocnicze
  6
Continuous
 62
     7
100
AcDbHatch
 10
0.0
 20
0.0
 30
0.0
210
0.0
220
0.0
230
1.0
  2
SOLID
 70
     1
 71
     0
 91
        1
 92
        1
 93
        3
 72
     1
 10
535.1763431760915
 20
336.0681478768911
 11
535.1763431760915
 21
334.9014811742133
 72
     1
 10
535.1763431760915
 20
334.9014811742133
 11
538.6763432841249
 21
335.4848145255522
 72
     1
 10
538.6763432841249
 20
335.4848145255522
 11
535.1763431760915
 21
336.0681478768911
 97
        0
 75
     0
 76
     1
 98
        0
  0
LINE
  5
149
330
145
100
AcDbEntity
  8
pomocnicze
  6
Continuous
 62
     7
100
AcDbLine
 10
461.6260895352
 20
317.4615359613
 30
0.0
 11
461.6260895352
 21
337.2348145796
 31
0.0
  0
LINE
  5
14A
330
145
100
AcDbEntity
  8
pomocnicze
  6
Continuous
 62
     7
100
AcDbLine
 10
538.6763420669
 20
227.7949307108
 30
0.0
 11
538.6763420669
 21
337.2348145796
 31
0.0
  0
LINE
  5
14B
330
145
100
AcDbEntity
  8
pomocnicze
  6
Continuous
 62
     7
100
AcDbLine
 10
461.6260895352
 20
335.4848145256
 30
0.0
 11
538.6763432841
 21
335.4848145256
 31
0.0
  0
TEXT
  5
14C
330
145
100
AcDbEntity
  8
pomocnicze
  6
Continuous
 62
     7
100
AcDbText
 10
497.9239436824
 20
336.7973145256
 30
0.0
 40
3.5
  1
77
  7
SEACAD_Solid_Edge_ISO
 11
497.9239436824
 21
340.2973145256
 31
0.0
100
AcDbText
 73
     3
  0
ENDBLK
  5
14E
330
145
100
AcDbEntity
  8
0
100
AcDbBlockEnd
  0
BLOCK
  5
158
330
150
100
AcDbEntity
  8
0
100
AcDbBlockBegin
  2
DMBLK11
 70
     0
 10
0.0
 20
0.0
 30
0.0
  3
DMBLK11
  1

  0
LINE
  5
151
330
150
100
AcDbEntity
  8
pomocnicze
  6
Continuous
 62
     7
100
AcDbLine
 10
102.7815065448
 20
334.2974340945
 30
0.0
 11
107.0769610903
 21
334.2974340945
 31
0.0
  0
HATCH
  5
152
330
150
100
AcDbEntity
  8
pomocnicze
  6
Continuous
 62
     7
100
AcDbHatch
 10
0.0
 20
0.0
 30
0.0
210
0.0
220
0.0
230
1.0
  2
SOLID
 70
     1
 71
     0
 91
        1
 92
        1
 93
        3
 72
     1
 10
143.1008599793604
 20
336.5114492640222
 11
143.1008599793604
 21
335.3447825613444
 72
     1
 10
143.1008599793604
 20
335.3447825613444
 11
146.6008600873938
 21
335.9281159126833
 72
     1
 10
146.6008600873938
 20
335.9281159126833
 11
143.1008599793604
 21
336.5114492640222
 97
        0
 75
     0
 76
     1
 98
        0
  0
HATCH
  5
153
330
150
100
AcDbEntity
  8
pomocnicze
  6
Continuous
 62
     7
100
AcDbHatch
 10
0.0
 20
0.0
 30
0.0
210
0.0
220
0.0
230
1.0
  2
SOLID
 70
     1
 71
     0
 91
        1
 92
        1
 93
        3
 72
     1
 10
66.75760765579255
 20
336.5114492640222
 11
63.25760754775914
 21
335.9281159126833
 72
     1
 10
63.25760754775914
 20
335.9281159126833
 11
66.75760765579255
 21
335.3447825613444
 72
     1
 10
66.75760765579255
 20
335.3447825613444
 11
66.75760765579255
 21
336.5114492640222
 97
        0
 75
     0
 76
     1
 98
        0
  0
LINE
  5
154
330
150
100
AcDbEntity
  8
pomocnicze
  6
Continuous
 62
     7
100
AcDbLine
 10
146.6008600874
 20
327.4615359613
 30
0.0
 11
146.6008600874
 21
337.6781159667
 31
0.0
  0
LINE
  5
155
330
150
100
AcDbEntity
  8
pomocnicze
  6
Continuous
 62
     7
100
AcDbLine
 10
63.2576076665
 20
279.7949307108
 30
0.0
 11
63.2576076665
 21
337.6781159667
 31
0.0
  0
LINE
  5
156
330
150
100
AcDbEntity
  8
pomocnicze
  6
Continuous
 62
     7
100
AcDbLine
 10
146.6008600874
 20
335.9281159127
 30
0.0
 11
63.2576075478
 21
335.9281159127
 31
0.0
  0
TEXT
  5
157
330
150
100
AcDbEntity
  8
pomocnicze
  6
Continuous
 62
     7
100
AcDbText
 10
102.7815065448
 20
337.2406159127
 30
0.0
 40
3.5
  1
84
  7
SEACAD_Solid_Edge_ISO
 11
102.7815065448
 21
340.7406159127
 31
0.0
100
AcDbText
 73
     3
  0
ENDBLK
  5
159
330
150
100
AcDbEntity
  8
0
100
AcDbBlockEnd
  0
BLOCK
  5
162
330
15B
100
AcDbEntity
  8
0
100
AcDbBlockBegin
  2
DMBLK12
 70
     0
 10
0.0
 20
0.0
 30
0.0
  3
DMBLK12
  1

  0
HATCH
  5
15C
330
15B
100
AcDbEntity
  8
pomocnicze
  6
Continuous
 62
     7
100
AcDbHatch
 10
0.0
 20
0.0
 30
0.0
210
0.0
220
0.0
230
1.0
  2
SOLID
 70
     1
 71
     0
 91
        1
 92
        1
 93
        3
 72
     1
 10
535.176341958892
 20
70.72057225301785
 11
538.6763420669254
 21
71.30390560435676
 72
     1
 10
538.6763420669254
 20
71.30390560435676
 11
535.176341958892
 21
71.88723895569566
 72
     1
 10
535.176341958892
 20
71.88723895569566
 11
535.176341958892
 21
70.72057225301785
 97
        0
 75
     0
 76
     1
 98
        0
  0
HATCH
  5
15D
330
15B
100
AcDbEntity
  8
pomocnicze
  6
Continuous
 62
     7
100
AcDbHatch
 10
0.0
 20
0.0
 30
0.0
210
0.0
220
0.0
230
1.0
  2
SOLID
 70
     1
 71
     0
 91
        1
 92
        1
 93
        3
 72
     1
 10
497.1763403868194
 20
70.72057225301785
 11
497.1763403868194
 21
71.88723895569566
 72
     1
 10
497.1763403868194
 20
71.88723895569566
 11
493.676340278786
 21
71.30390560435676
 72
     1
 10
493.676340278786
 20
71.30390560435676
 11
497.1763403868194
 21
70.72057225301785
 97
        0
 75
     0
 76
     1
 98
        0
  0
LINE
  5
15E
330
15B
100
AcDbEntity
  8
pomocnicze
  6
Continuous
 62
     7
100
AcDbLine
 10
538.6763420669
 20
79.1014569457
 30
0.0
 11
538.6763420669
 21
69.5539055503
 31
0.0
  0
LINE
  5
15F
330
15B
100
AcDbEntity
  8
pomocnicze
  6
Continuous
 62
     7
100
AcDbLine
 10
493.6763420669
 20
79.1014569457
 30
0.0
 11
493.6763420669
 21
69.5539055503
 31
0.0
  0
LINE
  5
160
330
15B
100
AcDbEntity
  8
pomocnicze
  6
Continuous
 62
     7
100
AcDbLine
 10
538.6763420669
 20
71.3039056044
 30
0.0
 11
493.6763402788
 21
71.3039056044
 31
0.0
  0
TEXT
  5
161
330
15B
100
AcDbEntity
  8
pomocnicze
  6
Continuous
 62
     7
100
AcDbText
 10
514.1479320819
 20
72.1789056044
 30
0.0
 40
3.5
  1
45
  7
SEACAD_Solid_Edge_ISO
 11
514.1479320819
 21
75.6789056044
 31
0.0
100
AcDbText
 73
     3
  0
ENDBLK
  5
163
330
15B
100
AcDbEntity
  8
0
100
AcDbBlockEnd
  0
BLOCK
  5
16C
330
165
100
AcDbEntity
  8
0
100
AcDbBlockBegin
  2
DMBLK13
 70
     0
 10
0.0
 20
0.0
 30
0.0
  3
DMBLK13
  1

  0
HATCH
  5
166
330
165
100
AcDbEntity
  8
pomocnicze
  6
Continuous
 62
     7
100
AcDbHatch
 10
0.0
 20
0.0
 30
0.0
210
0.0
220
0.0
230
1.0
  2
SOLID
 70
     1
 71
     0
 91
        1
 92
        1
 93
        3
 72
     1
 10
504.6763421749588
 20
183.1024990962935
 11
501.1763420669254
 21
182.5191657449546
 72
     1
 10
501.1763420669254
 20
182.5191657449546
 11
504.6763421749588
 21
181.9358323936157
 72
     1
 10
504.6763421749588
 20
181.9358323936157
 11
504.6763421749588
 21
183.1024990962935
 97
        0
 75
     0
 76
     1
 98
        0
  0
HATCH
  5
167
330
165
100
AcDbEntity
  8
pomocnicze
  6
Continuous
 62
     7
100
AcDbHatch
 10
0.0
 20
0.0
 30
0.0
210
0.0
220
0.0
230
1.0
  2
SOLID
 70
     1
 71
     0
 91
        1
 92
        1
 93
        3
 72
     1
 10
527.6763412883397
 20
183.1024990962935
 11
527.6763412883397
 21
181.9358323936157
 72
     1
 10
527.6763412883397
 20
181.9358323936157
 11
531.1763413963731
 21
182.5191657449546
 72
     1
 10
531.1763413963731
 20
182.5191657449546
 11
527.6763412883397
 21
183.1024990962935
 97
        0
 75
     0
 76
     1
 98
        0
  0
LINE
  5
168
330
165
100
AcDbEntity
  8
pomocnicze
  6
Continuous
 62
     7
100
AcDbLine
 10
501.1763420669
 20
174.1014569457
 30
0.0
 11
501.1763420669
 21
184.269165799
 31
0.0
  0
LINE
  5
169
330
165
100
AcDbEntity
  8
pomocnicze
  6
Continuous
 62
     7
100
AcDbLine
 10
531.1763420669
 20
174.1014569457
 30
0.0
 11
531.1763420669
 21
184.269165799
 31
0.0
  0
LINE
  5
16A
330
165
100
AcDbEntity
  8
pomocnicze
  6
Continuous
 62
     7
100
AcDbLine
 10
501.1763420669
 20
182.519165745
 30
0.0
 11
531.1763413964
 21
182.519165745
 31
0.0
  0
TEXT
  5
16B
330
165
100
AcDbEntity
  8
pomocnicze
  6
Continuous
 62
     7
100
AcDbText
 10
514.2274780953
 20
183.394165745
 30
0.0
 40
3.5
  1
30
  7
SEACAD_Solid_Edge_ISO
 11
514.2274780953
 21
186.894165745
 31
0.0
100
AcDbText
 73
     3
  0
ENDBLK
  5
16D
330
165
100
AcDbEntity
  8
0
100
AcDbBlockEnd
  0
BLOCK
  5
176
330
16F
100
AcDbEntity
  8
0
100
AcDbBlockBegin
  2
DMBLK14
 70
     0
 10
0.0
 20
0.0
 30
0.0
  3
DMBLK14
  1

  0
HATCH
  5
170
330
16F
100
AcDbEntity
  8
pomocnicze
  6
Continuous
 62
     7
100
AcDbHatch
 10
0.0
 20
0.0
 30
0.0
210
0.0
220
0.0
230
1.0
  2
SOLID
 70
     1
 71
     0
 91
        1
 92
        1
 93
        3
 72
     1
 10
475.2908519095944
 20
170.6014568376782
 11
476.4575186122722
 21
170.6014568376782
 72
     1
 10
476.4575186122722
 20
170.6014568376782
 11
475.8741852609333
 21
174.1014569457116
 72
     1
 10
475.8741852609333
 20
174.1014569457116
 11
475.2908519095944
 21
170.6014568376782
 97
        0
 75
     0
 76
     1
 98
        0
  0
HATCH
  5
171
330
16F
100
AcDbEntity
  8
pomocnicze
  6
Continuous
 62
     7
100
AcDbHatch
 10
0.0
 20
0.0
 30
0.0
210
0.0
220
0.0
230
1.0
  2
SOLID
 70
     1
 71
     0
 91
        1
 92
        1
 93
        3
 72
     1
 10
475.2908519095944
 20
82.60145824583792
 11
475.8741852609333
 21
79.1014581378045
 72
     1
 10
475.8741852609333
 20
79.1014581378045
 11
476.4575186122722
 21
82.60145824583792
 72
     1
 10
476.4575186122722
 20
82.60145824583792
 11
475.2908519095944
 21
82.60145824583792
 97
        0
 75
     0
 76
     1
 98
        0
  0
LINE
  5
172
330
16F
100
AcDbEntity
  8
pomocnicze
  6
Continuous
 62
     7
100
AcDbLine
 10
501.1763420669
 20
174.1014569457
 30
0.0
 11
474.1241852069
 21
174.1014569457
 31
0.0
  0
LINE
  5
173
330
16F
100
AcDbEntity
  8
pomocnicze
  6
Continuous
 62
     7
100
AcDbLine
 10
493.6763420669
 20
79.1014569457
 30
0.0
 11
474.1241852069
 21
79.1014569457
 31
0.0
  0
LINE
  5
174
330
16F
100
AcDbEntity
  8
pomocnicze
  6
Continuous
 62
     7
100
AcDbLine
 10
475.8741852609
 20
174.1014569457
 30
0.0
 11
475.8741852609
 21
79.1014581378
 31
0.0
  0
TEXT
  5
175
330
16F
100
AcDbEntity
  8
pomocnicze
  6
Continuous
 62
     7
100
AcDbText
 10
474.9991852609
 20
124.5332757236
 30
0.0
 40
3.5
  1
95
 50
90.0
  7
SEACAD_Solid_Edge_ISO
 11
471.4991852609
 21
124.5332757236
 31
0.0
100
AcDbText
 73
     3
  0
ENDBLK
  5
177
330
16F
100
AcDbEntity
  8
0
100
AcDbBlockEnd
  0
BLOCK
  5
180
330
179
100
AcDbEntity
  8
0
100
AcDbBlockBegin
  2
DMBLK15
 70
     0
 10
0.0
 20
0.0
 30
0.0
  3
DMBLK15
  1

  0
HATCH
  5
17A
330
179
100
AcDbEntity
  8
pomocnicze
  6
Continuous
 62
     7
100
AcDbHatch
 10
0.0
 20
0.0
 30
0.0
210
0.0
220
0.0
230
1.0
  2
SOLID
 70
     1
 71
     0
 91
        1
 92
        1
 93
        3
 72
     1
 10
497.676341958892
 20
149.0251948361091
 11
501.1763420669254
 21
149.608528187448
 72
     1
 10
501.1763420669254
 20
149.608528187448
 11
497.676341958892
 21
150.1918615387869
 72
     1
 10
497.676341958892
 20
150.1918615387869
 11
497.676341958892
 21
149.0251948361091
 97
        0
 75
     0
 76
     1
 98
        0
  0
HATCH
  5
17B
330
179
100
AcDbEntity
  8
pomocnicze
  6
Continuous
 62
     7
100
AcDbHatch
 10
0.0
 20
0.0
 30
0.0
210
0.0
220
0.0
230
1.0
  2
SOLID
 70
     1
 71
     0
 91
        1
 92
        1
 93
        3
 72
     1
 10
514.6763421749588
 20
149.0251948361091
 11
514.6763421749588
 21
150.1918615387869
 72
     1
 10
514.6763421749588
 20
150.1918615387869
 11
511.1763420669254
 21
149.608528187448
 72
     1
 10
511.1763420669254
 20
149.608528187448
 11
514.6763421749589
 21
149.0251948361091
 97
        0
 75
     0
 76
     1
 98
        0
  0
LINE
  5
17C
330
179
100
AcDbEntity
  8
pomocnicze
  6
Continuous
 62
     7
100
AcDbLine
 10
501.1763420669
 20
174.1014569457
 30
0.0
 11
501.1763420669
 21
147.8585281334
 31
0.0
  0
LINE
  5
17D
330
179
100
AcDbEntity
  8
pomocnicze
  6
Continuous
 62
     7
100
AcDbLine
 10
511.1763420669
 20
174.1014569457
 30
0.0
 11
511.1763420669
 21
147.8585281334
 31
0.0
  0
LINE
  5
17E
330
179
100
AcDbEntity
  8
pomocnicze
  6
Continuous
 62
     7
100
AcDbLine
 10
494.1763418509
 20
149.6085281874
 30
0.0
 11
518.1763429908
 21
149.6085281874
 31
0.0
  0
TEXT
  5
17F
330
179
100
AcDbEntity
  8
pomocnicze
  6
Continuous
 62
     7
100
AcDbText
 10
504.4263419552
 20
150.4835281874
 30
0.0
 40
3.5
  1
10
  7
SEACAD_Solid_Edge_ISO
 11
504.4263419552
 21
153.9835281874
 31
0.0
100
AcDbText
 73
     3
  0
ENDBLK
  5
181
330
179
100
AcDbEntity
  8
0
100
AcDbBlockEnd
  0
BLOCK
  5
18A
330
183
100
AcDbEntity
  8
0
100
AcDbBlockBegin
  2
DMBLK16
 70
     0
 10
0.0
 20
0.0
 30
0.0
  3
DMBLK16
  1

  0
HATCH
  5
184
330
183
100
AcDbEntity
  8
pomocnicze
  6
Continuous
 62
     7
100
AcDbHatch
 10
0.0
 20
0.0
 30
0.0
210
0.0
220
0.0
230
1.0
  2
SOLID
 70
     1
 71
     0
 91
        1
 92
        1
 93
        3
 72
     1
 10
507.676341958892
 20
149.025194500833
 11
511.1763420669254
 21
149.6085278521719
 72
     1
 10
511.1763420669254
 20
149.6085278521719
 11
507.676341958892
 21
150.1918612035108
 72
     1
 10
507.676341958892
 20
150.1918612035108
 11
507.676341958892
 21
149.025194500833
 97
        0
 75
     0
 76
     1
 98
        0
  0
HATCH
  5
185
330
183
100
AcDbEntity
  8
pomocnicze
  6
Continuous
 62
     7
100
AcDbHatch
 10
0.0
 20
0.0
 30
0.0
210
0.0
220
0.0
230
1.0
  2
SOLID
 70
     1
 71
     0
 91
        1
 92
        1
 93
        3
 72
     1
 10
524.6763421749588
 20
149.025194500833
 11
524.6763421749588
 21
150.1918612035108
 72
     1
 10
524.6763421749588
 20
150.1918612035108
 11
521.1763420669254
 21
149.6085278521719
 72
     1
 10
521.1763420669254
 20
149.6085278521719
 11
524.6763421749588
 21
149.025194500833
 97
        0
 75
     0
 76
     1
 98
        0
  0
LINE
  5
186
330
183
100
AcDbEntity
  8
pomocnicze
  6
Continuous
 62
     7
100
AcDbLine
 10
511.1763420669
 20
159.1014569457
 30
0.0
 11
511.1763420669
 21
147.8585277982
 31
0.0
  0
LINE
  5
187
330
183
100
AcDbEntity
  8
pomocnicze
  6
Continuous
 62
     7
100
AcDbLine
 10
521.1763420669
 20
159.1014569457
 30
0.0
 11
521.1763420669
 21
147.8585277982
 31
0.0
  0
LINE
  5
188
330
183
100
AcDbEntity
  8
pomocnicze
  6
Continuous
 62
     7
100
AcDbLine
 10
504.1763418509
 20
149.6085278522
 30
0.0
 11
528.1763429908
 21
149.6085278522
 31
0.0
  0
TEXT
  5
189
330
183
100
AcDbEntity
  8
pomocnicze
  6
Continuous
 62
     7
100
AcDbText
 10
514.4263419552
 20
150.4835278522
 30
0.0
 40
3.5
  1
10
  7
SEACAD_Solid_Edge_ISO
 11
514.4263419552
 21
153.9835278522
 31
0.0
100
AcDbText
 73
     3
  0
ENDBLK
  5
18B
330
183
100
AcDbEntity
  8
0
100
AcDbBlockEnd
  0
BLOCK
  5
193
330
18D
100
AcDbEntity
  8
0
100
AcDbBlockBegin
  2
DMBLK17
 70
     0
 10
0.0
 20
0.0
 30
0.0
  3
DMBLK17
  1

  0
HATCH
  5
18E
330
18D
100
AcDbEntity
  8
pomocnicze
  6
Continuous
 62
     7
100
AcDbHatch
 10
0.0
 20
0.0
 30
0.0
210
0.0
220
0.0
230
1.0
  2
SOLID
 70
     1
 71
     0
 91
        1
 92
        1
 93
        3
 72
     1
 10
497.1763421749588
 20
82.86041051951472
 11
493.6763420669254
 21
82.27707716817581
 72
     1
 10
493.6763420669254
 20
82.27707716817581
 11
497.1763421749588
 21
81.6937438168369
 72
     1
 10
497.1763421749588
 20
81.6937438168369
 11
497.1763421749588
 21
82.86041051951472
 97
        0
 75
     0
 76
     1
 98
        0
  0
HATCH
  5
18F
330
18D
100
AcDbEntity
  8
pomocnicze
  6
Continuous
 62
     7
100
AcDbHatch
 10
0.0
 20
0.0
 30
0.0
210
0.0
220
0.0
230
1.0
  2
SOLID
 70
     1
 71
     0
 91
        1
 92
        1
 93
        3
 72
     1
 10
512.6763428529617
 20
82.86041051951472
 11
512.6763428529617
 21
81.6937438168369
 72
     1
 10
512.6763428529617
 20
81.6937438168369
 11
516.1763429609952
 21
82.27707716817581
 72
     1
 10
516.1763429609952
 20
82.27707716817581
 11
512.6763428529617
 21
82.86041051951472
 97
        0
 75
     0
 76
     1
 98
        0
  0
LINE
  5
190
330
18D
100
AcDbEntity
  8
pomocnicze
  6
Continuous
 62
     7
100
AcDbLine
 10
493.6763420669
 20
79.1014569457
 30
0.0
 11
493.6763420669
 21
84.0270772222
 31
0.0
  0
LINE
  5
191
330
18D
100
AcDbEntity
  8
pomocnicze
  6
Continuous
 62
     7
100
AcDbLine
 10
493.6763420669
 20
82.2770771682
 30
0.0
 11
516.176342961
 21
82.2770771682
 31
0.0
  0
TEXT
  5
192
330
18D
100
AcDbEntity
  8
pomocnicze
  6
Continuous
 62
     7
100
AcDbText
 10
501.4661152412
 20
83.1520771682
 30
0.0
 40
3.5
  1
22,5
  7
SEACAD_Solid_Edge_ISO
 11
501.4661152412
 21
86.6520771682
 31
0.0
100
AcDbText
 73
     3
  0
ENDBLK
  5
194
330
18D
100
AcDbEntity
  8
0
100
AcDbBlockEnd
  0
BLOCK
  5
19D
330
196
100
AcDbEntity
  8
0
100
AcDbBlockBegin
  2
DMBLK18
 70
     0
 10
0.0
 20
0.0
 30
0.0
  3
DMBLK18
  1

  0
HATCH
  5
197
330
196
100
AcDbEntity
  8
pomocnicze
  6
Continuous
 62
     7
100
AcDbHatch
 10
0.0
 20
0.0
 30
0.0
210
0.0
220
0.0
230
1.0
  2
SOLID
 70
     1
 71
     0
 91
        1
 92
        1
 93
        3
 72
     1
 10
512.676341958892
 20
177.7905790896247
 11
512.676341958892
 21
176.6239123869469
 72
     1
 10
512.676341958892
 20
176.6239123869469
 11
516.1763420669254
 21
177.2072457382858
 72
     1
 10
516.1763420669254
 20
177.2072457382858
 11
512.676341958892
 21
177.7905790896247
 97
        0
 75
     0
 76
     1
 98
        0
  0
HATCH
  5
198
330
196
100
AcDbEntity
  8
pomocnicze
  6
Continuous
 62
     7
100
AcDbHatch
 10
0.0
 20
0.0
 30
0.0
210
0.0
220
0.0
230
1.0
  2
SOLID
 70
     1
 71
     0
 91
        1
 92
        1
 93
        3
 72
     1
 10
504.676342510235
 20
177.7905790896247
 11
501.1763424022016
 21
177.2072457382858
 72
     1
 10
501.1763424022016
 20
177.2072457382858
 11
504.676342510235
 21
176.6239123869469
 72
     1
 10
504.676342510235
 20
176.6239123869469
 11
504.676342510235
 21
177.7905790896247
 97
        0
 75
     0
 76
     1
 98
        0
  0
LINE
  5
199
330
196
100
AcDbEntity
  8
pomocnicze
  6
Continuous
 62
     7
100
AcDbLine
 10
516.1763420669
 20
164.6671577031
 30
0.0
 11
516.1763420669
 21
178.9572457923
 31
0.0
  0
LINE
  5
19A
330
196
100
AcDbEntity
  8
pomocnicze
  6
Continuous
 62
     7
100
AcDbLine
 10
501.1763420669
 20
174.1014569457
 30
0.0
 11
501.1763420669
 21
178.9572457923
 31
0.0
  0
LINE
  5
19B
330
196
100
AcDbEntity
  8
pomocnicze
  6
Continuous
 62
     7
100
AcDbLine
 10
516.1763420669
 20
177.2072457383
 30
0.0
 11
501.1763424022
 21
177.2072457383
 31
0.0
  0
TEXT
  5
19C
330
196
100
AcDbEntity
  8
pomocnicze
  6
Continuous
 62
     7
100
AcDbText
 10
506.9661149618
 20
178.0822457383
 30
0.0
 40
3.5
  1
15
  7
SEACAD_Solid_Edge_ISO
 11
506.9661149618
 21
181.5822457383
 31
0.0
100
AcDbText
 73
     3
  0
ENDBLK
  5
19E
330
196
100
AcDbEntity
  8
0
100
AcDbBlockEnd
  0
BLOCK
  5
1A7
330
1A0
100
AcDbEntity
  8
0
100
AcDbBlockBegin
  2
DMBLK19
 70
     0
 10
0.0
 20
0.0
 30
0.0
  3
DMBLK19
  1

  0
HATCH
  5
1A1
330
1A0
100
AcDbEntity
  8
pomocnicze
  6
Continuous
 62
     7
100
AcDbHatch
 10
0.0
 20
0.0
 30
0.0
210
0.0
220
0.0
230
1.0
  2
SOLID
 70
     1
 71
     0
 91
        1
 92
        1
 93
        3
 72
     1
 10
505.8050128587244
 20
188.1468800688525
 11
502.2655062981234
 21
187.8975372075529
 72
     1
 10
502.2655062981234
 20
187.8975372075529
 11
505.694556134789
 21
186.9854540026414
 72
     1
 10
505.694556134789
 20
186.9854540026414
 11
505.8050128587244
 21
188.1468800688525
 97
        0
 75
     0
 76
     1
 98
        0
  0
HATCH
  5
1A2
330
1A0
100
AcDbEntity
  8
pomocnicze
  6
Continuous
 62
     7
100
AcDbHatch
 10
0.0
 20
0.0
 30
0.0
210
0.0
220
0.0
230
1.0
  2
SOLID
 70
     1
 71
     0
 91
        1
 92
        1
 93
        3
 72
     1
 10
490.1861454179765
 20
187.5966771985518
 11
493.6763420669254
 21
188.2360565121713
 72
     1
 10
493.6763420669254
 20
188.2360565121713
 11
490.1674384324215
 21
188.7631939124606
 72
     1
 10
490.1674384324215
 20
188.7631939124605
 11
490.1861454179765
 21
187.5966771985518
 97
        0
 75
     0
 76
     1
 98
        0
  0
LINE
  5
1A3
330
1A0
100
AcDbEntity
  8
pomocnicze
  6
Continuous
 62
     7
100
AcDbLine
 10
501.1763420968
 20
174.1014573243
 30
0.0
 11
502.4032356335
 21
189.6421087894
 31
0.0
  0
ARC
  5
1A4
330
1A0
100
AcDbEntity
  8
pomocnicze
  6
Continuous
 62
     7
100
AcDbCircle
 10
493.6763420669
 20
79.1014569457
 30
0.0
 40
109.1345995664645
100
AcDbArc
 50
81.8110043534
 51
89.9999998946
  0
ARC
  5
1A5
330
1A0
100
AcDbEntity
  8
pomocnicze
  6
Continuous
 62
     7
100
AcDbCircle
 10
493.6763420669
 20
79.1014569457
 30
0.0
 40
109.134599566455
100
AcDbArc
 50
90.0
 51
93.6750071886
  0
TEXT
  5
1A6
330
1A0
100
AcDbEntity
  8
pomocnicze
  6
Continuous
 62
     7
100
AcDbText
 10
496.2998168792
 20
189.0930668712
 30
0.0
 40
3.5
  1
5°
 50
357.743005771
  7
SEACAD_Solid_Edge_ISO
 11
496.4376531571
 21
192.5903516981
 31
0.0
100
AcDbText
 73
     3
  0
ENDBLK
  5
1A8
330
1A0
100
AcDbEntity
  8
0
100
AcDbBlockEnd
  0
BLOCK
  5
1B1
330
1AA
100
AcDbEntity
  8
0
100
AcDbBlockBegin
  2
DMBLK20
 70
     0
 10
0.0
 20
0.0
 30
0.0
  3
DMBLK20
  1

  0
HATCH
  5
1AB
330
1AA
100
AcDbEntity
  8
pomocnicze
  6
Continuous
 62
     7
100
AcDbHatch
 10
0.0
 20
0.0
 30
0.0
210
0.0
220
0.0
230
1.0
  2
SOLID
 70
     1
 71
     0
 91
        1
 92
        1
 93
        3
 72
     1
 10
470.6164728290486
 20
313.5718612064741
 11
469.781924699358
 21
314.3871161447399
 72
     1
 10
469.781924699358
 20
314.3871161447399
 11
467.7534339494057
 21
311.475844286535
 72
     1
 10
467.7534339494057
 20
311.4758442865349
 11
470.6164728290486
 21
313.5718612064741
 97
        0
 75
     0
 76
     1
 98
        0
  0
HATCH
  5
1AC
330
1AA
100
AcDbEntity
  8
pomocnicze
  6
Continuous
 62
     7
100
AcDbHatch
 10
0.0
 20
0.0
 30
0.0
210
0.0
220
0.0
230
1.0
  2
SOLID
 70
     1
 71
     0
 91
        1
 92
        1
 93
        3
 72
     1
 10
476.2067918479013
 20
319.2944763818958
 11
478.2352825978536
 21
322.2057482401008
 72
     1
 10
478.2352825978536
 20
322.2057482401008
 11
475.3722437182107
 21
320.1097313201617
 72
     1
 10
475.3722437182107
 20
320.1097313201617
 11
476.2067918479013
 21
319.2944763818958
 97
        0
 75
     0
 76
     1
 98
        0
  0
LINE
  5
1AD
330
1AA
100
AcDbEntity
  8
pomocnicze
  6
Continuous
 62
     7
100
AcDbLine
 10
461.6260895352
 20
317.4615359613
 30
0.0
 11
469.0052561439
 21
310.2529618791
 31
0.0
  0
LINE
  5
1AE
330
1AA
100
AcDbEntity
  8
pomocnicze
  6
Continuous
 62
     7
100
AcDbLine
 10
472.107938418
 20
328.1914401547
 30
0.0
 11
479.4871050267
 21
320.9828660725
 31
0.0
  0
LINE
  5
1AF
330
1AA
100
AcDbEntity
  8
pomocnicze
  6
Continuous
 62
     7
100
AcDbLine
 10
467.7534339494
 20
311.4758442865
 30
0.0
 11
478.2352825979
 21
322.2057482401
 31
0.0
  0
TEXT
  5
1B0
330
1AA
100
AcDbEntity
  8
pomocnicze
  6
Continuous
 62
     7
100
AcDbText
 10
471.1733576072
 20
316.2288657958
 30
0.0
 40
3.5
  1
15
 50
45.67
  7
SEACAD_Solid_Edge_ISO
 11
468.6697132954
 21
318.6746305351
 31
0.0
100
AcDbText
 73
     3
  0
ENDBLK
  5
1B2
330
1AA
100
AcDbEntity
  8
0
100
AcDbBlockEnd
  0
BLOCK
  5
1BB
330
1B4
100
AcDbEntity
  8
0
100
AcDbBlockBegin
  2
DMBLK21
 70
     0
 10
0.0
 20
0.0
 30
0.0
  3
DMBLK21
  1

  0
HATCH
  5
1B5
330
1B4
100
AcDbEntity
  8
pomocnicze
  6
Continuous
 62
     7
100
AcDbHatch
 10
0.0
 20
0.0
 30
0.0
210
0.0
220
0.0
230
1.0
  2
SOLID
 70
     1
 71
     0
 91
        1
 92
        1
 93
        3
 72
     1
 10
549.0055704473348
 20
222.5973624628999
 11
548.171022317644
 21
223.4126174011658
 72
     1
 10
548.171022317644
 20
223.4126174011658
 11
546.1425315676917
 21
220.5013455429608
 72
     1
 10
546.1425315676918
 20
220.5013455429608
 11
549.0055704473348
 21
222.5973624628999
 97
        0
 75
     0
 76
     1
 98
        0
  0
HATCH
  5
1B6
330
1B4
100
AcDbEntity
  8
pomocnicze
  6
Continuous
 62
     7
100
AcDbHatch
 10
0.0
 20
0.0
 30
0.0
210
0.0
220
0.0
230
1.0
  2
SOLID
 70
     1
 71
     0
 91
        1
 92
        1
 93
        3
 72
     1
 10
559.8368147666097
 20
233.6849306144047
 11
561.865305516562
 21
236.5962024726097
 72
     1
 10
561.8653055165619
 20
236.5962024726097
 11
559.0022666369189
 21
234.5001855526706
 72
     1
 10
559.0022666369189
 20
234.5001855526706
 11
559.8368147666097
 21
233.6849306144047
 97
        0
 75
     0
 76
     1
 98
        0
  0
LINE
  5
1B7
330
1B4
100
AcDbEntity
  8
pomocnicze
  6
Continuous
 62
     7
100
AcDbLine
 10
538.6763420669
 20
227.7949307108
 30
0.0
 11
547.3943537622
 21
219.2784631356
 31
0.0
  0
LINE
  5
1B8
330
1B4
100
AcDbEntity
  8
pomocnicze
  6
Continuous
 62
     7
100
AcDbLine
 10
554.399115391
 20
243.8897870009
 30
0.0
 11
563.1171270863
 21
235.3733194257
 31
0.0
  0
LINE
  5
1B9
330
1B4
100
AcDbEntity
  8
pomocnicze
  6
Continuous
 62
     7
100
AcDbLine
 10
546.1425315677
 20
220.501345543
 30
0.0
 11
561.8653055166
 21
236.5962024726
 31
0.0
  0
TEXT
  5
1BA
330
1B4
100
AcDbEntity
  8
pomocnicze
  6
Continuous
 62
     7
100
AcDbText
 10
550.960035506
 20
226.6850213844
 30
0.0
 40
3.5
  1
22,5
 50
45.67
  7
SEACAD_Solid_Edge_ISO
 11
548.4563911942
 21
229.1307861237
 31
0.0
100
AcDbText
 73
     3
  0
ENDBLK
  5
1BC
330
1B4
100
AcDbEntity
  8
0
100
AcDbBlockEnd
  0
BLOCK
  5
1C3
330
1BE
100
AcDbEntity
  8
0
100
AcDbBlockBegin
  2
DMBLK22
 70
     0
 10
0.0
 20
0.0
 30
0.0
  3
DMBLK22
  1

  0
HATCH
  5
1BF
330
1BE
100
AcDbEntity
  8
pomocnicze
  6
Continuous
 62
     7
100
AcDbHatch
 10
0.0
 20
0.0
 30
0.0
210
0.0
220
0.0
230
1.0
  2
SOLID
 70
     1
 71
     0
 91
        1
 92
        1
 93
        3
 72
     1
 10
547.1759173834105
 20
241.3887613850065
 11
550.284351888378
 21
239.6776466947108
 72
     1
 10
550.2843518883778
 20
239.6776466947108
 11
547.898896985937
 21
242.3044096195745
 72
     1
 10
547.898896985937
 20
242.3044096195745
 11
547.1759173834105
 21
241.3887613850065
 97
        0
 75
     0
 76
     1
 98
        0
  0
HATCH
  5
1C0
330
1BE
100
AcDbEntity
  8
pomocnicze
  6
Continuous
 62
     7
100
AcDbHatch
 10
0.0
 20
0.0
 30
0.0
210
0.0
220
0.0
230
1.0
  2
SOLID
 70
     1
 71
     0
 91
        1
 92
        1
 93
        3
 72
     1
 10
530.3981950121894
 20
242.8632013076034
 11
527.8500265969856
 21
240.3939673610573
 72
     1
 10
527.8500265969856
 20
240.3939673610573
 11
531.0612888102474
 21
241.9032962028591
 72
     1
 10
531.0612888102473
 20
241.9032962028591
 11
530.3981950121893
 21
242.8632013076034
 97
        0
 75
     0
 76
     1
 98
        0
  0
ARC
  5
1C1
330
1BE
100
AcDbEntity
  8
pomocnicze
  6
Continuous
 62
     7
100
AcDbCircle
 10
538.6763420669
 20
227.7949307108
 30
0.0
 40
16.61158725619315
100
AcDbArc
 50
45.67
 51
130.6723735793
  0
TEXT
  5
1C2
330
1BE
100
AcDbEntity
  8
pomocnicze
  6
Continuous
 62
     7
100
AcDbText
 10
536.4119734127
 20
245.3627300693
 30
0.0
 40
3.5
  1
85°
 50
358.1711858321
  7
SEACAD_Solid_Edge_ISO
 11
536.5236703443
 21
248.8609473004
 31
0.0
100
AcDbText
 73
     3
  0
ENDBLK
  5
1C4
330
1BE
100
AcDbEntity
  8
0
100
AcDbBlockEnd
  0
BLOCK
  5
1CD
330
1C6
100
AcDbEntity
  8
0
100
AcDbBlockBegin
  2
DMBLK23
 70
     0
 10
0.0
 20
0.0
 30
0.0
  3
DMBLK23
  1

  0
LINE
  5
1C7
330
1C6
100
AcDbEntity
  8
pomocnicze
  6
Continuous
 62
     7
100
AcDbLine
 10
75.9167444068
 20
244.1638273884
 30
0.0
 11
75.9167444068
 21
248.2206455702
 31
0.0
  0
HATCH
  5
1C8
330
1C6
100
AcDbEntity
  8
pomocnicze
  6
Continuous
 62
     7
100
AcDbHatch
 10
0.0
 20
0.0
 30
0.0
210
0.0
220
0.0
230
1.0
  2
SOLID
 70
     1
 71
     0
 91
        1
 92
        1
 93
        3
 72
     1
 10
73.70272923731919
 20
261.0895415320443
 11
74.869395939997
 21
261.0895415320443
 72
     1
 10
74.869395939997
 20
261.0895415320443
 11
74.2860625886581
 21
264.5895416400778
 72
     1
 10
74.2860625886581
 20
264.5895416400778
 11
73.70272923731919
 21
261.0895415320443
 97
        0
 75
     0
 76
     1
 98
        0
  0
HATCH
  5
1C9
330
1C6
100
AcDbEntity
  8
pomocnicze
  6
Continuous
 62
     7
100
AcDbHatch
 10
0.0
 20
0.0
 30
0.0
210
0.0
220
0.0
230
1.0
  2
SOLID
 70
     1
 71
     0
 91
        1
 92
        1
 93
        3
 72
     1
 10
73.70272923731919
 20
231.2949314265894
 11
74.2860625886581
 21
227.794931318556
 72
     1
 10
74.2860625886581
 20
227.794931318556
 11
74.869395939997
 21
231.2949314265894
 72
     1
 10
74.869395939997
 20
231.2949314265894
 11
73.70272923731919
 21
231.2949314265894
 97
        0
 75
     0
 76
     1
 98
        0
  0
LINE
  5
1CA
330
1C6
100
AcDbEntity
  8
pomocnicze
  6
Continuous
 62
     7
100
AcDbLine
 10
84.2576076665
 20
264.5895416401
 30
0.0
 11
72.5360625346
 21
264.5895416401
 31
0.0
  0
LINE
  5
1CB
330
1C6
100
AcDbEntity
  8
pomocnicze
  6
Continuous
 62
     7
100
AcDbLine
 10
74.2860625887
 20
264.5895416401
 30
0.0
 11
74.2860625887
 21
227.7949313186
 31
0.0
  0
TEXT
  5
1CC
330
1C6
100
AcDbEntity
  8
pomocnicze
  6
Continuous
 62
     7
100
AcDbText
 10
72.9735625887
 20
244.1638273884
 30
0.0
 40
3.5
  1
37
 50
90.0
  7
SEACAD_Solid_Edge_ISO
 11
69.4735625887
 21
244.1638273884
 31
0.0
100
AcDbText
 73
     3
  0
ENDBLK
  5
1CE
330
1C6
100
AcDbEntity
  8
0
100
AcDbBlockEnd
  0
BLOCK
  5
1D7
330
1D0
100
AcDbEntity
  8
0
100
AcDbBlockBegin
  2
DMBLK24
 70
     0
 10
0.0
 20
0.0
 30
0.0
  3
DMBLK24
  1

  0
HATCH
  5
1D1
330
1D0
100
AcDbEntity
  8
pomocnicze
  6
Continuous
 62
     7
100
AcDbHatch
 10
0.0
 20
0.0
 30
0.0
210
0.0
220
0.0
230
1.0
  2
SOLID
 70
     1
 71
     0
 91
        1
 92
        1
 93
        3
 72
     1
 10
542.7220470209188
 20
177.601457053745
 11
541.5553803182411
 21
177.601457053745
 72
     1
 10
541.555380318241
 20
177.601457053745
 11
542.1387136695798
 21
174.1014569457116
 72
     1
 10
542.1387136695798
 20
174.1014569457116
 11
542.7220470209187
 21
177.601457053745
 97
        0
 75
     0
 76
     1
 98
        0
  0
HATCH
  5
1D2
330
1D0
100
AcDbEntity
  8
pomocnicze
  6
Continuous
 62
     7
100
AcDbHatch
 10
0.0
 20
0.0
 30
0.0
210
0.0
220
0.0
230
1.0
  2
SOLID
 70
     1
 71
     0
 91
        1
 92
        1
 93
        3
 72
     1
 10
542.7220470209188
 20
160.6014568376782
 11
542.1387136695799
 21
164.1014569457116
 72
     1
 10
542.1387136695798
 20
164.1014569457116
 11
541.555380318241
 21
160.6014568376782
 72
     1
 10
541.555380318241
 20
160.6014568376782
 11
542.7220470209187
 21
160.6014568376782
 97
        0
 75
     0
 76
     1
 98
        0
  0
LINE
  5
1D3
330
1D0
100
AcDbEntity
  8
pomocnicze
  6
Continuous
 62
     7
100
AcDbLine
 10
526.1763420669
 20
174.1014569457
 30
0.0
 11
543.8887137236
 21
174.1014569457
 31
0.0
  0
LINE
  5
1D4
330
1D0
100
AcDbEntity
  8
pomocnicze
  6
Continuous
 62
     7
100
AcDbLine
 10
526.571078909
 20
164.1014569457
 30
0.0
 11
543.8887137236
 21
164.1014569457
 31
0.0
  0
LINE
  5
1D5
330
1D0
100
AcDbEntity
  8
pomocnicze
  6
Continuous
 62
     7
100
AcDbLine
 10
542.1387136696
 20
181.1014571618
 30
0.0
 11
542.1387136696
 21
157.1014560218
 31
0.0
  0
TEXT
  5
1D6
330
1D0
100
AcDbEntity
  8
pomocnicze
  6
Continuous
 62
     7
100
AcDbText
 10
541.2637136696
 20
167.3514570575
 30
0.0
 40
3.5
  1
10
 50
90.0
  7
SEACAD_Solid_Edge_ISO
 11
537.7637136696
 21
167.3514570575
 31
0.0
100
AcDbText
 73
     3
  0
ENDBLK
  5
1D8
330
1D0
100
AcDbEntity
  8
0
100
AcDbBlockEnd
  0
BLOCK
  5
1E1
330
1DA
100
AcDbEntity
  8
0
100
AcDbBlockBegin
  2
DMBLK25
 70
     0
 10
0.0
 20
0.0
 30
0.0
  3
DMBLK25
  1

  0
HATCH
  5
1DB
330
1DA
100
AcDbEntity
  8
pomocnicze
  6
Continuous
 62
     7
100
AcDbHatch
 10
0.0
 20
0.0
 30
0.0
210
0.0
220
0.0
230
1.0
  2
SOLID
 70
     1
 71
     0
 91
        1
 92
        1
 93
        3
 72
     1
 10
542.7220474463862
 20
167.601457053745
 11
541.5553807437085
 21
167.601457053745
 72
     1
 10
541.5553807437085
 20
167.601457053745
 11
542.1387140950474
 21
164.1014569457116
 72
     1
 10
542.1387140950474
 20
164.1014569457116
 11
542.7220474463862
 21
167.601457053745
 97
        0
 75
     0
 76
     1
 98
        0
  0
HATCH
  5
1DC
330
1DA
100
AcDbEntity
  8
pomocnicze
  6
Continuous
 62
     7
100
AcDbHatch
 10
0.0
 20
0.0
 30
0.0
210
0.0
220
0.0
230
1.0
  2
SOLID
 70
     1
 71
     0
 91
        1
 92
        1
 93
        3
 72
     1
 10
542.7220474463862
 20
155.6014568376782
 11
542.1387140950474
 21
159.1014569457116
 72
     1
 10
542.1387140950474
 20
159.1014569457116
 11
541.5553807437085
 21
155.6014568376782
 72
     1
 10
541.5553807437085
 20
155.6014568376782
 11
542.7220474463862
 21
155.6014568376782
 97
        0
 75
     0
 76
     1
 98
        0
  0
LINE
  5
1DD
330
1DA
100
AcDbEntity
  8
pomocnicze
  6
Continuous
 62
     7
100
AcDbLine
 10
526.571078909
 20
164.1014569457
 30
0.0
 11
543.8887141491
 21
164.1014569457
 31
0.0
  0
LINE
  5
1DE
330
1DA
100
AcDbEntity
  8
pomocnicze
  6
Continuous
 62
     7
100
AcDbLine
 10
511.1763420669
 20
159.1014569457
 30
0.0
 11
543.8887141491
 21
159.1014569457
 31
0.0
  0
LINE
  5
1DF
330
1DA
100
AcDbEntity
  8
pomocnicze
  6
Continuous
 62
     7
100
AcDbLine
 10
542.138714095
 20
171.1014571618
 30
0.0
 11
542.138714095
 21
152.1014568414
 31
0.0
  0
TEXT
  5
1E0
330
1DA
100
AcDbEntity
  8
pomocnicze
  6
Continuous
 62
     7
100
AcDbText
 10
541.263714095
 20
160.6071388198
 30
0.0
 40
3.5
  1
5
 50
90.0
  7
SEACAD_Solid_Edge_ISO
 11
537.763714095
 21
160.6071388198
 31
0.0
100
AcDbText
 73
     3
  0
ENDBLK
  5
1E2
330
1DA
100
AcDbEntity
  8
0
100
AcDbBlockEnd
  0
BLOCK
  5
1EB
330
1E4
100
AcDbEntity
  8
0
100
AcDbBlockBegin
  2
DMBLK26
 70
     0
 10
0.0
 20
0.0
 30
0.0
  3
DMBLK26
  1

  0
HATCH
  5
1E5
330
1E4
100
AcDbEntity
  8
pomocnicze
  6
Continuous
 62
     7
100
AcDbHatch
 10
0.0
 20
0.0
 30
0.0
210
0.0
220
0.0
230
1.0
  2
SOLID
 70
     1
 71
     0
 91
        1
 92
        1
 93
        3
 72
     1
 10
66.75760777455186
 20
60.54466333731933
 11
66.75760777455186
 21
61.71133003999713
 72
     1
 10
66.75760777455186
 20
61.71133003999713
 11
63.25760766651844
 21
61.12799668865823
 72
     1
 10
63.25760766651845
 20
61.12799668865823
 11
66.75760777455187
 21
60.54466333731933
 97
        0
 75
     0
 76
     1
 98
        0
  0
HATCH
  5
1E6
330
1E4
100
AcDbEntity
  8
pomocnicze
  6
Continuous
 62
     7
100
AcDbHatch
 10
0.0
 20
0.0
 30
0.0
210
0.0
220
0.0
230
1.0
  2
SOLID
 70
     1
 71
     0
 91
        1
 92
        1
 93
        3
 72
     1
 10
104.7576093466244
 20
60.54466333731933
 11
108.2576094546578
 21
61.12799668865823
 72
     1
 10
108.2576094546578
 20
61.12799668865823
 11
104.7576093466244
 21
61.71133003999713
 72
     1
 10
104.7576093466244
 20
61.71133003999713
 11
104.7576093466244
 21
60.54466333731933
 97
        0
 75
     0
 76
     1
 98
        0
  0
LINE
  5
1E7
330
1E4
100
AcDbEntity
  8
pomocnicze
  6
Continuous
 62
     7
100
AcDbLine
 10
63.2576076665
 20
79.1014569457
 30
0.0
 11
63.2576076665
 21
59.3779966346
 31
0.0
  0
LINE
  5
1E8
330
1E4
100
AcDbEntity
  8
pomocnicze
  6
Continuous
 62
     7
100
AcDbLine
 10
108.2576076665
 20
79.1014569457
 30
0.0
 11
108.2576076665
 21
59.3779966346
 31
0.0
  0
LINE
  5
1E9
330
1E4
100
AcDbEntity
  8
pomocnicze
  6
Continuous
 62
     7
100
AcDbLine
 10
63.2576076665
 20
61.1279966887
 30
0.0
 11
108.2576094547
 21
61.1279966887
 31
0.0
  0
TEXT
  5
1EA
330
1E4
100
AcDbEntity
  8
pomocnicze
  6
Continuous
 62
     7
100
AcDbText
 10
83.7291994697
 20
62.0029966887
 30
0.0
 40
3.5
  1
45
  7
SEACAD_Solid_Edge_ISO
 11
83.7291994697
 21
65.5029966887
 31
0.0
100
AcDbText
 73
     3
  0
ENDBLK
  5
1EC
330
1E4
100
AcDbEntity
  8
0
100
AcDbBlockEnd
  0
BLOCK
  5
1F5
330
1EE
100
AcDbEntity
  8
0
100
AcDbBlockBegin
  2
DMBLK27
 70
     0
 10
0.0
 20
0.0
 30
0.0
  3
DMBLK27
  1

  0
HATCH
  5
1EF
330
1EE
100
AcDbEntity
  8
pomocnicze
  6
Continuous
 62
     7
100
AcDbHatch
 10
0.0
 20
0.0
 30
0.0
210
0.0
220
0.0
230
1.0
  2
SOLID
 70
     1
 71
     0
 91
        1
 92
        1
 93
        3
 72
     1
 10
31.17427380854006
 20
82.60145705374502
 11
31.75760715987897
 21
79.1014569457116
 72
     1
 10
31.75760715987897
 20
79.1014569457116
 11
32.34094051121787
 21
82.60145705374502
 72
     1
 10
32.34094051121787
 20
82.60145705374502
 11
31.17427380854006
 21
82.60145705374502
 97
        0
 75
     0
 76
     1
 98
        0
  0
HATCH
  5
1F0
330
1EE
100
AcDbEntity
  8
pomocnicze
  6
Continuous
 62
     7
100
AcDbHatch
 10
0.0
 20
0.0
 30
0.0
210
0.0
220
0.0
230
1.0
  2
SOLID
 70
     1
 71
     0
 91
        1
 92
        1
 93
        3
 72
     1
 10
31.17427380854006
 20
170.6014556455853
 11
32.34094051121787
 21
170.6014556455853
 72
     1
 10
32.34094051121787
 20
170.6014556455853
 11
31.75760715987897
 21
174.1014557536187
 72
     1
 10
31.75760715987897
 20
174.1014557536187
 11
31.17427380854006
 21
170.6014556455853
 97
        0
 75
     0
 76
     1
 98
        0
  0
LINE
  5
1F1
330
1EE
100
AcDbEntity
  8
pomocnicze
  6
Continuous
 62
     7
100
AcDbLine
 10
63.2576076665
 20
79.1014569457
 30
0.0
 11
30.0076071059
 21
79.1014569457
 31
0.0
  0
LINE
  5
1F2
330
1EE
100
AcDbEntity
  8
pomocnicze
  6
Continuous
 62
     7
100
AcDbLine
 10
75.7576076665
 20
174.1014569457
 30
0.0
 11
30.0076071059
 21
174.1014569457
 31
0.0
  0
LINE
  5
1F3
330
1EE
100
AcDbEntity
  8
pomocnicze
  6
Continuous
 62
     7
100
AcDbLine
 10
31.7576071599
 20
79.1014569457
 30
0.0
 11
31.7576071599
 21
174.1014557536
 31
0.0
  0
TEXT
  5
1F4
330
1EE
100
AcDbEntity
  8
pomocnicze
  6
Continuous
 62
     7
100
AcDbText
 10
30.8826071599
 20
124.5332745315
 30
0.0
 40
3.5
  1
95
 50
90.0
  7
SEACAD_Solid_Edge_ISO
 11
27.3826071599
 21
124.5332745315
 31
0.0
100
AcDbText
 73
     3
  0
ENDBLK
  5
1F6
330
1EE
100
AcDbEntity
  8
0
100
AcDbBlockEnd
  0
BLOCK
  5
1FF
330
1F8
100
AcDbEntity
  8
0
100
AcDbBlockBegin
  2
DMBLK28
 70
     0
 10
0.0
 20
0.0
 30
0.0
  3
DMBLK28
  1

  0
HATCH
  5
1F9
330
1F8
100
AcDbEntity
  8
pomocnicze
  6
Continuous
 62
     7
100
AcDbHatch
 10
0.0
 20
0.0
 30
0.0
210
0.0
220
0.0
230
1.0
  2
SOLID
 70
     1
 71
     0
 91
        1
 92
        1
 93
        3
 72
     1
 10
52.17427445674058
 20
82.60145705374502
 11
52.75760780807948
 21
79.1014569457116
 72
     1
 10
52.75760780807948
 20
79.1014569457116
 11
53.34094115941838
 21
82.60145705374502
 72
     1
 10
53.34094115941838
 20
82.60145705374502
 11
52.17427445674058
 21
82.60145705374502
 97
        0
 75
     0
 76
     1
 98
        0
  0
HATCH
  5
1FA
330
1F8
100
AcDbEntity
  8
pomocnicze
  6
Continuous
 62
     7
100
AcDbHatch
 10
0.0
 20
0.0
 30
0.0
210
0.0
220
0.0
230
1.0
  2
SOLID
 70
     1
 71
     0
 91
        1
 92
        1
 93
        3
 72
     1
 10
52.17427445674058
 20
112.6014573145153
 11
53.34094115941838
 21
112.6014573145153
 72
     1
 10
53.34094115941838
 20
112.6014573145153
 11
52.75760780807948
 21
116.1014574225488
 72
     1
 10
52.75760780807948
 20
116.1014574225488
 11
52.17427445674058
 21
112.6014573145153
 97
        0
 75
     0
 76
     1
 98
        0
  0
LINE
  5
1FB
330
1F8
100
AcDbEntity
  8
pomocnicze
  6
Continuous
 62
     7
100
AcDbLine
 10
63.2576076665
 20
79.1014569457
 30
0.0
 11
51.0076077541
 21
79.1014569457
 31
0.0
  0
LINE
  5
1FC
330
1F8
100
AcDbEntity
  8
pomocnicze
  6
Continuous
 62
     7
100
AcDbLine
 10
66.1786602981
 20
116.1014569457
 30
0.0
 11
51.0076077541
 21
116.1014569457
 31
0.0
  0
LINE
  5
1FD
330
1F8
100
AcDbEntity
  8
pomocnicze
  6
Continuous
 62
     7
100
AcDbLine
 10
52.7576078081
 20
79.1014569457
 30
0.0
 11
52.7576078081
 21
116.1014574225
 31
0.0
  0
TEXT
  5
1FE
330
1F8
100
AcDbEntity
  8
pomocnicze
  6
Continuous
 62
     7
100
AcDbText
 10
51.8826078081
 20
95.5730480932
 30
0.0
 40
3.5
  1
37
 50
90.0
  7
SEACAD_Solid_Edge_ISO
 11
48.3826078081
 21
95.5730480932
 31
0.0
100
AcDbText
 73
     3
  0
ENDBLK
  5
200
330
1F8
100
AcDbEntity
  8
0
100
AcDbBlockEnd
  0
BLOCK
  5
209
330
202
100
AcDbEntity
  8
0
100
AcDbBlockBegin
  2
DMBLK29
 70
     0
 10
0.0
 20
0.0
 30
0.0
  3
DMBLK29
  1

  0
HATCH
  5
203
330
202
100
AcDbEntity
  8
pomocnicze
  6
Continuous
 62
     7
100
AcDbHatch
 10
0.0
 20
0.0
 30
0.0
210
0.0
220
0.0
230
1.0
  2
SOLID
 70
     1
 71
     0
 91
        1
 92
        1
 93
        3
 72
     1
 10
47.16033173823472
 20
82.60145705374502
 11
47.74366508957362
 21
79.1014569457116
 72
     1
 10
47.74366508957362
 20
79.1014569457116
 11
48.32699844091252
 21
82.60145705374502
 72
     1
 10
48.32699844091252
 20
82.60145705374502
 11
47.16033173823472
 21
82.60145705374502
 97
        0
 75
     0
 76
     1
 98
        0
  0
HATCH
  5
204
330
202
100
AcDbEntity
  8
pomocnicze
  6
Continuous
 62
     7
100
AcDbHatch
 10
0.0
 20
0.0
 30
0.0
210
0.0
220
0.0
230
1.0
  2
SOLID
 70
     1
 71
     0
 91
        1
 92
        1
 93
        3
 72
     1
 10
47.16033173823472
 20
127.6014579105618
 11
48.32699844091252
 21
127.6014579105618
 72
     1
 10
48.32699844091252
 20
127.6014579105618
 11
47.74366508957362
 21
131.1014580185952
 72
     1
 10
47.74366508957362
 20
131.1014580185952
 11
47.16033173823472
 21
127.6014579105618
 97
        0
 75
     0
 76
     1
 98
        0
  0
LINE
  5
205
330
202
100
AcDbEntity
  8
pomocnicze
  6
Continuous
 62
     7
100
AcDbLine
 10
63.2576076665
 20
79.1014569457
 30
0.0
 11
45.9936650356
 21
79.1014569457
 31
0.0
  0
LINE
  5
206
330
202
100
AcDbEntity
  8
pomocnicze
  6
Continuous
 62
     7
100
AcDbLine
 10
67.3628708244
 20
131.1014569457
 30
0.0
 11
45.9936650356
 21
131.1014569457
 31
0.0
  0
LINE
  5
207
330
202
100
AcDbEntity
  8
pomocnicze
  6
Continuous
 62
     7
100
AcDbLine
 10
47.7436650896
 20
79.1014569457
 30
0.0
 11
47.7436650896
 21
131.1014580186
 31
0.0
  0
TEXT
  5
208
330
202
100
AcDbEntity
  8
pomocnicze
  6
Continuous
 62
     7
100
AcDbText
 10
46.8686650896
 20
103.033275664
 30
0.0
 40
3.5
  1
52
 50
90.0
  7
SEACAD_Solid_Edge_ISO
 11
43.3686650896
 21
103.033275664
 31
0.0
100
AcDbText
 73
     3
  0
ENDBLK
  5
20A
330
202
100
AcDbEntity
  8
0
100
AcDbBlockEnd
  0
BLOCK
  5
212
330
20C
100
AcDbEntity
  8
0
100
AcDbBlockBegin
  2
DMBLK30
 70
     0
 10
0.0
 20
0.0
 30
0.0
  3
DMBLK30
  1

  0
HATCH
  5
20D
330
20C
100
AcDbEntity
  8
pomocnicze
  6
Continuous
 62
     7
100
AcDbHatch
 10
0.0
 20
0.0
 30
0.0
210
0.0
220
0.0
230
1.0
  2
SOLID
 70
     1
 71
     0
 91
        1
 92
        1
 93
        3
 72
     1
 10
89.25760777455186
 20
179.9466349168312
 11
89.25760777455186
 21
181.113301619509
 72
     1
 10
89.25760777455186
 20
181.113301619509
 11
85.75760766651844
 21
180.5299682681701
 72
     1
 10
85.75760766651844
 20
180.5299682681701
 11
89.25760777455186
 21
179.9466349168312
 97
        0
 75
     0
 76
     1
 98
        0
  0
HATCH
  5
20E
330
20C
100
AcDbEntity
  8
pomocnicze
  6
Continuous
 62
     7
100
AcDbHatch
 10
0.0
 20
0.0
 30
0.0
210
0.0
220
0.0
230
1.0
  2
SOLID
 70
     1
 71
     0
 91
        1
 92
        1
 93
        3
 72
     1
 10
97.2576072232089
 20
179.9466349168312
 11
100.7576073312423
 21
180.5299682681701
 72
     1
 10
100.7576073312423
 20
180.5299682681701
 11
97.2576072232089
 21
181.113301619509
 72
     1
 10
97.2576072232089
 20
181.113301619509
 11
97.2576072232089
 21
179.9466349168312
 97
        0
 75
     0
 76
     1
 98
        0
  0
LINE
  5
20F
330
20C
100
AcDbEntity
  8
pomocnicze
  6
Continuous
 62
     7
100
AcDbLine
 10
100.7576076665
 20
174.1014569457
 30
0.0
 11
100.7576076665
 21
182.2799683222
 31
0.0
  0
LINE
  5
210
330
20C
100
AcDbEntity
  8
pomocnicze
  6
Continuous
 62
     7
100
AcDbLine
 10
85.7576076665
 20
180.5299682682
 30
0.0
 11
100.7576073312
 21
180.5299682682
 31
0.0
  0
TEXT
  5
211
330
20C
100
AcDbEntity
  8
pomocnicze
  6
Continuous
 62
     7
100
AcDbText
 10
91.5473802262
 20
181.4049682682
 30
0.0
 40
3.5
  1
15
  7
SEACAD_Solid_Edge_ISO
 11
91.5473802262
 21
184.9049682682
 31
0.0
100
AcDbText
 73
     3
  0
ENDBLK
  5
213
330
20C
100
AcDbEntity
  8
0
100
AcDbBlockEnd
  0
BLOCK
  5
21B
330
215
100
AcDbEntity
  8
0
100
AcDbBlockBegin
  2
DMBLK31
 70
     0
 10
0.0
 20
0.0
 30
0.0
  3
DMBLK31
  1

  0
HATCH
  5
216
330
215
100
AcDbEntity
  8
pomocnicze
  6
Continuous
 62
     7
100
AcDbHatch
 10
0.0
 20
0.0
 30
0.0
210
0.0
220
0.0
230
1.0
  2
SOLID
 70
     1
 71
     0
 91
        1
 92
        1
 93
        3
 72
     1
 10
89.25760777455186
 20
139.4075787874055
 11
85.75760766651844
 21
138.8242454360666
 72
     1
 10
85.75760766651844
 20
138.8242454360666
 11
89.25760777455186
 21
138.2409120847277
 72
     1
 10
89.25760777455186
 20
138.2409120847277
 11
89.25760777455186
 21
139.4075787874055
 97
        0
 75
     0
 76
     1
 98
        0
  0
HATCH
  5
217
330
215
100
AcDbEntity
  8
pomocnicze
  6
Continuous
 62
     7
100
AcDbHatch
 10
0.0
 20
0.0
 30
0.0
210
0.0
220
0.0
230
1.0
  2
SOLID
 70
     1
 71
     0
 91
        1
 92
        1
 93
        3
 72
     1
 10
100.6523444005903
 20
139.4075787874055
 11
100.6523444005903
 21
138.2409120847277
 72
     1
 10
100.6523444005903
 20
138.2409120847277
 11
104.1523445086237
 21
138.8242454360666
 72
     1
 10
104.1523445086237
 20
138.8242454360666
 11
100.6523444005903
 21
139.4075787874055
 97
        0
 75
     0
 76
     1
 98
        0
  0
LINE
  5
218
330
215
100
AcDbEntity
  8
pomocnicze
  6
Continuous
 62
     7
100
AcDbLine
 10
104.1523445086
 20
131.1014569457
 30
0.0
 11
104.1523445086
 21
140.5742454901
 31
0.0
  0
LINE
  5
219
330
215
100
AcDbEntity
  8
pomocnicze
  6
Continuous
 62
     7
100
AcDbLine
 10
85.7576076665
 20
138.8242454361
 30
0.0
 11
132.8114476779
 21
138.8242454361
 31
0.0
  0
TEXT
  5
21A
330
215
100
AcDbEntity
  8
pomocnicze
  6
Continuous
 62
     7
100
AcDbText
 10
123.3137210944
 20
139.6992454361
 30
0.0
 40
3.5
  1
18,39
  7
SEACAD_Solid_Edge_ISO
 11
123.3137210944
 21
143.1992454361
 31
0.0
100
AcDbText
 73
     3
  0
ENDBLK
  5
21C
330
215
100
AcDbEntity
  8
0
100
AcDbBlockEnd
  0
BLOCK
  5
223
330
21E
100
AcDbEntity
  8
0
100
AcDbBlockBegin
  2
DMBLK32
 70
     0
 10
0.0
 20
0.0
 30
0.0
  3
DMBLK32
  1

  0
HATCH
  5
21F
330
21E
100
AcDbEntity
  8
pomocnicze
  6
Continuous
 62
     7
100
AcDbHatch
 10
0.0
 20
0.0
 30
0.0
210
0.0
220
0.0
230
1.0
  2
SOLID
 70
     1
 71
     0
 91
        1
 92
        1
 93
        3
 72
     1
 10
137.38348488739
 20
333.1371814288767
 11
139.2375152594019
 21
336.1625491643223
 72
     1
 10
139.2375152594019
 20
336.1625491643223
 11
136.5025023987056
 21
333.9020219676613
 72
     1
 10
136.5025023987055
 20
333.9020219676613
 11
137.38348488739
 21
333.1371814288767
 97
        0
 75
     0
 76
     1
 98
        0
  0
HATCH
  5
220
330
21E
100
AcDbEntity
  8
pomocnicze
  6
Continuous
 62
     7
100
AcDbHatch
 10
0.0
 20
0.0
 30
0.0
210
0.0
220
0.0
230
1.0
  2
SOLID
 70
     1
 71
     0
 91
        1
 92
        1
 93
        3
 72
     1
 10
136.0265439375346
 20
321.8365447640847
 11
138.574988617951
 21
319.3675959460904
 72
     1
 10
138.574988617951
 20
319.3675959460904
 11
136.9650378612309
 21
322.5296106702742
 72
     1
 10
136.9650378612309
 20
322.5296106702742
 11
136.0265439375346
 21
321.8365447640847
 97
        0
 75
     0
 76
     1
 98
        0
  0
ARC
  5
221
330
21E
100
AcDbEntity
  8
pomocnicze
  6
Continuous
 62
     7
100
AcDbCircle
 10
146.6008600874
 20
327.4615359613
 30
0.0
 40
11.39852963387965
100
AcDbArc
 50
130.24
 51
225.241941279
  0
TEXT
  5
222
330
21E
100
AcDbEntity
  8
pomocnicze
  6
Continuous
 62
     7
100
AcDbText
 10
134.2271276439
 20
325.1633981761
 30
0.0
 40
3.5
  1
95°
 50
87.7409696905
  7
SEACAD_Solid_Edge_ISO
 11
130.7298477174
 21
325.3013587345
 31
0.0
100
AcDbText
 73
     3
  0
ENDBLK
  5
224
330
21E
100
AcDbEntity
  8
0
100
AcDbBlockEnd
  0
BLOCK
  5
22D
330
226
100
AcDbEntity
  8
0
100
AcDbBlockBegin
  2
DMBLK33
 70
     0
 10
0.0
 20
0.0
 30
0.0
  3
DMBLK33
  1

  0
HATCH
  5
227
330
226
100
AcDbEntity
  8
pomocnicze
  6
Continuous
 62
     7
100
AcDbHatch
 10
0.0
 20
0.0
 30
0.0
210
0.0
220
0.0
230
1.0
  2
SOLID
 70
     1
 71
     0
 91
        1
 92
        1
 93
        3
 72
     1
 10
95.57485294111758
 20
281.1978357937508
 11
98.28110540314684
 21
278.9029553683737
 72
     1
 10
98.28110540314684
 20
278.9029553683737
 11
96.46542240134956
 21
281.9514917043886
 72
     1
 10
96.46542240134956
 20
281.9514917043886
 11
95.57485294111758
 21
281.1978357937508
 97
        0
 75
     0
 76
     1
 98
        0
  0
HATCH
  5
228
330
226
100
AcDbEntity
  8
pomocnicze
  6
Continuous
 62
     7
100
AcDbHatch
 10
0.0
 20
0.0
 30
0.0
210
0.0
220
0.0
230
1.0
  2
SOLID
 70
     1
 71
     0
 91
        1
 92
        1
 93
        3
 72
     1
 10
88.2170183173805
 20
289.8923377764829
 11
89.10758777761247
 21
290.6459936871207
 72
     1
 10
89.10758777761247
 20
290.6459936871207
 11
86.40133531558321
 21
292.9408741124977
 72
     1
 10
86.40133531558321
 20
292.9408741124977
 11
88.2170183173805
 21
289.8923377764829
 97
        0
 75
     0
 76
     1
 98
        0
  0
LINE
  5
229
330
226
100
AcDbEntity
  8
pomocnicze
  6
Continuous
 62
     7
100
AcDbLine
 10
99.3351222137
 20
279.7949307108
 30
0.0
 11
96.9452512128
 21
277.7724715024
 31
0.0
  0
LINE
  5
22A
330
226
100
AcDbEntity
  8
pomocnicze
  6
Continuous
 62
     7
100
AcDbLine
 10
87.4553521262
 20
293.8328494549
 30
0.0
 11
85.0654811252
 21
291.8103902465
 31
0.0
  0
LINE
  5
22B
330
226
100
AcDbEntity
  8
pomocnicze
  6
Continuous
 62
     7
100
AcDbLine
 10
98.2811054031
 20
278.9029553684
 30
0.0
 11
71.4837402604
 21
310.5684869113
 31
0.0
  0
TEXT
  5
22C
330
226
100
AcDbEntity
  8
pomocnicze
  6
Continuous
 62
     7
100
AcDbText
 10
72.9430055714
 20
310.1986314486
 30
0.0
 40
3.5
  1
18,39
 50
310.24
  7
SEACAD_Solid_Edge_ISO
 11
75.6147138696
 21
312.4595991108
 31
0.0
100
AcDbText
 73
     3
  0
ENDBLK
  5
22E
330
226
100
AcDbEntity
  8
0
100
AcDbBlockEnd
  0
BLOCK
  5
237
330
230
100
AcDbEntity
  8
0
100
AcDbBlockBegin
  2
DMBLK34
 70
     0
 10
0.0
 20
0.0
 30
0.0
  3
DMBLK34
  1

  0
HATCH
  5
231
330
230
100
AcDbEntity
  8
pomocnicze
  6
Continuous
 62
     7
100
AcDbHatch
 10
0.0
 20
0.0
 30
0.0
210
0.0
220
0.0
230
1.0
  2
SOLID
 70
     1
 71
     0
 91
        1
 92
        1
 93
        3
 72
     1
 10
145.9118279473723
 20
331.4635151438891
 11
145.0212584871403
 21
330.7098592332513
 72
     1
 10
145.0212584871403
 20
330.7098592332513
 11
147.7275109491695
 21
328.4149788078743
 72
     1
 10
147.7275109491696
 20
328.4149788078743
 11
145.9118279473723
 21
331.4635151438891
 97
        0
 75
     0
 76
     1
 98
        0
  0
HATCH
  5
232
330
230
100
AcDbEntity
  8
pomocnicze
  6
Continuous
 62
     7
100
AcDbHatch
 10
0.0
 20
0.0
 30
0.0
210
0.0
220
0.0
230
1.0
  2
SOLID
 70
     1
 71
     0
 91
        1
 92
        1
 93
        3
 72
     1
 10
140.743902002093
 20
337.5702768034793
 11
138.0376495400638
 21
339.8651572288563
 72
     1
 10
138.0376495400638
 20
339.8651572288563
 11
139.8533325418611
 21
336.8166208928415
 72
     1
 10
139.8533325418611
 20
336.8166208928415
 11
140.743902002093
 21
337.5702768034793
 97
        0
 75
     0
 76
     1
 98
        0
  0
LINE
  5
233
330
230
100
AcDbEntity
  8
pomocnicze
  6
Continuous
 62
     7
100
AcDbLine
 10
146.6008600874
 20
327.4615359613
 30
0.0
 11
149.0633651395
 21
329.5454626738
 31
0.0
  0
LINE
  5
234
330
230
100
AcDbEntity
  8
pomocnicze
  6
Continuous
 62
     7
100
AcDbLine
 10
136.9109986783
 20
338.9117143823
 30
0.0
 11
139.3735037304
 21
340.9956410948
 31
0.0
  0
LINE
  5
235
330
230
100
AcDbEntity
  8
pomocnicze
  6
Continuous
 62
     7
100
AcDbLine
 10
147.7275109492
 20
328.4149788079
 30
0.0
 11
128.5599350493
 21
351.064648879
 31
0.0
  0
TEXT
  5
236
330
230
100
AcDbEntity
  8
pomocnicze
  6
Continuous
 62
     7
100
AcDbText
 10
130.0192004619
 20
350.6947932963
 30
0.0
 40
3.5
  1
15
 50
310.24
  7
SEACAD_Solid_Edge_ISO
 11
132.6909087601
 21
352.9557609584
 31
0.0
100
AcDbText
 73
     3
  0
ENDBLK
  5
238
330
230
100
AcDbEntity
  8
0
100
AcDbBlockEnd
  0
BLOCK
  5
241
330
23A
100
AcDbEntity
  8
0
100
AcDbBlockBegin
  2
DMBLK35
 70
     0
 10
0.0
 20
0.0
 30
0.0
  3
DMBLK35
  1

  0
HATCH
  5
23B
330
23A
100
AcDbEntity
  8
pomocnicze
  6
Continuous
 62
     7
100
AcDbHatch
 10
0.0
 20
0.0
 30
0.0
210
0.0
220
0.0
230
1.0
  2
SOLID
 70
     1
 71
     0
 91
        1
 92
        1
 93
        3
 72
     1
 10
59.75760755848503
 20
282.8901593238065
 11
59.75760755848503
 21
281.7234926211287
 72
     1
 10
59.75760755848503
 20
281.7234926211287
 11
63.25760766651845
 21
282.3068259724676
 72
     1
 10
63.25760766651845
 20
282.3068259724676
 11
59.75760755848503
 21
282.8901593238065
 97
        0
 75
     0
 76
     1
 98
        0
  0
HATCH
  5
23C
330
23A
100
AcDbEntity
  8
pomocnicze
  6
Continuous
 62
     7
100
AcDbHatch
 10
0.0
 20
0.0
 30
0.0
210
0.0
220
0.0
230
1.0
  2
SOLID
 70
     1
 71
     0
 91
        1
 92
        1
 93
        3
 72
     1
 10
44.25760688048219
 20
282.8901593238065
 11
40.75760677244877
 21
282.3068259724676
 72
     1
 10
40.75760677244877
 20
282.3068259724676
 11
44.25760688048219
 21
281.7234926211287
 72
     1
 10
44.25760688048219
 20
281.7234926211287
 11
44.25760688048219
 21
282.8901593238065
 97
        0
 75
     0
 76
     1
 98
        0
  0
LINE
  5
23D
330
23A
100
AcDbEntity
  8
pomocnicze
  6
Continuous
 62
     7
100
AcDbLine
 10
63.2576076665
 20
279.7949307108
 30
0.0
 11
63.2576076665
 21
284.0568260265
 31
0.0
  0
LINE
  5
23E
330
23A
100
AcDbEntity
  8
pomocnicze
  6
Continuous
 62
     7
100
AcDbLine
 10
40.7576076665
 20
279.7949307108
 30
0.0
 11
40.7576076665
 21
284.0568260265
 31
0.0
  0
LINE
  5
23F
330
23A
100
AcDbEntity
  8
pomocnicze
  6
Continuous
 62
     7
100
AcDbLine
 10
63.2576076665
 20
282.3068259725
 30
0.0
 11
40.7576067724
 21
282.3068259725
 31
0.0
  0
TEXT
  5
240
330
23A
100
AcDbEntity
  8
pomocnicze
  6
Continuous
 62
     7
100
AcDbText
 10
48.5473799468
 20
283.1818259725
 30
0.0
 40
3.5
  1
22,5
  7
SEACAD_Solid_Edge_ISO
 11
48.5473799468
 21
286.6818259725
 31
0.0
100
AcDbText
 73
     3
  0
ENDBLK
  5
242
330
23A
100
AcDbEntity
  8
0
100
AcDbBlockEnd
  0
BLOCK
  5
249
330
244
100
AcDbEntity
  8
0
100
AcDbBlockBegin
  2
DMBLK36
 70
     0
 10
0.0
 20
0.0
 30
0.0
  3
DMBLK36
  1

  0
HATCH
  5
245
330
244
100
AcDbEntity
  8
pomocnicze
  6
Continuous
 62
     7
100
AcDbHatch
 10
0.0
 20
0.0
 30
0.0
210
0.0
220
0.0
230
1.0
  2
SOLID
 70
     1
 71
     0
 91
        1
 92
        1
 93
        3
 72
     1
 10
138.2153914917772
 20
231.2949308187961
 11
137.0487247890994
 21
231.2949308187961
 72
     1
 10
137.0487247890994
 20
231.2949308187961
 11
137.6320581404383
 21
227.7949307107627
 72
     1
 10
137.6320581404383
 20
227.7949307107627
 11
138.2153914917772
 21
231.2949308187961
 97
        0
 75
     0
 76
     1
 98
        0
  0
HATCH
  5
246
330
244
100
AcDbEntity
  8
pomocnicze
  6
Continuous
 62
     7
100
AcDbHatch
 10
0.0
 20
0.0
 30
0.0
210
0.0
220
0.0
230
1.0
  2
SOLID
 70
     1
 71
     0
 91
        1
 92
        1
 93
        3
 72
     1
 10
138.2153914917772
 20
214.2949306027292
 11
137.6320581404383
 21
217.7949307107627
 72
     1
 10
137.6320581404383
 20
217.7949307107627
 11
137.0487247890994
 21
214.2949306027292
 72
     1
 10
137.0487247890994
 20
214.2949306027292
 11
138.2153914917772
 21
214.2949306027292
 97
        0
 75
     0
 76
     1
 98
        0
  0
LINE
  5
247
330
244
100
AcDbEntity
  8
pomocnicze
  6
Continuous
 62
     7
100
AcDbLine
 10
137.6320581404
 20
234.7949309268
 30
0.0
 11
137.6320581404
 21
198.6737404012
 31
0.0
  0
TEXT
  5
248
330
244
100
AcDbEntity
  8
pomocnicze
  6
Continuous
 62
     7
100
AcDbText
 10
136.7570581404
 20
199.8987405383
 30
0.0
 40
3.5
  1
10
 50
90.0
  7
SEACAD_Solid_Edge_ISO
 11
133.2570581404
 21
199.8987405383
 31
0.0
100
AcDbText
 73
     3
  0
ENDBLK
  5
24A
330
244
100
AcDbEntity
  8
0
100
AcDbBlockEnd
  0
BLOCK
  5
253
330
24C
100
AcDbEntity
  8
0
100
AcDbBlockBegin
  2
DMBLK37
 70
     0
 10
0.0
 20
0.0
 30
0.0
  3
DMBLK37
  1

  0
HATCH
  5
24D
330
24C
100
AcDbEntity
  8
pomocnicze
  6
Continuous
 62
     7
100
AcDbHatch
 10
0.0
 20
0.0
 30
0.0
210
0.0
220
0.0
230
1.0
  2
SOLID
 70
     1
 71
     0
 91
        1
 92
        1
 93
        3
 72
     1
 10
383.2340383556485
 20
231.4956078572896
 11
386.7340384636819
 21
232.0789412086285
 72
     1
 10
386.7340384636819
 20
232.0789412086285
 11
383.2340383556485
 21
232.6622745599674
 72
     1
 10
383.2340383556485
 20
232.6622745599674
 11
383.2340383556485
 21
231.4956078572896
 97
        0
 75
     0
 76
     1
 98
        0
  0
HATCH
  5
24E
330
24C
100
AcDbEntity
  8
pomocnicze
  6
Continuous
 62
     7
100
AcDbHatch
 10
0.0
 20
0.0
 30
0.0
210
0.0
220
0.0
230
1.0
  2
SOLID
 70
     1
 71
     0
 91
        1
 92
        1
 93
        3
 72
     1
 10
370.2340390187501
 20
231.4956078572896
 11
370.2340390187501
 21
232.6622745599674
 72
     1
 10
370.2340390187501
 20
232.6622745599674
 11
366.7340389107167
 21
232.0789412086285
 72
     1
 10
366.7340389107167
 20
232.0789412086285
 11
370.2340390187501
 21
231.4956078572896
 97
        0
 75
     0
 76
     1
 98
        0
  0
LINE
  5
24F
330
24C
100
AcDbEntity
  8
pomocnicze
  6
Continuous
 62
     7
100
AcDbLine
 10
386.7340384637
 20
279.1512437587
 30
0.0
 11
386.7340384637
 21
230.3289411546
 31
0.0
  0
LINE
  5
250
330
24C
100
AcDbEntity
  8
pomocnicze
  6
Continuous
 62
     7
100
AcDbLine
 10
366.7340384637
 20
243.1512437587
 30
0.0
 11
366.7340384637
 21
230.3289411546
 31
0.0
  0
LINE
  5
251
330
24C
100
AcDbEntity
  8
pomocnicze
  6
Continuous
 62
     7
100
AcDbLine
 10
386.7340384637
 20
232.0789412086
 30
0.0
 11
366.7340389107
 21
232.0789412086
 31
0.0
  0
TEXT
  5
252
330
24C
100
AcDbEntity
  8
pomocnicze
  6
Continuous
 62
     7
100
AcDbText
 10
374.6260841417
 20
232.9539412086
 30
0.0
 40
3.5
  1
20
  7
SEACAD_Solid_Edge_ISO
 11
374.6260841417
 21
236.4539412086
 31
0.0
100
AcDbText
 73
     3
  0
ENDBLK
  5
254
330
24C
100
AcDbEntity
  8
0
100
AcDbBlockEnd
  0
BLOCK
  5
25D
330
256
100
AcDbEntity
  8
0
100
AcDbBlockBegin
  2
DMBLK38
 70
     0
 10
0.0
 20
0.0
 30
0.0
  3
DMBLK38
  1

  0
HATCH
  5
257
330
256
100
AcDbEntity
  8
pomocnicze
  6
Continuous
 62
     7
100
AcDbHatch
 10
0.0
 20
0.0
 30
0.0
210
0.0
220
0.0
230
1.0
  2
SOLID
 70
     1
 71
     0
 91
        1
 92
        1
 93
        3
 72
     1
 10
185.2340385717153
 20
286.9081870547262
 11
185.2340385717153
 21
288.074853757404
 72
     1
 10
185.2340385717153
 20
288.074853757404
 11
181.7340384636819
 21
287.4915204060651
 72
     1
 10
181.7340384636819
 20
287.4915204060651
 11
185.2340385717153
 21
286.9081870547262
 97
        0
 75
     0
 76
     1
 98
        0
  0
HATCH
  5
258
330
256
100
AcDbEntity
  8
pomocnicze
  6
Continuous
 62
     7
100
AcDbHatch
 10
0.0
 20
0.0
 30
0.0
210
0.0
220
0.0
230
1.0
  2
SOLID
 70
     1
 71
     0
 91
        1
 92
        1
 93
        3
 72
     1
 10
448.2340490844845
 20
286.9081870547262
 11
451.7340491925179
 21
287.4915204060651
 72
     1
 10
451.7340491925179
 20
287.4915204060651
 11
448.2340490844845
 21
288.074853757404
 72
     1
 10
448.2340490844845
 20
288.074853757404
 11
448.2340490844845
 21
286.9081870547262
 97
        0
 75
     0
 76
     1
 98
        0
  0
LINE
  5
259
330
256
100
AcDbEntity
  8
pomocnicze
  6
Continuous
 62
     7
100
AcDbLine
 10
181.7340384637
 20
294.1512437587
 30
0.0
 11
181.7340384637
 21
285.741520352
 31
0.0
  0
LINE
  5
25A
330
256
100
AcDbEntity
  8
pomocnicze
  6
Continuous
 62
     7
100
AcDbLine
 10
451.7340384637
 20
294.1512437587
 30
0.0
 11
451.7340384637
 21
285.741520352
 31
0.0
  0
LINE
  5
25B
330
256
100
AcDbEntity
  8
pomocnicze
  6
Continuous
 62
     7
100
AcDbLine
 10
181.7340384637
 20
287.4915204061
 30
0.0
 11
451.7340491925
 21
287.4915204061
 31
0.0
  0
TEXT
  5
25C
330
256
100
AcDbEntity
  8
pomocnicze
  6
Continuous
 62
     7
100
AcDbText
 10
313.512452919
 20
288.3665204061
 30
0.0
 40
3.5
  1
270
  7
SEACAD_Solid_Edge_ISO
 11
313.512452919
 21
291.8665204061
 31
0.0
100
AcDbText
 73
     3
  0
ENDBLK
  5
25E
330
256
100
AcDbEntity
  8
0
100
AcDbBlockEnd
  0
BLOCK
  5
267
330
260
100
AcDbEntity
  8
0
100
AcDbBlockBegin
  2
DMBLK39
 70
     0
 10
0.0
 20
0.0
 30
0.0
  3
DMBLK39
  1

  0
HATCH
  5
261
330
260
100
AcDbEntity
  8
pomocnicze
  6
Continuous
 62
     7
100
AcDbHatch
 10
0.0
 20
0.0
 30
0.0
210
0.0
220
0.0
230
1.0
  2
SOLID
 70
     1
 71
     0
 91
        1
 92
        1
 93
        3
 72
     1
 10
448.2340383556485
 20
267.5137847929027
 11
451.7340384636819
 21
268.0971181442416
 72
     1
 10
451.7340384636819
 20
268.0971181442416
 11
448.2340383556485
 21
268.6804514955805
 72
     1
 10
448.2340383556485
 20
268.6804514955805
 11
448.2340383556485
 21
267.5137847929027
 97
        0
 75
     0
 76
     1
 98
        0
  0
HATCH
  5
262
330
260
100
AcDbEntity
  8
pomocnicze
  6
Continuous
 62
     7
100
AcDbHatch
 10
0.0
 20
0.0
 30
0.0
210
0.0
220
0.0
230
1.0
  2
SOLID
 70
     1
 71
     0
 91
        1
 92
        1
 93
        3
 72
     1
 10
390.2340409559012
 20
267.5137847929027
 11
390.2340409559012
 21
268.6804514955805
 72
     1
 10
390.2340409559012
 20
268.6804514955805
 11
386.7340408478677
 21
268.0971181442416
 72
     1
 10
386.7340408478677
 20
268.0971181442416
 11
390.2340409559012
 21
267.5137847929027
 97
        0
 75
     0
 76
     1
 98
        0
  0
LINE
  5
263
330
260
100
AcDbEntity
  8
pomocnicze
  6
Continuous
 62
     7
100
AcDbLine
 10
451.7340384637
 20
279.1512437587
 30
0.0
 11
451.7340384637
 21
266.3471180902
 31
0.0
  0
LINE
  5
264
330
260
100
AcDbEntity
  8
pomocnicze
  6
Continuous
 62
     7
100
AcDbLine
 10
386.7340384637
 20
279.1512437587
 30
0.0
 11
386.7340384637
 21
266.3471180902
 31
0.0
  0
LINE
  5
265
330
260
100
AcDbEntity
  8
pomocnicze
  6
Continuous
 62
     7
100
AcDbLine
 10
451.7340384637
 20
268.0971181442
 30
0.0
 11
386.7340408479
 21
268.0971181442
 31
0.0
  0
TEXT
  5
266
330
260
100
AcDbEntity
  8
pomocnicze
  6
Continuous
 62
     7
100
AcDbText
 10
417.1658578376
 20
268.9721181442
 30
0.0
 40
3.5
  1
65
  7
SEACAD_Solid_Edge_ISO
 11
417.1658578376
 21
272.4721181442
 31
0.0
100
AcDbText
 73
     3
  0
ENDBLK
  5
268
330
260
100
AcDbEntity
  8
0
100
AcDbBlockEnd
  0
BLOCK
  5
271
330
26A
100
AcDbEntity
  8
0
100
AcDbBlockBegin
  2
DMBLK40
 70
     0
 10
0.0
 20
0.0
 30
0.0
  3
DMBLK40
  1

  0
HATCH
  5
26B
330
26A
100
AcDbEntity
  8
pomocnicze
  6
Continuous
 62
     7
100
AcDbHatch
 10
0.0
 20
0.0
 30
0.0
210
0.0
220
0.0
230
1.0
  2
SOLID
 70
     1
 71
     0
 91
        1
 92
        1
 93
        3
 72
     1
 10
466.3772059972832
 20
290.6512436506725
 11
465.7938726459443
 21
294.1512437587059
 72
     1
 10
465.7938726459443
 20
294.1512437587059
 11
465.2105392946054
 21
290.6512436506725
 72
     1
 10
465.2105392946054
 20
290.6512436506725
 11
466.3772059972832
 21
290.6512436506725
 97
        0
 75
     0
 76
     1
 98
        0
  0
HATCH
  5
26C
330
26A
100
AcDbEntity
  8
pomocnicze
  6
Continuous
 62
     7
100
AcDbHatch
 10
0.0
 20
0.0
 30
0.0
210
0.0
220
0.0
230
1.0
  2
SOLID
 70
     1
 71
     0
 91
        1
 92
        1
 93
        3
 72
     1
 10
466.3772059972832
 20
282.6512442020154
 11
465.2105392946054
 21
282.6512442020154
 72
     1
 10
465.2105392946054
 20
282.6512442020154
 11
465.7938726459443
 21
279.151244093982
 72
     1
 10
465.7938726459443
 20
279.151244093982
 11
466.3772059972832
 21
282.6512442020154
 97
        0
 75
     0
 76
     1
 98
        0
  0
LINE
  5
26D
330
26A
100
AcDbEntity
  8
pomocnicze
  6
Continuous
 62
     7
100
AcDbLine
 10
451.7340384637
 20
294.1512437587
 30
0.0
 11
467.5438727
 21
294.1512437587
 31
0.0
  0
LINE
  5
26E
330
26A
100
AcDbEntity
  8
pomocnicze
  6
Continuous
 62
     7
100
AcDbLine
 10
451.7340360795
 20
279.1512437587
 30
0.0
 11
467.5438727
 21
279.1512437587
 31
0.0
  0
LINE
  5
26F
330
26A
100
AcDbEntity
  8
pomocnicze
  6
Continuous
 62
     7
100
AcDbLine
 10
465.7938726459
 20
294.1512437587
 30
0.0
 11
465.7938726459
 21
279.151244094
 31
0.0
  0
TEXT
  5
270
330
26A
100
AcDbEntity
  8
pomocnicze
  6
Continuous
 62
     7
100
AcDbText
 10
464.9188726459
 20
284.9410166536
 30
0.0
 40
3.5
  1
15
 50
90.0
  7
SEACAD_Solid_Edge_ISO
 11
461.4188726459
 21
284.9410166536
 31
0.0
100
AcDbText
 73
     3
  0
ENDBLK
  5
272
330
26A
100
AcDbEntity
  8
0
100
AcDbBlockEnd
  0
BLOCK
  5
279
330
274
100
AcDbEntity
  8
0
100
AcDbBlockBegin
  2
DMBLK41
 70
     0
 10
0.0
 20
0.0
 30
0.0
  3
DMBLK41
  1

  0
HATCH
  5
275
330
274
100
AcDbEntity
  8
pomocnicze
  6
Continuous
 62
     7
100
AcDbHatch
 10
0.0
 20
0.0
 30
0.0
210
0.0
220
0.0
230
1.0
  2
SOLID
 70
     1
 71
     0
 91
        1
 92
        1
 93
        3
 72
     1
 10
211.479348465378
 20
290.6512436506725
 11
210.8960151140391
 21
294.151243758706
 72
     1
 10
210.8960151140391
 20
294.151243758706
 11
210.3126817627002
 21
290.6512436506725
 72
     1
 10
210.3126817627002
 20
290.6512436506725
 11
211.479348465378
 21
290.6512436506725
 97
        0
 75
     0
 76
     1
 98
        0
  0
HATCH
  5
276
330
274
100
AcDbEntity
  8
pomocnicze
  6
Continuous
 62
     7
100
AcDbHatch
 10
0.0
 20
0.0
 30
0.0
210
0.0
220
0.0
230
1.0
  2
SOLID
 70
     1
 71
     0
 91
        1
 92
        1
 93
        3
 72
     1
 10
211.479348465378
 20
246.6512448204137
 11
210.3126817627002
 21
246.6512448204137
 72
     1
 10
210.3126817627002
 20
246.6512448204137
 11
210.8960151140391
 21
243.1512447123802
 72
     1
 10
210.8960151140391
 20
243.1512447123802
 11
211.479348465378
 21
246.6512448204137
 97
        0
 75
     0
 76
     1
 98
        0
  0
LINE
  5
277
330
274
100
AcDbEntity
  8
pomocnicze
  6
Continuous
 62
     7
100
AcDbLine
 10
210.896015114
 20
294.1512437587
 30
0.0
 11
210.896015114
 21
243.1512447124
 31
0.0
  0
TEXT
  5
278
330
274
100
AcDbEntity
  8
pomocnicze
  6
Continuous
 62
     7
100
AcDbText
 10
210.021015114
 20
266.9410169628
 30
0.0
 40
3.5
  1
51
 50
90.0
  7
SEACAD_Solid_Edge_ISO
 11
206.521015114
 21
266.9410169628
 31
0.0
100
AcDbText
 73
     3
  0
ENDBLK
  5
27A
330
274
100
AcDbEntity
  8
0
100
AcDbBlockEnd
  0
BLOCK
  5
283
330
27C
100
AcDbEntity
  8
0
100
AcDbBlockBegin
  2
DMBLK42
 70
     0
 10
0.0
 20
0.0
 30
0.0
  3
DMBLK42
  1

  0
HATCH
  5
27D
330
27C
100
AcDbEntity
  8
pomocnicze
  6
Continuous
 62
     7
100
AcDbHatch
 10
0.0
 20
0.0
 30
0.0
210
0.0
220
0.0
230
1.0
  2
SOLID
 70
     1
 71
     0
 91
        1
 92
        1
 93
        3
 72
     1
 10
363.2340383556484
 20
232.6038606135872
 11
366.7340384636818
 21
233.1871939649261
 72
     1
 10
366.7340384636818
 20
233.1871939649261
 11
363.2340383556484
 21
233.770527316265
 72
     1
 10
363.2340383556484
 20
233.770527316265
 11
363.2340383556484
 21
232.6038606135872
 97
        0
 75
     0
 76
     1
 98
        0
  0
HATCH
  5
27E
330
27C
100
AcDbEntity
  8
pomocnicze
  6
Continuous
 62
     7
100
AcDbHatch
 10
0.0
 20
0.0
 30
0.0
210
0.0
220
0.0
230
1.0
  2
SOLID
 70
     1
 71
     0
 91
        1
 92
        1
 93
        3
 72
     1
 10
185.2340361875295
 20
232.6038606135872
 11
185.2340361875295
 21
233.770527316265
 72
     1
 10
185.2340361875295
 20
233.770527316265
 11
181.7340360794961
 21
233.1871939649261
 72
     1
 10
181.7340360794961
 20
233.1871939649261
 11
185.2340361875295
 21
232.6038606135872
 97
        0
 75
     0
 76
     1
 98
        0
  0
LINE
  5
27F
330
27C
100
AcDbEntity
  8
pomocnicze
  6
Continuous
 62
     7
100
AcDbLine
 10
366.7340384637
 20
243.1512437587
 30
0.0
 11
366.7340384637
 21
231.4371939109
 31
0.0
  0
LINE
  5
280
330
27C
100
AcDbEntity
  8
pomocnicze
  6
Continuous
 62
     7
100
AcDbLine
 10
181.7340384637
 20
243.1512437587
 30
0.0
 11
181.7340384637
 21
231.4371939109
 31
0.0
  0
LINE
  5
281
330
27C
100
AcDbEntity
  8
pomocnicze
  6
Continuous
 62
     7
100
AcDbLine
 10
366.7340384637
 20
233.1871939649
 30
0.0
 11
181.7340360795
 21
233.1871939649
 31
0.0
  0
TEXT
  5
282
330
27C
100
AcDbEntity
  8
pomocnicze
  6
Continuous
 62
     7
100
AcDbText
 10
271.4101736352
 20
234.0621939649
 30
0.0
 40
3.5
  1
185
  7
SEACAD_Solid_Edge_ISO
 11
271.4101736352
 21
237.5621939649
 31
0.0
100
AcDbText
 73
     3
  0
ENDBLK
  5
284
330
27C
100
AcDbEntity
  8
0
100
AcDbBlockEnd
  0
BLOCK
  5
28D
330
286
100
AcDbEntity
  8
0
100
AcDbBlockBegin
  2
DMBLK43
 70
     0
 10
0.0
 20
0.0
 30
0.0
  3
DMBLK43
  1

  0
HATCH
  5
287
330
286
100
AcDbEntity
  8
pomocnicze
  6
Continuous
 62
     7
100
AcDbHatch
 10
0.0
 20
0.0
 30
0.0
210
0.0
220
0.0
230
1.0
  2
SOLID
 70
     1
 71
     0
 91
        1
 92
        1
 93
        3
 72
     1
 10
178.2340383556484
 20
232.6038606135872
 11
181.7340384636819
 21
233.1871939649261
 72
     1
 10
181.7340384636819
 20
233.1871939649261
 11
178.2340383556484
 21
233.770527316265
 72
     1
 10
178.2340383556484
 20
233.770527316265
 11
178.2340383556484
 21
232.6038606135872
 97
        0
 75
     0
 76
     1
 98
        0
  0
HATCH
  5
288
330
286
100
AcDbEntity
  8
pomocnicze
  6
Continuous
 62
     7
100
AcDbHatch
 10
0.0
 20
0.0
 30
0.0
210
0.0
220
0.0
230
1.0
  2
SOLID
 70
     1
 71
     0
 91
        1
 92
        1
 93
        3
 72
     1
 10
156.900704319477
 20
232.6038606135872
 11
156.900704319477
 21
233.770527316265
 72
     1
 10
156.900704319477
 20
233.770527316265
 11
153.4007042114436
 21
233.1871939649261
 72
     1
 10
153.4007042114436
 20
233.1871939649261
 11
156.900704319477
 21
232.6038606135872
 97
        0
 75
     0
 76
     1
 98
        0
  0
LINE
  5
289
330
286
100
AcDbEntity
  8
pomocnicze
  6
Continuous
 62
     7
100
AcDbLine
 10
181.7340384637
 20
243.1512437587
 30
0.0
 11
181.7340384637
 21
231.4371939109
 31
0.0
  0
LINE
  5
28A
330
286
100
AcDbEntity
  8
pomocnicze
  6
Continuous
 62
     7
100
AcDbLine
 10
153.4007051303
 20
243.1512437587
 30
0.0
 11
153.4007051303
 21
231.4371939109
 31
0.0
  0
LINE
  5
28B
330
286
100
AcDbEntity
  8
pomocnicze
  6
Continuous
 62
     7
100
AcDbLine
 10
181.7340384637
 20
233.1871939649
 30
0.0
 11
153.4007042114
 21
233.1871939649
 31
0.0
  0
TEXT
  5
28C
330
286
100
AcDbEntity
  8
pomocnicze
  6
Continuous
 62
     7
100
AcDbText
 10
163.2321440648
 20
234.0621939649
 30
0.0
 40
3.5
  1
28,33
  7
SEACAD_Solid_Edge_ISO
 11
163.2321440648
 21
237.5621939649
 31
0.0
100
AcDbText
 73
     3
  0
ENDBLK
  5
28E
330
286
100
AcDbEntity
  8
0
100
AcDbBlockEnd
  0
BLOCK
  5
296
330
290
100
AcDbEntity
  8
0
100
AcDbBlockBegin
  2
DMBLK44
 70
     0
 10
0.0
 20
0.0
 30
0.0
  3
DMBLK44
  1

  0
HATCH
  5
291
330
290
100
AcDbEntity
  8
pomocnicze
  6
Continuous
 62
     7
100
AcDbHatch
 10
0.0
 20
0.0
 30
0.0
210
0.0
220
0.0
230
1.0
  2
SOLID
 70
     1
 71
     0
 91
        1
 92
        1
 93
        3
 72
     1
 10
396.8403334039957
 20
246.6125945550519
 11
397.6209288303553
 21
243.151243758706
 72
     1
 10
397.6209288303553
 20
243.151243758706
 11
398.0051280096408
 21
246.678660596231
 72
     1
 10
398.0051280096408
 20
246.6786605962309
 11
396.8403334039957
 21
246.6125945550519
 97
        0
 75
     0
 76
     1
 98
        0
  0
HATCH
  5
292
330
290
100
AcDbEntity
  8
pomocnicze
  6
Continuous
 62
     7
100
AcDbHatch
 10
0.0
 20
0.0
 30
0.0
210
0.0
220
0.0
230
1.0
  2
SOLID
 70
     1
 71
     0
 91
        1
 92
        1
 93
        3
 72
     1
 10
385.0041391463669
 20
268.7740291650896
 11
381.7340384363462
 21
270.1512437095018
 72
     1
 10
381.7340384363462
 20
270.1512437095018
 11
384.3807127692592
 21
267.7878999912674
 72
     1
 10
384.3807127692592
 20
267.7878999912674
 11
385.0041391463669
 21
268.7740291650896
 97
        0
 75
     0
 76
     1
 98
        0
  0
LINE
  5
293
330
290
100
AcDbEntity
  8
pomocnicze
  6
Continuous
 62
     7
100
AcDbLine
 10
366.7340384637
 20
243.1512437587
 30
0.0
 11
399.3709305142
 21
243.1512437587
 31
0.0
  0
ARC
  5
294
330
290
100
AcDbEntity
  8
pomocnicze
  6
Continuous
 62
     7
100
AcDbCircle
 10
366.7340384637
 20
243.1512437587
 30
0.0
 40
30.88689036667348
100
AcDbArc
 50
0.0
 51
60.9453954734
  0
TEXT
  5
295
330
290
100
AcDbEntity
  8
pomocnicze
  6
Continuous
 62
     7
100
AcDbText
 10
392.8379870866
 20
261.4181533859
 30
0.0
 40
3.5
  1
61°
 50
300.4726979505
  7
SEACAD_Solid_Edge_ISO
 11
395.8545352718
 21
263.1931004405
 31
0.0
100
AcDbText
 73
     3
  0
ENDBLK
  5
297
330
290
100
AcDbEntity
  8
0
100
AcDbBlockEnd
  0
BLOCK
  5
2A0
330
299
100
AcDbEntity
  8
0
100
AcDbBlockBegin
  2
DMBLK45
 70
     0
 10
0.0
 20
0.0
 30
0.0
  3
DMBLK45
  1

  0
LINE
  5
29A
330
299
100
AcDbEntity
  8
pomocnicze
  6
Continuous
 62
     7
100
AcDbLine
 10
126.6894016533
 20
233.7628597674
 30
0.0
 11
126.6894016533
 21
237.1833143128
 31
0.0
  0
HATCH
  5
29B
330
299
100
AcDbEntity
  8
pomocnicze
  6
Continuous
 62
     7
100
AcDbHatch
 10
0.0
 20
0.0
 30
0.0
210
0.0
220
0.0
230
1.0
  2
SOLID
 70
     1
 71
     0
 91
        1
 92
        1
 93
        3
 72
     1
 10
124.4753864837934
 20
239.6512436506726
 11
125.6420531864712
 21
239.6512436506726
 72
     1
 10
125.6420531864712
 20
239.6512436506726
 11
125.0587198351323
 21
243.151243758706
 72
     1
 10
125.0587198351323
 20
243.151243758706
 11
124.4753864837934
 21
239.6512436506726
 97
        0
 75
     0
 76
     1
 98
        0
  0
HATCH
  5
29C
330
299
100
AcDbEntity
  8
pomocnicze
  6
Continuous
 62
     7
100
AcDbHatch
 10
0.0
 20
0.0
 30
0.0
210
0.0
220
0.0
230
1.0
  2
SOLID
 70
     1
 71
     0
 91
        1
 92
        1
 93
        3
 72
     1
 10
124.4753864837934
 20
231.294930429516
 11
125.0587198351323
 21
227.7949303214826
 72
     1
 10
125.0587198351323
 20
227.7949303214826
 11
125.6420531864712
 21
231.294930429516
 72
     1
 10
125.6420531864712
 20
231.294930429516
 11
124.4753864837934
 21
231.294930429516
 97
        0
 75
     0
 76
     1
 98
        0
  0
LINE
  5
29D
330
299
100
AcDbEntity
  8
pomocnicze
  6
Continuous
 62
     7
100
AcDbLine
 10
181.7340384637
 20
243.1512437587
 30
0.0
 11
123.3087197811
 21
243.1512437587
 31
0.0
  0
LINE
  5
29E
330
299
100
AcDbEntity
  8
pomocnicze
  6
Continuous
 62
     7
100
AcDbLine
 10
125.0587198351
 20
243.1512437587
 30
0.0
 11
125.0587198351
 21
227.7949303215
 31
0.0
  0
TEXT
  5
29F
330
299
100
AcDbEntity
  8
pomocnicze
  6
Continuous
 62
     7
100
AcDbText
 10
123.7462198351
 20
233.7628597674
 30
0.0
 40
3.5
  1
15
 50
90.0
  7
SEACAD_Solid_Edge_ISO
 11
120.2462198351
 21
233.7628597674
 31
0.0
100
AcDbText
 73
     3
  0
ENDBLK
  5
2A1
330
299
100
AcDbEntity
  8
0
100
AcDbBlockEnd
  0
BLOCK
  5
2A9
330
2A3
100
AcDbEntity
  8
0
100
AcDbBlockBegin
  2
DMBLK46
 70
     0
 10
0.0
 20
0.0
 30
0.0
  3
DMBLK46
  1

  0
HATCH
  5
2A4
330
2A3
100
AcDbEntity
  8
pomocnicze
  6
Continuous
 62
     7
100
AcDbHatch
 10
0.0
 20
0.0
 30
0.0
210
0.0
220
0.0
230
1.0
  2
SOLID
 70
     1
 71
     0
 91
        1
 92
        1
 93
        3
 72
     1
 10
87.75760777455186
 20
252.945231102402
 11
84.25760766651844
 21
252.3618977510631
 72
     1
 10
84.25760766651844
 20
252.3618977510631
 11
87.75760777455186
 21
251.7785643997241
 72
     1
 10
87.75760777455186
 20
251.7785643997241
 11
87.75760777455186
 21
252.945231102402
 97
        0
 75
     0
 76
     1
 98
        0
  0
HATCH
  5
2A5
330
2A3
100
AcDbEntity
  8
pomocnicze
  6
Continuous
 62
     7
100
AcDbHatch
 10
0.0
 20
0.0
 30
0.0
210
0.0
220
0.0
230
1.0
  2
SOLID
 70
     1
 71
     0
 91
        1
 92
        1
 93
        3
 72
     1
 10
149.9007016808948
 20
252.945231102402
 11
149.9007016808948
 21
251.7785643997241
 72
     1
 10
149.9007016808948
 20
251.7785643997241
 11
153.4007017889282
 21
252.3618977510631
 72
     1
 10
153.4007017889282
 20
252.3618977510631
 11
149.9007016808948
 21
252.945231102402
 97
        0
 75
     0
 76
     1
 98
        0
  0
LINE
  5
2A6
330
2A3
100
AcDbEntity
  8
pomocnicze
  6
Continuous
 62
     7
100
AcDbLine
 10
153.4007051303
 20
243.1512437587
 30
0.0
 11
153.4007051303
 21
254.1118978051
 31
0.0
  0
LINE
  5
2A7
330
2A3
100
AcDbEntity
  8
pomocnicze
  6
Continuous
 62
     7
100
AcDbLine
 10
84.2576076665
 20
252.3618977511
 30
0.0
 11
153.4007017889
 21
252.3618977511
 31
0.0
  0
TEXT
  5
2A8
330
2A3
100
AcDbEntity
  8
pomocnicze
  6
Continuous
 62
     7
100
AcDbText
 10
114.6132456368
 20
253.2368977511
 30
0.0
 40
3.5
  1
69,14
  7
SEACAD_Solid_Edge_ISO
 11
114.6132456368
 21
256.7368977511
 31
0.0
100
AcDbText
 73
     3
  0
ENDBLK
  5
2AA
330
2A3
100
AcDbEntity
  8
0
100
AcDbBlockEnd
  0
BLOCK
  5
2B3
330
2AC
100
AcDbEntity
  8
0
100
AcDbBlockBegin
  2
DMBLK47
 70
     0
 10
0.0
 20
0.0
 30
0.0
  3
DMBLK47
  1

  0
HATCH
  5
2AD
330
2AC
100
AcDbEntity
  8
pomocnicze
  6
Continuous
 62
     7
100
AcDbHatch
 10
0.0
 20
0.0
 30
0.0
210
0.0
220
0.0
230
1.0
  2
SOLID
 70
     1
 71
     0
 91
        1
 92
        1
 93
        3
 72
     1
 10
370.2340385717152
 20
202.57219538528
 11
370.2340385717152
 21
203.7388620879578
 72
     1
 10
370.2340385717152
 20
203.7388620879578
 11
366.7340384636818
 21
203.1555287366189
 72
     1
 10
366.7340384636818
 20
203.1555287366189
 11
370.2340385717152
 21
202.57219538528
 97
        0
 75
     0
 76
     1
 98
        0
  0
HATCH
  5
2AE
330
2AC
100
AcDbEntity
  8
pomocnicze
  6
Continuous
 62
     7
100
AcDbHatch
 10
0.0
 20
0.0
 30
0.0
210
0.0
220
0.0
230
1.0
  2
SOLID
 70
     1
 71
     0
 91
        1
 92
        1
 93
        3
 72
     1
 10
535.1763469007611
 20
202.57219538528
 11
538.6763470087946
 21
203.1555287366189
 72
     1
 10
538.6763470087946
 20
203.1555287366189
 11
535.1763469007611
 21
203.7388620879578
 72
     1
 10
535.1763469007611
 20
203.7388620879578
 11
535.1763469007611
 21
202.57219538528
 97
        0
 75
     0
 76
     1
 98
        0
  0
LINE
  5
2AF
330
2AC
100
AcDbEntity
  8
pomocnicze
  6
Continuous
 62
     7
100
AcDbLine
 10
366.7340384637
 20
243.1512437587
 30
0.0
 11
366.7340384637
 21
201.4055286826
 31
0.0
  0
LINE
  5
2B0
330
2AC
100
AcDbEntity
  8
pomocnicze
  6
Continuous
 62
     7
100
AcDbLine
 10
538.6763420669
 20
227.7949307108
 30
0.0
 11
538.6763420669
 21
201.4055286826
 31
0.0
  0
LINE
  5
2B1
330
2AC
100
AcDbEntity
  8
pomocnicze
  6
Continuous
 62
     7
100
AcDbLine
 10
366.7340384637
 20
203.1555287366
 30
0.0
 11
538.6763470088
 21
203.1555287366
 31
0.0
  0
TEXT
  5
2B2
330
2AC
100
AcDbEntity
  8
pomocnicze
  6
Continuous
 62
     7
100
AcDbText
 10
447.7336018271
 20
204.0305287366
 30
0.0
 40
3.5
  1
171,94
  7
SEACAD_Solid_Edge_ISO
 11
447.7336018271
 21
207.5305287366
 31
0.0
100
AcDbText
 73
     3
  0
ENDBLK
  5
2B4
330
2AC
100
AcDbEntity
  8
0
100
AcDbBlockEnd
  0
BLOCK
  5
2BD
330
2B6
100
AcDbEntity
  8
0
100
AcDbBlockBegin
  2
DMBLK48
 70
     0
 10
0.0
 20
0.0
 30
0.0
  3
DMBLK48
  1

  0
HATCH
  5
2B7
330
2B6
100
AcDbEntity
  8
pomocnicze
  6
Continuous
 62
     7
100
AcDbHatch
 10
0.0
 20
0.0
 30
0.0
210
0.0
220
0.0
230
1.0
  2
SOLID
 70
     1
 71
     0
 91
        1
 92
        1
 93
        3
 72
     1
 10
303.2976077745519
 20
257.644218066472
 11
299.7976076665184
 21
257.0608847151331
 72
     1
 10
299.7976076665184
 20
257.0608847151331
 11
303.2976077745519
 21
256.4775513637942
 72
     1
 10
303.2976077745519
 20
256.4775513637942
 11
303.2976077745519
 21
257.644218066472
 97
        0
 75
     0
 76
     1
 98
        0
  0
HATCH
  5
2B8
330
2B6
100
AcDbEntity
  8
pomocnicze
  6
Continuous
 62
     7
100
AcDbHatch
 10
0.0
 20
0.0
 30
0.0
210
0.0
220
0.0
230
1.0
  2
SOLID
 70
     1
 71
     0
 91
        1
 92
        1
 93
        3
 72
     1
 10
363.2340408737621
 20
257.644218066472
 11
363.2340408737621
 21
256.4775513637942
 72
     1
 10
363.2340408737621
 20
256.4775513637942
 11
366.7340409817955
 21
257.0608847151331
 72
     1
 10
366.7340409817955
 20
257.0608847151331
 11
363.2340408737621
 21
257.644218066472
 97
        0
 75
     0
 76
     1
 98
        0
  0
LINE
  5
2B9
330
2B6
100
AcDbEntity
  8
pomocnicze
  6
Continuous
 62
     7
100
AcDbLine
 10
299.7976076665
 20
254.844381691
 30
0.0
 11
299.7976076665
 21
258.8108847691
 31
0.0
  0
LINE
  5
2BA
330
2B6
100
AcDbEntity
  8
pomocnicze
  6
Continuous
 62
     7
100
AcDbLine
 10
366.7340384637
 20
243.1512437587
 30
0.0
 11
366.7340384637
 21
258.8108847691
 31
0.0
  0
LINE
  5
2BB
330
2B6
100
AcDbEntity
  8
pomocnicze
  6
Continuous
 62
     7
100
AcDbLine
 10
299.7976076665
 20
257.0608847151
 30
0.0
 11
366.7340409818
 21
257.0608847151
 31
0.0
  0
TEXT
  5
2BC
330
2B6
100
AcDbEntity
  8
pomocnicze
  6
Continuous
 62
     7
100
AcDbText
 10
328.6919606878
 20
257.9358847151
 30
0.0
 40
3.5
  1
66,94
  7
SEACAD_Solid_Edge_ISO
 11
328.6919606878
 21
261.4358847151
 31
0.0
100
AcDbText
 73
     3
  0
ENDBLK
  5
2BE
330
2B6
100
AcDbEntity
  8
0
100
AcDbBlockEnd
  0
BLOCK
  5
2C7
330
2C0
100
AcDbEntity
  8
0
100
AcDbBlockBegin
  2
DMBLK49
 70
     0
 10
0.0
 20
0.0
 30
0.0
  3
DMBLK49
  1

  0
HATCH
  5
2C1
330
2C0
100
AcDbEntity
  8
pomocnicze
  6
Continuous
 62
     7
100
AcDbHatch
 10
0.0
 20
0.0
 30
0.0
210
0.0
220
0.0
230
1.0
  2
SOLID
 70
     1
 71
     0
 91
        1
 92
        1
 93
        3
 72
     1
 10
542.1763421749588
 20
200.5108473660995
 11
542.1763421749588
 21
201.6775140687773
 72
     1
 10
542.1763421749588
 20
201.6775140687773
 11
538.6763420669254
 21
201.0941807174384
 72
     1
 10
538.6763420669254
 20
201.0941807174384
 11
542.1763421749588
 21
200.5108473660995
 97
        0
 75
     0
 76
     1
 98
        0
  0
HATCH
  5
2C2
330
2C0
100
AcDbEntity
  8
pomocnicze
  6
Continuous
 62
     7
100
AcDbHatch
 10
0.0
 20
0.0
 30
0.0
210
0.0
220
0.0
230
1.0
  2
SOLID
 70
     1
 71
     0
 91
        1
 92
        1
 93
        3
 72
     1
 10
550.8991159280654
 20
200.5108473660995
 11
554.3991160360988
 21
201.0941807174384
 72
     1
 10
554.3991160360988
 20
201.0941807174384
 11
550.8991159280654
 21
201.6775140687773
 72
     1
 10
550.8991159280654
 20
201.6775140687773
 11
550.8991159280654
 21
200.5108473660995
 97
        0
 75
     0
 76
     1
 98
        0
  0
LINE
  5
2C3
330
2C0
100
AcDbEntity
  8
pomocnicze
  6
Continuous
 62
     7
100
AcDbLine
 10
538.6763420669
 20
227.7949307108
 30
0.0
 11
538.6763420669
 21
199.3441806634
 31
0.0
  0
LINE
  5
2C4
330
2C0
100
AcDbEntity
  8
pomocnicze
  6
Continuous
 62
     7
100
AcDbLine
 10
554.399115391
 20
243.8897870009
 30
0.0
 11
554.399115391
 21
199.3441806634
 31
0.0
  0
LINE
  5
2C5
330
2C0
100
AcDbEntity
  8
pomocnicze
  6
Continuous
 62
     7
100
AcDbLine
 10
538.6763420669
 20
201.0941807174
 30
0.0
 11
554.3991160361
 21
201.0941807174
 31
0.0
  0
TEXT
  5
2C6
330
2C0
100
AcDbEntity
  8
pomocnicze
  6
Continuous
 62
     7
100
AcDbText
 10
542.3218199606
 20
201.9691807174
 30
0.0
 40
3.5
  1
15,72
  7
SEACAD_Solid_Edge_ISO
 11
542.3218199606
 21
205.4691807174
 31
0.0
100
AcDbText
 73
     3
  0
ENDBLK
  5
2C8
330
2C0
100
AcDbEntity
  8
0
100
AcDbBlockEnd
  0
BLOCK
  5
2D0
330
2CA
100
AcDbEntity
  8
0
100
AcDbBlockBegin
  2
DMBLK50
 70
     0
 10
0.0
 20
0.0
 30
0.0
  3
DMBLK50
  1

  0
HATCH
  5
2CB
330
2CA
100
AcDbEntity
  8
pomocnicze
  6
Continuous
 62
     7
100
AcDbHatch
 10
0.0
 20
0.0
 30
0.0
210
0.0
220
0.0
230
1.0
  2
SOLID
 70
     1
 71
     0
 91
        1
 92
        1
 93
        3
 72
     1
 10
505.2431925674053
 20
261.3684106800334
 11
507.416725145684
 21
264.1730558779469
 72
     1
 10
507.416725145684
 20
264.1730558779469
 11
504.4510661560972
 21
262.224942608011
 72
     1
 10
504.4510661560971
 20
262.224942608011
 11
505.2431925674053
 21
261.3684106800334
 97
        0
 75
     0
 76
     1
 98
        0
  0
HATCH
  5
2CC
330
2CA
100
AcDbEntity
  8
pomocnicze
  6
Continuous
 62
     7
100
AcDbHatch
 10
0.0
 20
0.0
 30
0.0
210
0.0
220
0.0
230
1.0
  2
SOLID
 70
     1
 71
     0
 91
        1
 92
        1
 93
        3
 72
     1
 10
490.2572112869938
 20
231.3138801183088
 11
490.7124844161683
 21
227.7949307107626
 72
     1
 10
490.7124844161683
 20
227.7949307107626
 11
491.4231015342614
 21
231.2713227868224
 72
     1
 10
491.4231015342614
 20
231.2713227868224
 11
490.2572112869938
 21
231.3138801183088
 97
        0
 75
     0
 76
     1
 98
        0
  0
LINE
  5
2CD
330
2CA
100
AcDbEntity
  8
pomocnicze
  6
Continuous
 62
     7
100
AcDbLine
 10
497.6763409344
 20
227.7949307108
 30
0.0
 11
488.962484595
 21
227.7949307108
 31
0.0
  0
ARC
  5
2CE
330
2CA
100
AcDbEntity
  8
pomocnicze
  6
Continuous
 62
     7
100
AcDbCircle
 10
538.6763420669
 20
227.7949307108
 30
0.0
 40
47.96385765075684
100
AcDbArc
 50
130.6723716643
 51
180.0000012652
  0
TEXT
  5
2CF
330
2CA
100
AcDbEntity
  8
pomocnicze
  6
Continuous
 62
     7
100
AcDbText
 10
493.1145812242
 20
245.608806521
 30
0.0
 40
3.5
  1
49°
 50
65.3361858321
  7
SEACAD_Solid_Edge_ISO
 11
489.9338795559
 21
247.0693327607
 31
0.0
100
AcDbText
 73
     3
  0
ENDBLK
  5
2D1
330
2CA
100
AcDbEntity
  8
0
100
AcDbBlockEnd
  0
BLOCK
  5
2DA
330
2D3
100
AcDbEntity
  8
0
100
AcDbBlockBegin
  2
DMBLK51
 70
     0
 10
0.0
 20
0.0
 30
0.0
  3
DMBLK51
  1

  0
HATCH
  5
2D4
330
2D3
100
AcDbEntity
  8
pomocnicze
  6
Continuous
 62
     7
100
AcDbHatch
 10
0.0
 20
0.0
 30
0.0
210
0.0
220
0.0
230
1.0
  2
SOLID
 70
     1
 71
     0
 91
        1
 92
        1
 93
        3
 72
     1
 10
432.4265046727774
 20
178.3192154100281
 11
428.9265045647439
 21
177.7358820586892
 72
     1
 10
428.9265045647439
 20
177.7358820586892
 11
432.4265046727774
 21
177.1525487073503
 72
     1
 10
432.4265046727774
 20
177.1525487073503
 11
432.4265046727774
 21
178.3192154100281
 97
        0
 75
     0
 76
     1
 98
        0
  0
HATCH
  5
2D5
330
2D3
100
AcDbEntity
  8
pomocnicze
  6
Continuous
 62
     7
100
AcDbHatch
 10
0.0
 20
0.0
 30
0.0
210
0.0
220
0.0
230
1.0
  2
SOLID
 70
     1
 71
     0
 91
        1
 92
        1
 93
        3
 72
     1
 10
453.8475562569615
 20
178.3192154100281
 11
453.8475562569615
 21
177.1525487073503
 72
     1
 10
453.8475562569615
 20
177.1525487073503
 11
457.3475563649949
 21
177.7358820586892
 72
     1
 10
457.3475563649949
 20
177.7358820586892
 11
453.8475562569615
 21
178.3192154100281
 97
        0
 75
     0
 76
     1
 98
        0
  0
LINE
  5
2D6
330
2D3
100
AcDbEntity
  8
pomocnicze
  6
Continuous
 62
     7
100
AcDbLine
 10
428.9265045647
 20
174.1014569457
 30
0.0
 11
428.9265045647
 21
179.4858821127
 31
0.0
  0
LINE
  5
2D7
330
2D3
100
AcDbEntity
  8
pomocnicze
  6
Continuous
 62
     7
100
AcDbLine
 10
457.3475571963
 20
174.1014569457
 30
0.0
 11
457.3475571963
 21
179.4858821127
 31
0.0
  0
LINE
  5
2D8
330
2D3
100
AcDbEntity
  8
pomocnicze
  6
Continuous
 62
     7
100
AcDbLine
 10
428.9265045647
 20
177.7358820587
 30
0.0
 11
457.347556365
 21
177.7358820587
 31
0.0
  0
TEXT
  5
2D9
330
2D3
100
AcDbEntity
  8
pomocnicze
  6
Continuous
 62
     7
100
AcDbText
 10
438.5233941012
 20
178.6108820587
 30
0.0
 40
3.5
  1
28,42
  7
SEACAD_Solid_Edge_ISO
 11
438.5233941012
 21
182.1108820587
 31
0.0
100
AcDbText
 73
     3
  0
ENDBLK
  5
2DB
330
2D3
100
AcDbEntity
  8
0
100
AcDbBlockEnd
  0
BLOCK
  5
2E4
330
2DD
100
AcDbEntity
  8
0
100
AcDbBlockBegin
  2
DMBLK52
 70
     0
 10
0.0
 20
0.0
 30
0.0
  3
DMBLK52
  1

  0
HATCH
  5
2DE
330
2DD
100
AcDbEntity
  8
pomocnicze
  6
Continuous
 62
     7
100
AcDbHatch
 10
0.0
 20
0.0
 30
0.0
210
0.0
220
0.0
230
1.0
  2
SOLID
 70
     1
 71
     0
 91
        1
 92
        1
 93
        3
 72
     1
 10
503.492131648643
 20
125.3915421341352
 11
503.492131648643
 21
126.558208836813
 72
     1
 10
503.492131648643
 20
126.558208836813
 11
499.9921315406096
 21
125.9748754854741
 72
     1
 10
499.9921315406096
 20
125.9748754854741
 11
503.492131648643
 21
125.3915421341352
 97
        0
 75
     0
 76
     1
 98
        0
  0
HATCH
  5
2DF
330
2DD
100
AcDbEntity
  8
pomocnicze
  6
Continuous
 62
     7
100
AcDbHatch
 10
0.0
 20
0.0
 30
0.0
210
0.0
220
0.0
230
1.0
  2
SOLID
 70
     1
 71
     0
 91
        1
 92
        1
 93
        3
 72
     1
 10
528.8605529871417
 20
125.3915421341352
 11
532.3605530951751
 21
125.9748754854741
 72
     1
 10
532.3605530951751
 20
125.9748754854741
 11
528.8605529871417
 21
126.558208836813
 72
     1
 10
528.8605529871417
 20
126.558208836813
 11
528.8605529871417
 21
125.3915421341352
 97
        0
 75
     0
 76
     1
 98
        0
  0
LINE
  5
2E0
330
2DD
100
AcDbEntity
  8
pomocnicze
  6
Continuous
 62
     7
100
AcDbLine
 10
499.9921315406
 20
159.1014569457
 30
0.0
 11
499.9921315406
 21
124.2248754315
 31
0.0
  0
LINE
  5
2E1
330
2DD
100
AcDbEntity
  8
pomocnicze
  6
Continuous
 62
     7
100
AcDbLine
 10
532.3605525932
 20
159.1014569457
 30
0.0
 11
532.3605525932
 21
124.2248754315
 31
0.0
  0
LINE
  5
2E2
330
2DD
100
AcDbEntity
  8
pomocnicze
  6
Continuous
 62
     7
100
AcDbLine
 10
499.9921315406
 20
125.9748754855
 30
0.0
 11
532.3605530952
 21
125.9748754855
 31
0.0
  0
TEXT
  5
2E3
330
2DD
100
AcDbEntity
  8
pomocnicze
  6
Continuous
 62
     7
100
AcDbText
 10
511.8411150452
 20
126.8498754855
 30
0.0
 40
3.5
  1
32,37
  7
SEACAD_Solid_Edge_ISO
 11
511.8411150452
 21
130.3498754855
 31
0.0
100
AcDbText
 73
     3
  0
ENDBLK
  5
2E5
330
2DD
100
AcDbEntity
  8
0
100
AcDbBlockEnd
  0
BLOCK
  5
2EE
330
2E7
100
AcDbEntity
  8
0
100
AcDbBlockBegin
  2
DMBLK53
 70
     0
 10
0.0
 20
0.0
 30
0.0
  3
DMBLK53
  1

  0
HATCH
  5
2E8
330
2E7
100
AcDbEntity
  8
pomocnicze
  6
Continuous
 62
     7
100
AcDbHatch
 10
0.0
 20
0.0
 30
0.0
210
0.0
220
0.0
230
1.0
  2
SOLID
 70
     1
 71
     0
 91
        1
 92
        1
 93
        3
 72
     1
 10
33.27108146644835
 20
340.961535853304
 11
34.43774816912615
 21
340.961535853304
 72
     1
 10
34.43774816912615
 20
340.961535853304
 11
33.85441481778725
 21
344.4615359613375
 72
     1
 10
33.85441481778725
 20
344.4615359613375
 11
33.27108146644835
 21
340.961535853304
 97
        0
 75
     0
 76
     1
 98
        0
  0
HATCH
  5
2E9
330
2E7
100
AcDbEntity
  8
pomocnicze
  6
Continuous
 62
     7
100
AcDbHatch
 10
0.0
 20
0.0
 30
0.0
210
0.0
220
0.0
230
1.0
  2
SOLID
 70
     1
 71
     0
 91
        1
 92
        1
 93
        3
 72
     1
 10
33.27108146644835
 20
221.2949305968062
 11
33.85441481778725
 21
217.7949304887727
 72
     1
 10
33.85441481778725
 20
217.7949304887727
 11
34.43774816912615
 21
221.2949305968062
 72
     1
 10
34.43774816912615
 20
221.2949305968062
 11
33.27108146644835
 21
221.2949305968062
 97
        0
 75
     0
 76
     1
 98
        0
  0
LINE
  5
2EA
330
2E7
100
AcDbEntity
  8
pomocnicze
  6
Continuous
 62
     7
100
AcDbLine
 10
131.7270073266
 20
344.4615359613
 30
0.0
 11
32.1044147638
 21
344.4615359613
 31
0.0
  0
LINE
  5
2EB
330
2E7
100
AcDbEntity
  8
pomocnicze
  6
Continuous
 62
     7
100
AcDbLine
 10
63.2576076665
 20
217.7949307108
 30
0.0
 11
32.1044147638
 21
217.7949307108
 31
0.0
  0
LINE
  5
2EC
330
2E7
100
AcDbEntity
  8
pomocnicze
  6
Continuous
 62
     7
100
AcDbLine
 10
33.8544148178
 20
344.4615359613
 30
0.0
 11
33.8544148178
 21
217.7949304888
 31
0.0
  0
TEXT
  5
2ED
330
2E7
100
AcDbEntity
  8
pomocnicze
  6
Continuous
 62
     7
100
AcDbText
 10
32.9794148178
 20
275.7589150432
 30
0.0
 40
3.5
  1
126,67
 50
90.0
  7
SEACAD_Solid_Edge_ISO
 11
29.4794148178
 21
275.7589150432
 31
0.0
100
AcDbText
 73
     3
  0
ENDBLK
  5
2EF
330
2E7
100
AcDbEntity
  8
0
100
AcDbBlockEnd
  0
BLOCK
  5
2F8
330
2F1
100
AcDbEntity
  8
0
100
AcDbBlockBegin
  2
DMBLK54
 70
     0
 10
0.0
 20
0.0
 30
0.0
  3
DMBLK54
  1

  0
HATCH
  5
2F2
330
2F1
100
AcDbEntity
  8
pomocnicze
  6
Continuous
 62
     7
100
AcDbHatch
 10
0.0
 20
0.0
 30
0.0
210
0.0
220
0.0
230
1.0
  2
SOLID
 70
     1
 71
     0
 91
        1
 92
        1
 93
        3
 72
     1
 10
146.149507289352
 20
308.961535853304
 11
145.5661739380132
 21
312.4615359613374
 72
     1
 10
145.5661739380132
 20
312.4615359613374
 11
144.9828405866743
 21
308.961535853304
 72
     1
 10
144.9828405866743
 20
308.961535853304
 11
146.149507289352
 21
308.961535853304
 97
        0
 75
     0
 76
     1
 98
        0
  0
HATCH
  5
2F3
330
2F1
100
AcDbEntity
  8
pomocnicze
  6
Continuous
 62
     7
100
AcDbHatch
 10
0.0
 20
0.0
 30
0.0
210
0.0
220
0.0
230
1.0
  2
SOLID
 70
     1
 71
     0
 91
        1
 92
        1
 93
        3
 72
     1
 10
146.149507289352
 20
231.2949337558523
 11
144.9828405866743
 21
231.2949337558523
 72
     1
 10
144.9828405866743
 20
231.2949337558523
 11
145.5661739380132
 21
227.7949336478189
 72
     1
 10
145.5661739380132
 20
227.7949336478189
 11
146.149507289352
 21
231.2949337558523
 97
        0
 75
     0
 76
     1
 98
        0
  0
LINE
  5
2F4
330
2F1
100
AcDbEntity
  8
pomocnicze
  6
Continuous
 62
     7
100
AcDbLine
 10
131.7270073266
 20
312.4615359613
 30
0.0
 11
147.316173992
 21
312.4615359613
 31
0.0
  0
LINE
  5
2F5
330
2F1
100
AcDbEntity
  8
pomocnicze
  6
Continuous
 62
     7
100
AcDbLine
 10
63.2576076665
 20
227.7949307108
 30
0.0
 11
147.316173992
 21
227.7949307108
 31
0.0
  0
LINE
  5
2F6
330
2F1
100
AcDbEntity
  8
pomocnicze
  6
Continuous
 62
     7
100
AcDbLine
 10
145.566173938
 20
312.4615359613
 30
0.0
 11
145.566173938
 21
227.7949336478
 31
0.0
  0
TEXT
  5
2F7
330
2F1
100
AcDbEntity
  8
pomocnicze
  6
Continuous
 62
     7
100
AcDbText
 10
144.691173938
 20
265.4748257137
 30
0.0
 40
3.5
  1
84,67
 50
90.0
  7
SEACAD_Solid_Edge_ISO
 11
141.191173938
 21
265.4748257137
 31
0.0
100
AcDbText
 73
     3
  0
ENDBLK
  5
2F9
330
2F1
100
AcDbEntity
  8
0
100
AcDbBlockEnd
  0
BLOCK
  5
302
330
2FB
100
AcDbEntity
  8
0
100
AcDbBlockBegin
  2
DMBLK55
 70
     0
 10
0.0
 20
0.0
 30
0.0
  3
DMBLK55
  1

  0
HATCH
  5
2FC
330
2FB
100
AcDbEntity
  8
pomocnicze
  6
Continuous
 62
     7
100
AcDbHatch
 10
0.0
 20
0.0
 30
0.0
210
0.0
220
0.0
230
1.0
  2
SOLID
 70
     1
 71
     0
 91
        1
 92
        1
 93
        3
 72
     1
 10
159.0052251279266
 20
231.2949308187961
 11
157.8385584252488
 21
231.2949308187961
 72
     1
 10
157.8385584252488
 20
231.2949308187961
 11
158.4218917765877
 21
227.7949307107627
 72
     1
 10
158.4218917765877
 20
227.7949307107627
 11
159.0052251279266
 21
231.2949308187961
 97
        0
 75
     0
 76
     1
 98
        0
  0
HATCH
  5
2FD
330
2FB
100
AcDbEntity
  8
pomocnicze
  6
Continuous
 62
     7
100
AcDbHatch
 10
0.0
 20
0.0
 30
0.0
210
0.0
220
0.0
230
1.0
  2
SOLID
 70
     1
 71
     0
 91
        1
 92
        1
 93
        3
 72
     1
 10
159.0052251279266
 20
323.9615335122942
 11
158.4218917765877
 21
327.4615336203277
 72
     1
 10
158.4218917765877
 20
327.4615336203277
 11
157.8385584252488
 21
323.9615335122942
 72
     1
 10
157.8385584252488
 20
323.9615335122942
 11
159.0052251279266
 21
323.9615335122942
 97
        0
 75
     0
 76
     1
 98
        0
  0
LINE
  5
2FE
330
2FB
100
AcDbEntity
  8
pomocnicze
  6
Continuous
 62
     7
100
AcDbLine
 10
63.2576076665
 20
227.7949307108
 30
0.0
 11
160.1718918306
 21
227.7949307108
 31
0.0
  0
LINE
  5
2FF
330
2FB
100
AcDbEntity
  8
pomocnicze
  6
Continuous
 62
     7
100
AcDbLine
 10
146.6008600874
 20
327.4615359613
 30
0.0
 11
160.1718918306
 21
327.4615359613
 31
0.0
  0
LINE
  5
300
330
2FB
100
AcDbEntity
  8
pomocnicze
  6
Continuous
 62
     7
100
AcDbLine
 10
158.4218917766
 20
227.7949307108
 30
0.0
 11
158.4218917766
 21
327.4615336203
 31
0.0
  0
TEXT
  5
301
330
2FB
100
AcDbEntity
  8
pomocnicze
  6
Continuous
 62
     7
100
AcDbText
 10
157.5468917766
 20
272.9748230746
 30
0.0
 40
3.5
  1
99,67
 50
90.0
  7
SEACAD_Solid_Edge_ISO
 11
154.0468917766
 21
272.9748230746
 31
0.0
100
AcDbText
 73
     3
  0
ENDBLK
  5
303
330
2FB
100
AcDbEntity
  8
0
100
AcDbBlockEnd
  0
BLOCK
  5
30C
330
305
100
AcDbEntity
  8
0
100
AcDbBlockBegin
  2
DMBLK56
 70
     0
 10
0.0
 20
0.0
 30
0.0
  3
DMBLK56
  1

  0
HATCH
  5
306
330
305
100
AcDbEntity
  8
pomocnicze
  6
Continuous
 62
     7
100
AcDbHatch
 10
0.0
 20
0.0
 30
0.0
210
0.0
220
0.0
230
1.0
  2
SOLID
 70
     1
 71
     0
 91
        1
 92
        1
 93
        3
 72
     1
 10
99.54708124269554
 20
150.1972144121421
 11
99.54708124269554
 21
149.0305477094643
 72
     1
 10
99.54708124269554
 20
149.0305477094643
 11
103.047081350729
 21
149.6138810608032
 72
     1
 10
103.047081350729
 20
149.6138810608032
 11
99.54708124269554
 21
150.1972144121421
 97
        0
 75
     0
 76
     1
 98
        0
  0
HATCH
  5
307
330
305
100
AcDbEntity
  8
pomocnicze
  6
Continuous
 62
     7
100
AcDbHatch
 10
0.0
 20
0.0
 30
0.0
210
0.0
220
0.0
230
1.0
  2
SOLID
 70
     1
 71
     0
 91
        1
 92
        1
 93
        3
 72
     1
 10
71.96813224573442
 20
150.1972144121421
 11
68.468132137701
 21
149.6138810608032
 72
     1
 10
68.468132137701
 20
149.6138810608032
 11
71.96813224573442
 21
149.0305477094643
 72
     1
 10
71.96813224573442
 20
149.0305477094643
 11
71.96813224573442
 21
150.1972144121421
 97
        0
 75
     0
 76
     1
 98
        0
  0
LINE
  5
308
330
305
100
AcDbEntity
  8
pomocnicze
  6
Continuous
 62
     7
100
AcDbLine
 10
103.0470813507
 20
145.1014569457
 30
0.0
 11
103.0470813507
 21
151.3638811148
 31
0.0
  0
LINE
  5
309
330
305
100
AcDbEntity
  8
pomocnicze
  6
Continuous
 62
     7
100
AcDbLine
 10
68.4681339823
 20
145.1014569457
 30
0.0
 11
68.4681339823
 21
151.3638811148
 31
0.0
  0
LINE
  5
30A
330
305
100
AcDbEntity
  8
pomocnicze
  6
Continuous
 62
     7
100
AcDbLine
 10
103.0470813507
 20
149.6138810608
 30
0.0
 11
68.4681321377
 21
149.6138810608
 31
0.0
  0
TEXT
  5
30B
330
305
100
AcDbEntity
  8
pomocnicze
  6
Continuous
 62
     7
100
AcDbText
 10
81.3826067442
 20
150.4888810608
 30
0.0
 40
3.5
  1
34,58
  7
SEACAD_Solid_Edge_ISO
 11
81.3826067442
 21
153.9888810608
 31
0.0
100
AcDbText
 73
     3
  0
ENDBLK
  5
30D
330
305
100
AcDbEntity
  8
0
100
AcDbBlockEnd
  0
BLOCK
  5
316
330
30F
100
AcDbEntity
  8
0
100
AcDbBlockBegin
  2
DMBLK57
 70
     0
 10
0.0
 20
0.0
 30
0.0
  3
DMBLK57
  1

  0
HATCH
  5
310
330
30F
100
AcDbEntity
  8
pomocnicze
  6
Continuous
 62
     7
100
AcDbHatch
 10
0.0
 20
0.0
 30
0.0
210
0.0
220
0.0
230
1.0
  2
SOLID
 70
     1
 71
     0
 91
        1
 92
        1
 93
        3
 72
     1
 10
103.5733970321692
 20
101.87744669487
 11
103.5733970321692
 21
100.7107799921922
 72
     1
 10
103.5733970321692
 20
100.7107799921922
 11
107.0733971402027
 21
101.2941133435311
 72
     1
 10
107.0733971402027
 20
101.2941133435311
 11
103.5733970321692
 21
101.87744669487
 97
        0
 75
     0
 76
     1
 98
        0
  0
HATCH
  5
311
330
30F
100
AcDbEntity
  8
pomocnicze
  6
Continuous
 62
     7
100
AcDbHatch
 10
0.0
 20
0.0
 30
0.0
210
0.0
220
0.0
230
1.0
  2
SOLID
 70
     1
 71
     0
 91
        1
 92
        1
 93
        3
 72
     1
 10
67.94181954785957
 20
101.87744669487
 11
64.44181943982615
 21
101.2941133435311
 72
     1
 10
64.44181943982615
 20
101.2941133435311
 11
67.94181954785957
 21
100.7107799921922
 72
     1
 10
67.94181954785957
 20
100.7107799921922
 11
67.94181954785957
 21
101.87744669487
 97
        0
 75
     0
 76
     1
 98
        0
  0
LINE
  5
312
330
30F
100
AcDbEntity
  8
pomocnicze
  6
Continuous
 62
     7
100
AcDbLine
 10
107.0733971402
 20
94.1014569457
 30
0.0
 11
107.0733971402
 21
103.0441133975
 31
0.0
  0
LINE
  5
313
330
30F
100
AcDbEntity
  8
pomocnicze
  6
Continuous
 62
     7
100
AcDbLine
 10
64.4418181928
 20
94.1014569457
 30
0.0
 11
64.4418181928
 21
103.0441133975
 31
0.0
  0
LINE
  5
314
330
30F
100
AcDbEntity
  8
pomocnicze
  6
Continuous
 62
     7
100
AcDbLine
 10
136.8971921012
 20
101.2941133435
 30
0.0
 11
64.4418194398
 21
101.2941133435
 31
0.0
  0
TEXT
  5
315
330
30F
100
AcDbEntity
  8
pomocnicze
  6
Continuous
 62
     7
100
AcDbText
 10
126.8426463768
 20
102.1691133435
 30
0.0
 40
3.5
  1
42,63
  7
SEACAD_Solid_Edge_ISO
 11
126.8426463768
 21
105.6691133435
 31
0.0
100
AcDbText
 73
     3
  0
ENDBLK
  5
317
330
30F
100
AcDbEntity
  8
0
100
AcDbBlockEnd
  0
BLOCK
  5
335
330
333
100
AcDbEntity
  8
0
100
AcDbBlockBegin
  2
SEANNOT_GROUP
 70
     0
 10
0.0
 20
0.0
 30
0.0
  3
SEANNOT_GROUP
  1

  0
ENDBLK
  5
336
330
333
100
AcDbEntity
  8
0
100
AcDbBlockEnd
  0
BLOCK
  5
33B
330
339
100
AcDbEntity
  8
0
100
AcDbBlockBegin
  2
SEANNOT_GROUP1
 70
     0
 10
0.0
 20
0.0
 30
0.0
  3
SEANNOT_GROUP1
  1

  0
ENDBLK
  5
33C
330
339
100
AcDbEntity
  8
0
100
AcDbBlockEnd
  0
BLOCK
  5
346
330
344
100
AcDbEntity
  8
0
100
AcDbBlockBegin
  2
SEANNOT_GROUP2
 70
     0
 10
0.0
 20
0.0
 30
0.0
  3
SEANNOT_GROUP2
  1

  0
ENDBLK
  5
347
330
344
100
AcDbEntity
  8
0
100
AcDbBlockEnd
  0
BLOCK
  5
34D
330
34B
100
AcDbEntity
  8
0
100
AcDbBlockBegin
  2
SEANNOT_GROUP3
 70
     0
 10
0.0
 20
0.0
 30
0.0
  3
SEANNOT_GROUP3
  1

  0
ENDBLK
  5
34E
330
34B
100
AcDbEntity
  8
0
100
AcDbBlockEnd
  0
ENDSEC
  0
SECTION
  2
ENTITIES
  0
LINE
  5
6F
330
1F
100
AcDbEntity
  8
Default
  6
Continuous
 62
     7
100
AcDbLine
 10
63.2576076665
 20
227.7949307108
 30
0.0
 11
63.2576076665
 21
279.7949307108
 31
0.0
  0
LINE
  5
70
330
1F
100
AcDbEntity
  8
Default
  6
Continuous
 62
     7
100
AcDbLine
 10
63.2576076665
 20
279.7949307108
 30
0.0
 11
84.2576076665
 21
279.7949307108
 31
0.0
  0
LINE
  5
71
330
1F
100
AcDbEntity
  8
Default
  6
Continuous
 62
     7
100
AcDbLine
 10
84.2576076665
 20
279.7949307108
 30
0.0
 11
99.3351222137
 21
279.7949307108
 31
0.0
  0
LINE
  5
72
330
1F
100
AcDbEntity
  8
Default
  6
Continuous
 62
     7
100
AcDbLine
 10
84.2576076665
 20
279.7949307108
 30
0.0
 11
84.2576076665
 21
227.7949307108
 31
0.0
  0
LINE
  5
74
330
1F
100
AcDbEntity
  8
pomocnicze
  6
Continuous
 62
     7
100
AcDbLine
 10
220.6260895352
 20
317.4615359613
 30
0.0
 11
461.6260895352
 21
317.4615359613
 31
0.0
  0
LINE
  5
75
330
1F
100
AcDbEntity
  8
pomocnicze
  6
Continuous
 62
     7
100
AcDbLine
 10
461.6260895352
 20
317.4615359613
 30
0.0
 11
538.6763420669
 21
227.7949307108
 31
0.0
  0
LINE
  5
76
330
1F
100
AcDbEntity
  8
pomocnicze
  6
Continuous
 62
     7
100
AcDbLine
 10
538.6763420669
 20
227.7949307108
 30
0.0
 11
497.6763420669
 21
227.7949307108
 31
0.0
  0
LINE
  5
77
330
1F
100
AcDbEntity
  8
pomocnicze
  6
Continuous
 62
     7
100
AcDbLine
 10
497.6763420669
 20
227.7949307108
 30
0.0
 11
497.6763420669
 21
234.7949307108
 31
0.0
  0
LINE
  5
78
330
1F
100
AcDbEntity
  8
pomocnicze
  6
Continuous
 62
     7
100
AcDbLine
 10
497.6763420669
 20
234.7949307108
 30
0.0
 11
412.6763420669
 21
234.7949307108
 31
0.0
  0
LINE
  5
79
330
1F
100
AcDbEntity
  8
pomocnicze
  6
Continuous
 62
     7
100
AcDbLine
 10
303.2118759729
 20
227.7949307108
 30
0.0
 11
66.6763420669
 21
227.7949307108
 31
0.0
  0
LINE
  5
7A
330
1F
100
AcDbEntity
  8
pomocnicze
  6
Continuous
 62
     7
100
AcDbLine
 10
303.2118759729
 20
227.7949307108
 30
0.0
 11
412.6763420669
 21
227.7949307108
 31
0.0
  0
LINE
  5
7B
330
1F
100
AcDbEntity
  8
pomocnicze
  6
Continuous
 62
     7
100
AcDbLine
 10
412.6763420669
 20
234.7949307108
 30
0.0
 11
412.6763420669
 21
227.7949307108
 31
0.0
  0
LINE
  5
7C
330
1F
100
AcDbEntity
  8
pomocnicze
  6
Continuous
 62
     7
100
AcDbLine
 10
213.6260895352
 20
324.4615359613
 30
0.0
 11
220.6260895352
 21
317.4615359613
 31
0.0
  0
LINE
  5
7D
330
1F
100
AcDbEntity
  8
pomocnicze
  6
Continuous
 62
     7
100
AcDbLine
 10
146.6008600874
 20
327.4615359613
 30
0.0
 11
99.3351222137
 21
279.7949307108
 31
0.0
  0
LINE
  5
7E
330
1F
100
AcDbEntity
  8
pomocnicze
  6
Continuous
 62
     7
100
AcDbLine
 10
99.3351222137
 20
279.7949307108
 30
0.0
 11
84.2576076665
 21
264.5895416401
 31
0.0
  0
LINE
  5
7F
330
1F
100
AcDbEntity
  8
pomocnicze
  6
Continuous
 62
     7
100
AcDbLine
 10
66.6763420669
 20
227.7949307108
 30
0.0
 11
63.2576076665
 21
227.7949307108
 31
0.0
  0
LINE
  5
80
330
1F
100
AcDbEntity
  8
pomocnicze
  6
Continuous
 62
     7
100
AcDbLine
 10
210.6260895352
 20
327.4615359613
 30
0.0
 11
220.6260895352
 21
317.4615359613
 31
0.0
  0
LINE
  5
81
330
1F
100
AcDbEntity
  8
pomocnicze
  6
Continuous
 62
     7
100
AcDbLine
 10
210.6260895352
 20
327.4615359613
 30
0.0
 11
146.6008600874
 21
327.4615359613
 31
0.0
  0
LINE
  5
82
330
1F
100
AcDbEntity
  8
pomocnicze
  6
Continuous
 62
     7
100
AcDbLine
 10
538.6763420669
 20
79.1014569457
 30
0.0
 11
493.6763420669
 21
79.1014569457
 31
0.0
  0
LINE
  5
83
330
1F
100
AcDbEntity
  8
pomocnicze
  6
Continuous
 62
     7
100
AcDbLine
 10
501.1763420669
 20
174.1014569457
 30
0.0
 11
493.6763420669
 21
79.1014569457
 31
0.0
  0
LINE
  5
84
330
1F
100
AcDbEntity
  8
pomocnicze
  6
Continuous
 62
     7
100
AcDbLine
 10
538.6763420669
 20
79.1014569457
 30
0.0
 11
531.1763420669
 21
174.1014569457
 31
0.0
  0
LINE
  5
85
330
1F
100
AcDbEntity
  8
pomocnicze
  6
Continuous
 62
     7
100
AcDbLine
 10
501.1763420669
 20
174.1014569457
 30
0.0
 11
511.1763420669
 21
174.1014569457
 31
0.0
  0
LINE
  5
86
330
1F
100
AcDbEntity
  8
pomocnicze
  6
Continuous
 62
     7
100
AcDbLine
 10
511.1763420669
 20
174.1014569457
 30
0.0
 11
511.1763420669
 21
164.1014569457
 31
0.0
  0
LINE
  5
87
330
1F
100
AcDbEntity
  8
pomocnicze
  6
Continuous
 62
     7
100
AcDbLine
 10
511.1763420669
 20
164.1014569457
 30
0.0
 11
511.1763420669
 21
159.1014569457
 31
0.0
  0
LINE
  5
88
330
1F
100
AcDbEntity
  8
pomocnicze
  6
Continuous
 62
     7
100
AcDbLine
 10
511.1763420669
 20
159.1014569457
 30
0.0
 11
521.1763420669
 21
159.1014569457
 31
0.0
  0
LINE
  5
89
330
1F
100
AcDbEntity
  8
pomocnicze
  6
Continuous
 62
     7
100
AcDbLine
 10
521.1763420669
 20
164.1014569457
 30
0.0
 11
521.1763420669
 21
174.1014569457
 31
0.0
  0
LINE
  5
8A
330
1F
100
AcDbEntity
  8
pomocnicze
  6
Continuous
 62
     7
100
AcDbLine
 10
521.1763420669
 20
174.1014569457
 30
0.0
 11
531.1763420669
 21
174.1014569457
 31
0.0
  0
LINE
  5
8B
330
1F
100
AcDbEntity
  8
pomocnicze
  6
Continuous
 62
     7
100
AcDbLine
 10
500.3868683827
 20
164.1014569457
 30
0.0
 11
511.1763420669
 21
164.1014569457
 31
0.0
  0
LINE
  5
8C
330
1F
100
AcDbEntity
  8
pomocnicze
  6
Continuous
 62
     7
100
AcDbLine
 10
521.1763420669
 20
164.1014569457
 30
0.0
 11
531.9658157511
 21
164.1014569457
 31
0.0
  0
LINE
  5
8D
330
1F
100
AcDbEntity
  8
pomocnicze
  6
Continuous
 62
     7
100
AcDbLine
 10
521.1763420669
 20
159.1014569457
 30
0.0
 11
521.1763420669
 21
164.1014569457
 31
0.0
  0
LINE
  5
8F
330
1F
100
AcDbEntity
  8
pomocnicze
  6
HIDDEN2
 62
     7
100
AcDbLine
 10
516.1763420669
 20
164.6671577031
 30
0.0
 11
516.1763420669
 21
67.0700926625
 31
0.0
  0
LINE
  5
90
330
1F
100
AcDbEntity
  8
pomocnicze
  6
HIDDEN2
 62
     7
100
AcDbLine
 10
493.6763420669
 20
79.1014569457
 30
0.0
 11
493.6763420669
 21
190.513357195
 31
0.0
  0
LINE
  5
91
330
1F
100
AcDbEntity
  8
pomocnicze
  6
HIDDEN2
 62
     7
100
AcDbLine
 10
461.6260895352
 20
317.4615359613
 30
0.0
 11
472.107938418
 21
328.1914401547
 31
0.0
  0
LINE
  5
92
330
1F
100
AcDbEntity
  8
pomocnicze
  6
HIDDEN2
 62
     7
100
AcDbLine
 10
538.6763420669
 20
227.7949307108
 30
0.0
 11
554.399115391
 21
243.8897870009
 31
0.0
  0
LINE
  5
93
330
1F
100
AcDbEntity
  8
pomocnicze
  6
HIDDEN2
 62
     7
100
AcDbLine
 10
554.399115391
 20
243.8897870009
 30
0.0
 11
472.107938418
 21
328.1914401547
 31
0.0
  0
LINE
  5
94
330
1F
100
AcDbEntity
  8
pomocnicze
  6
Continuous
 62
     7
100
AcDbLine
 10
63.2576076665
 20
79.1014569457
 30
0.0
 11
108.2576076665
 21
79.1014569457
 31
0.0
  0
LINE
  5
95
330
1F
100
AcDbEntity
  8
pomocnicze
  6
Continuous
 62
     7
100
AcDbLine
 10
100.7576076665
 20
174.1014569457
 30
0.0
 11
90.7576076665
 21
174.1014569457
 31
0.0
  0
LINE
  5
96
330
1F
100
AcDbEntity
  8
pomocnicze
  6
Continuous
 62
     7
100
AcDbLine
 10
70.7576076665
 20
174.1014569457
 30
0.0
 11
63.2576076665
 21
79.1014569457
 31
0.0
  0
LINE
  5
97
330
1F
100
AcDbEntity
  8
pomocnicze
  6
Continuous
 62
     7
100
AcDbLine
 10
108.2576076665
 20
79.1014569457
 30
0.0
 11
100.7576076665
 21
174.1014569457
 31
0.0
  0
LINE
  5
98
330
1F
100
AcDbEntity
  8
pomocnicze
  6
Continuous
 62
     7
100
AcDbLine
 10
85.7576076665
 20
79.1014569457
 30
0.0
 11
85.7576076665
 21
131.1014569457
 31
0.0
  0
LINE
  5
99
330
1F
100
AcDbEntity
  8
pomocnicze
  6
Continuous
 62
     7
100
AcDbLine
 10
85.7576076665
 20
131.1014569457
 30
0.0
 11
104.1523445086
 21
131.1014569457
 31
0.0
  0
LINE
  5
9A
330
1F
100
AcDbEntity
  8
pomocnicze
  6
Continuous
 62
     7
100
AcDbLine
 10
104.1523445086
 20
131.1014569457
 30
0.0
 11
67.3628708244
 21
131.1014569457
 31
0.0
  0
LINE
  5
9B
330
1F
100
AcDbEntity
  8
pomocnicze
  6
Continuous
 62
     7
100
AcDbLine
 10
85.7576076665
 20
79.1014569457
 30
0.0
 11
85.7576076665
 21
116.1014569457
 31
0.0
  0
LINE
  5
9C
330
1F
100
AcDbEntity
  8
pomocnicze
  6
Continuous
 62
     7
100
AcDbLine
 10
85.7576076665
 20
116.1014569457
 30
0.0
 11
105.3365550349
 21
116.1014569457
 31
0.0
  0
LINE
  5
9D
330
1F
100
AcDbEntity
  8
pomocnicze
  6
Continuous
 62
     7
100
AcDbLine
 10
105.3365550349
 20
116.1014569457
 30
0.0
 11
66.1786602981
 21
116.1014569457
 31
0.0
  0
LINE
  5
9E
330
1F
100
AcDbEntity
  8
pomocnicze
  6
Continuous
 62
     7
100
AcDbLine
 10
70.7576076665
 20
174.1014569457
 30
0.0
 11
80.7576076665
 21
174.1014569457
 31
0.0
  0
LINE
  5
9F
330
1F
100
AcDbEntity
  8
pomocnicze
  6
Continuous
 62
     7
100
AcDbLine
 10
70.7576076665
 20
174.1014569457
 30
0.0
 11
80.7576076665
 21
174.1014569457
 31
0.0
  0
LINE
  5
A0
330
1F
100
AcDbEntity
  8
pomocnicze
  6
Continuous
 62
     7
100
AcDbLine
 10
80.7576076665
 20
174.1014569457
 30
0.0
 11
80.7576076665
 21
159.1014569457
 31
0.0
  0
LINE
  5
A1
330
1F
100
AcDbEntity
  8
pomocnicze
  6
Continuous
 62
     7
100
AcDbLine
 10
80.7576076665
 20
159.1014569457
 30
0.0
 11
90.7576076665
 21
159.1014569457
 31
0.0
  0
LINE
  5
A2
330
1F
100
AcDbEntity
  8
pomocnicze
  6
Continuous
 62
     7
100
AcDbLine
 10
90.7576076665
 20
159.1014569457
 30
0.0
 11
90.7576076665
 21
174.1014569457
 31
0.0
  0
LINE
  5
A3
330
1F
100
AcDbEntity
  8
pomocnicze
  6
Continuous
 62
     7
100
AcDbLine
 10
80.7576076665
 20
174.1014569457
 30
0.0
 11
70.7576076665
 21
174.1014569457
 31
0.0
  0
LINE
  5
A4
330
1F
100
AcDbEntity
  8
pomocnicze
  6
HIDDEN2
 62
     7
100
AcDbLine
 10
146.6008600874
 20
327.4615359613
 30
0.0
 11
136.9109986783
 21
338.9117143823
 31
0.0
  0
LINE
  5
A5
330
1F
100
AcDbEntity
  8
pomocnicze
  6
HIDDEN2
 62
     7
100
AcDbLine
 10
85.7576076665
 20
131.1014569457
 30
0.0
 11
85.7576076665
 21
187.6227780384
 31
0.0
  0
LINE
  5
A6
330
1F
100
AcDbEntity
  8
pomocnicze
  6
HIDDEN2
 62
     7
100
AcDbLine
 10
99.3351222137
 20
279.7949307108
 30
0.0
 11
87.4553521262
 21
293.8328494549
 31
0.0
  0
LINE
  5
A7
330
1F
100
AcDbEntity
  8
pomocnicze
  6
HIDDEN2
 62
     7
100
AcDbLine
 10
87.4553521262
 20
293.8328494549
 30
0.0
 11
136.9109986783
 21
338.9117143823
 31
0.0
  0
LINE
  5
A8
330
1F
100
AcDbEntity
  8
pomocnicze
  6
HIDDEN2
 62
     7
100
AcDbLine
 10
87.4553521262
 20
293.8328494549
 30
0.0
 11
63.0409006236
 21
293.8328494549
 31
0.0
  0
LINE
  5
A9
330
1F
100
AcDbEntity
  8
pomocnicze
  6
HIDDEN2
 62
     7
100
AcDbLine
 10
63.0409006236
 20
293.8328494549
 30
0.0
 11
63.2576076665
 21
279.7949307108
 31
0.0
  0
LINE
  5
AA
330
1F
100
AcDbEntity
  8
pomocnicze
  6
HIDDEN2
 62
     7
100
AcDbLine
 10
63.2576076665
 20
279.7949307108
 30
0.0
 11
40.7576076665
 21
279.7949307108
 31
0.0
  0
LINE
  5
AB
330
1F
100
AcDbEntity
  8
pomocnicze
  6
HIDDEN2
 62
     7
100
AcDbLine
 10
63.2576076665
 20
227.7949307108
 30
0.0
 11
40.7576076665
 21
227.7949307108
 31
0.0
  0
LINE
  5
AC
330
1F
100
AcDbEntity
  8
pomocnicze
  6
HIDDEN2
 62
     7
100
AcDbLine
 10
40.7576076665
 20
227.7949307108
 30
0.0
 11
40.7576076665
 21
279.7949307108
 31
0.0
  0
LINE
  5
AD
330
1F
100
AcDbEntity
  8
pomocnicze
  6
HIDDEN2
 62
     7
100
AcDbLine
 10
63.2576076665
 20
227.7949307108
 30
0.0
 11
63.2576076665
 21
217.7949307108
 31
0.0
  0
LINE
  5
AE
330
1F
100
AcDbEntity
  8
pomocnicze
  6
HIDDEN2
 62
     7
100
AcDbLine
 10
63.2576076665
 20
217.7949307108
 30
0.0
 11
538.6763420669
 21
217.7949307108
 31
0.0
  0
LINE
  5
AF
330
1F
100
AcDbEntity
  8
pomocnicze
  6
HIDDEN2
 62
     7
100
AcDbLine
 10
538.6763420669
 20
217.7949307108
 30
0.0
 11
538.6763420669
 21
227.7949307108
 31
0.0
  0
LINE
  5
B0
330
1F
100
AcDbEntity
  8
pomocnicze
  6
HIDDEN2
 62
     7
100
AcDbLine
 10
412.6763420669
 20
227.7949307108
 30
0.0
 11
412.6763420669
 21
217.7949307108
 31
0.0
  0
LINE
  5
B1
330
1F
100
AcDbEntity
  8
pomocnicze
  6
HIDDEN2
 62
     7
100
AcDbLine
 10
497.6763420669
 20
227.7949307108
 30
0.0
 11
497.6763420669
 21
217.7949307108
 31
0.0
  0
LINE
  5
B2
330
1F
100
AcDbEntity
  8
pomocnicze
  6
HIDDEN2
 62
     7
100
AcDbLine
 10
451.7340384637
 20
294.1512437587
 30
0.0
 11
181.7340384637
 21
294.1512437587
 31
0.0
  0
LINE
  5
B3
330
1F
100
AcDbEntity
  8
pomocnicze
  6
Continuous
 62
     7
100
AcDbLine
 10
181.7340384637
 20
243.1512437587
 30
0.0
 11
153.4007051303
 21
243.1512437587
 31
0.0
  0
LINE
  5
B4
330
1F
100
AcDbEntity
  8
pomocnicze
  6
Continuous
 62
     7
100
AcDbLine
 10
451.7340384637
 20
294.1512437587
 30
0.0
 11
451.7340384637
 21
279.1512437587
 31
0.0
  0
LINE
  5
B5
330
1F
100
AcDbEntity
  8
pomocnicze
  6
Continuous
 62
     7
100
AcDbLine
 10
451.7340384637
 20
279.1512437587
 30
0.0
 11
386.7340384637
 21
279.1512437587
 31
0.0
  0
LINE
  5
B6
330
1F
100
AcDbEntity
  8
pomocnicze
  6
Continuous
 62
     7
100
AcDbLine
 10
366.7340384637
 20
243.1512437587
 30
0.0
 11
386.7340384637
 21
279.1512437587
 31
0.0
  0
LINE
  5
B7
330
1F
100
AcDbEntity
  8
pomocnicze
  6
Continuous
 62
     7
100
AcDbLine
 10
366.7340384637
 20
243.1512437587
 30
0.0
 11
181.7340384637
 21
243.1512437587
 31
0.0
  0
LINE
  5
B8
330
1F
100
AcDbEntity
  8
pomocnicze
  6
Continuous
 62
     7
100
AcDbLine
 10
181.7340384637
 20
294.1512437587
 30
0.0
 11
451.7340384637
 21
294.1512437587
 31
0.0
  0
LINE
  5
B9
330
1F
100
AcDbEntity
  8
pomocnicze
  6
Continuous
 62
     7
100
AcDbLine
 10
181.7340384637
 20
294.1512437587
 30
0.0
 11
153.4007051303
 21
243.1512437587
 31
0.0
  0
LINE
  5
BB
330
1F
100
AcDbEntity
  8
pomocnicze
  6
DOT2
 62
     7
100
AcDbLine
 10
455.1763420669
 20
222.4945187671
 30
0.0
 11
455.1763420669
 21
304.505133922
 31
0.0
  0
LINE
  5
BC
330
1F
100
AcDbEntity
  8
pomocnicze
  6
DOT2
 62
     7
100
AcDbLine
 10
178.6134748113
 20
320.0206557081
 30
0.0
 11
178.6134748113
 21
197.6696839093
 31
0.0
  0
LINE
  5
BD
330
1F
100
AcDbEntity
  8
pomocnicze
  6
HIDDEN2
 62
     7
100
AcDbLine
 10
63.2576076665
 20
227.7949307108
 30
0.0
 11
299.7976076665
 21
227.7949307108
 31
0.0
  0
LINE
  5
BE
330
1F
100
AcDbEntity
  8
pomocnicze
  6
HIDDEN2
 62
     7
100
AcDbLine
 10
299.7976076665
 20
227.7949307108
 30
0.0
 11
299.7976076665
 21
254.844381691
 31
0.0
  0
LINE
  5
BF
330
1F
100
AcDbEntity
  8
pomocnicze
  6
HIDDEN2
 62
     7
100
AcDbLine
 10
458.1370308805
 20
164.1014569457
 30
0.0
 11
428.1370308805
 21
164.1014569457
 31
0.0
  0
LINE
  5
C0
330
1F
100
AcDbEntity
  8
pomocnicze
  6
HIDDEN2
 62
     7
100
AcDbLine
 10
428.1370308805
 20
164.1014569457
 30
0.0
 11
428.1370308805
 21
174.1014569457
 31
0.0
  0
LINE
  5
C1
330
1F
100
AcDbEntity
  8
pomocnicze
  6
HIDDEN2
 62
     7
100
AcDbLine
 10
428.1370308805
 20
174.1014569457
 30
0.0
 11
458.1370308805
 21
174.1014569457
 31
0.0
  0
LINE
  5
C2
330
1F
100
AcDbEntity
  8
pomocnicze
  6
HIDDEN2
 62
     7
100
AcDbLine
 10
428.1370308805
 20
164.1014569457
 30
0.0
 11
430.4796506562
 21
193.7746407703
 31
0.0
  0
LINE
  5
C3
330
1F
100
AcDbEntity
  8
pomocnicze
  6
HIDDEN2
 62
     7
100
AcDbLine
 10
458.1370308805
 20
164.1014569457
 30
0.0
 11
455.7944111049
 21
193.7746407703
 31
0.0
  0
LINE
  5
C4
330
1F
100
AcDbEntity
  8
pomocnicze
  6
HIDDEN2
 62
     7
100
AcDbLine
 10
499.9921315406
 20
159.1014569457
 30
0.0
 11
532.3605525932
 21
159.1014569457
 31
0.0
  0
LINE
  5
C5
330
1F
100
AcDbEntity
  8
pomocnicze
  6
HIDDEN2
 62
     7
100
AcDbLine
 10
195.6591444713
 20
327.4615359613
 30
0.0
 11
195.6591444713
 21
312.4615359613
 31
0.0
  0
LINE
  5
C6
330
1F
100
AcDbEntity
  8
pomocnicze
  6
HIDDEN2
 62
     7
100
AcDbLine
 10
195.6591444713
 20
312.4615359613
 30
0.0
 11
441.2476893138
 21
312.4615359613
 31
0.0
  0
LINE
  5
C7
330
1F
100
AcDbEntity
  8
pomocnicze
  6
HIDDEN2
 62
     7
100
AcDbLine
 10
195.6591444713
 20
312.4615359613
 30
0.0
 11
131.7270073266
 21
312.4615359613
 31
0.0
  0
LINE
  5
C8
330
1F
100
AcDbEntity
  8
pomocnicze
  6
HIDDEN2
 62
     7
100
AcDbLine
 10
131.7270073266
 20
312.4615359613
 30
0.0
 11
131.7270073266
 21
344.4615359613
 31
0.0
  0
LINE
  5
C9
330
1F
100
AcDbEntity
  8
pomocnicze
  6
HIDDEN2
 62
     7
100
AcDbLine
 10
131.7270073266
 20
344.4615359613
 30
0.0
 11
465.9225749612
 21
344.4615359613
 31
0.0
  0
LINE
  5
CA
330
1F
100
AcDbEntity
  8
pomocnicze
  6
HIDDEN2
 62
     7
100
AcDbLine
 10
441.2476893138
 20
312.4615359613
 30
0.0
 11
465.9225749612
 21
312.4615359613
 31
0.0
  0
LINE
  5
CB
330
1F
100
AcDbEntity
  8
pomocnicze
  6
HIDDEN2
 62
     7
100
AcDbLine
 10
465.9225749612
 20
312.4615359613
 30
0.0
 11
465.9225749612
 21
344.4615359613
 31
0.0
  0
LINE
  5
CC
330
1F
100
AcDbEntity
  8
pomocnicze
  6
HIDDEN2
 62
     7
100
AcDbLine
 10
100.7576076665
 20
94.1014569457
 30
0.0
 11
107.0733971402
 21
94.1014569457
 31
0.0
  0
LINE
  5
CD
330
1F
100
AcDbEntity
  8
pomocnicze
  6
HIDDEN2
 62
     7
100
AcDbLine
 10
107.0733971402
 20
94.1014569457
 30
0.0
 11
64.4418181928
 21
94.1014569457
 31
0.0
  0
LINE
  5
CE
330
1F
100
AcDbEntity
  8
pomocnicze
  6
HIDDEN2
 62
     7
100
AcDbLine
 10
80.7576076665
 20
145.1014569457
 30
0.0
 11
103.0470813507
 21
145.1014569457
 31
0.0
  0
LINE
  5
CF
330
1F
100
AcDbEntity
  8
pomocnicze
  6
HIDDEN2
 62
     7
100
AcDbLine
 10
103.0470813507
 20
145.1014569457
 30
0.0
 11
68.4681339823
 21
145.1014569457
 31
0.0
  0
LINE
  5
D0
330
1F
100
AcDbEntity
  8
pomocnicze
  6
Continuous
 62
     7
100
AcDbLine
 10
516.1763420669
 20
79.5723828573
 30
0.0
 11
516.1763420669
 21
92.5723828573
 31
0.0
  0
LINE
  5
D1
330
1F
100
AcDbEntity
  8
pomocnicze
  6
Continuous
 62
     7
100
AcDbLine
 10
516.1763420669
 20
92.5723828573
 30
0.0
 11
529.1763420669
 21
92.5723828573
 31
0.0
  0
DIMENSION
  5
E6
330
1F
100
AcDbEntity
  8
pomocnicze
  6
Continuous
 62
     7
100
AcDbDimension
  2
DMBLK1
 10
63.2576076665
 20
286.8634706804
 30
0.0
 11
53.2429628426
 21
286.8634706804
 31
0.0
 70
   161
  1
\A1;<>
 71
     5
 42
-1.0
 73
     0
 74
     0
 75
     0
  3
ISO
100
AcDbAlignedDimension
 13
63.2576076665
 23
279.7949307108
 33
0.0
 14
84.2576076665
 24
279.7949307108
 34
0.0
  0
DIMENSION
  5
F0
330
1F
100
AcDbEntity
  8
pomocnicze
  6
Continuous
 62
     7
100
AcDbDimension
  2
DMBLK2
 10
46.0372651347
 20
227.7949307108
 30
0.0
 11
46.0372651347
 21
253.7949312472
 31
0.0
 70
   161
  1
\A1;<>
 71
     5
 42
-1.0
 73
     0
 74
     0
 75
     0
  3
ISO
100
AcDbAlignedDimension
 13
63.2576076665
 23
227.7949307108
 33
0.0
 14
63.2576076665
 24
279.7949307108
 34
0.0
  0
DIMENSION
  5
FA
330
1F
100
AcDbEntity
  8
pomocnicze
  6
Continuous
 62
     7
100
AcDbDimension
  2
DMBLK3
 10
99.3351222137
 20
290.7992370867
 30
0.0
 11
81.2963650683
 21
290.7992370867
 31
0.0
 70
   161
  1
\A1;\L36,00000000\l
 71
     5
 42
-1.0
 73
     0
 74
     0
 75
     0
  3
ISO
100
AcDbAlignedDimension
 13
99.3351222137
 23
279.7949307108
 33
0.0
 14
63.2576076665
 24
279.7949307108
 34
0.0
  0
DIMENSION
  5
105
330
1F
100
AcDbEntity
  8
pomocnicze
  6
Continuous
 62
     7
100
AcDbDimension
  2
DMBLK4
 10
538.6763420669
 20
216.6887907305
 30
0.0
 11
518.1763415007
 21
216.6887907305
 31
0.0
 70
   161
  1
\A1;<>
 71
     5
 42
-1.0
 73
     0
 74
     0
 75
     0
  3
ISO
100
AcDbAlignedDimension
 13
538.6763420669
 23
227.7949307108
 33
0.0
 14
497.6763420669
 24
227.7949307108
 34
0.0
  0
DIMENSION
  5
10F
330
1F
100
AcDbEntity
  8
pomocnicze
  6
Continuous
 62
     7
100
AcDbDimension
  2
DMBLK5
 10
507.9148144392
 20
227.7949307108
 30
0.0
 11
507.9148144392
 21
231.2949308188
 31
0.0
 70
   161
  1
\A1;<>
 71
     5
 42
-1.0
 73
     0
 74
     0
 75
     0
  3
ISO
100
AcDbAlignedDimension
 13
497.6763420669
 23
227.7949307108
 33
0.0
 14
497.6763420669
 24
234.7949307108
 34
0.0
  0
DIMENSION
  5
119
330
1F
100
AcDbEntity
  8
pomocnicze
  6
Continuous
 62
     7
100
AcDbDimension
  2
DMBLK6
 10
220.6260895352
 20
335.4132572869
 30
0.0
 11
341.1260878663
 21
335.4132572869
 31
0.0
 70
   161
  1
\A1;\L240,00000000\l
 71
     5
 42
-1.0
 73
     0
 74
     0
 75
     0
  3
ISO
100
AcDbAlignedDimension
 13
220.6260895352
 23
317.4615359613
 33
0.0
 14
461.6260895352
 24
317.4615359613
 34
0.0
  0
DIMENSION
  5
124
330
1F
100
AcDbEntity
  8
pomocnicze
  6
Continuous
 62
     7
100
AcDbDimension
  2
DMBLK7
 10
63.2576076665
 20
371.6373894357
 30
0.0
 11
300.9669809022
 21
371.6373894357
 31
0.0
 70
   161
  1
\A1;\L475,00000000\l
 71
     5
 42
-1.0
 73
     0
 74
     0
 75
     0
  3
ISO
100
AcDbAlignedDimension
 13
63.2576076665
 23
227.7949307108
 33
0.0
 14
538.6763420669
 24
227.7949307108
 34
0.0
  0
DIMENSION
  5
12F
330
1F
100
AcDbEntity
  8
pomocnicze
  6
Continuous
 62
     7
100
AcDbDimension
  2
DMBLK8
 10
146.6008600874
 20
335.5843153903
 30
0.0
 11
178.6134741824
 21
335.5843153903
 31
0.0
 70
   160
  1
\A1;\L64,00000000\l
 71
     5
 42
-1.0
 73
     0
 74
     0
 75
     0
  3
ISO
100
AcDbAlignedDimension
 13
210.6260895352
 23
327.4615359613
 33
0.0
 14
146.6008600874
 24
327.4615359613
 34
0.0
100
AcDbRotatedDimension
  0
DIMENSION
  5
13A
330
1F
100
AcDbEntity
  8
pomocnicze
  6
Continuous
 62
     7
100
AcDbDimension
  2
DMBLK9
 10
220.6260895352
 20
335.811285221
 30
0.0
 11
215.6260894235
 21
335.811285221
 31
0.0
 70
   160
  1
\A1;<>
 71
     5
 42
-1.0
 73
     0
 74
     0
 75
     0
  3
ISO
100
AcDbAlignedDimension
 13
210.6260895352
 23
327.4615359613
 33
0.0
 14
220.6260895352
 24
317.4615359613
 34
0.0
100
AcDbRotatedDimension
  0
DIMENSION
  5
144
330
1F
100
AcDbEntity
  8
pomocnicze
  6
Continuous
 62
     7
100
AcDbDimension
  2
DMBLK10
 10
538.6763420669
 20
335.4848145256
 30
0.0
 11
500.1512164097
 21
335.4848145256
 31
0.0
 70
   160
  1
\A1;\L77,00000000\l
 71
     5
 42
-1.0
 73
     0
 74
     0
 75
     0
  3
ISO
100
AcDbAlignedDimension
 13
461.6260895352
 23
317.4615359613
 33
0.0
 14
538.6763420669
 24
227.7949307108
 34
0.0
100
AcDbRotatedDimension
  0
DIMENSION
  5
14F
330
1F
100
AcDbEntity
  8
pomocnicze
  6
Continuous
 62
     7
100
AcDbDimension
  2
DMBLK11
 10
63.2576076665
 20
335.9281159127
 30
0.0
 11
104.9292338176
 21
335.9281159127
 31
0.0
 70
   160
  1
\A1;\L84,00000000\l
 71
     5
 42
-1.0
 73
     0
 74
     0
 75
     0
  3
ISO
100
AcDbAlignedDimension
 13
146.6008600874
 23
327.4615359613
 33
0.0
 14
63.2576076665
 24
279.7949307108
 34
0.0
100
AcDbRotatedDimension
  0
DIMENSION
  5
15A
330
1F
100
AcDbEntity
  8
pomocnicze
  6
Continuous
 62
     7
100
AcDbDimension
  2
DMBLK12
 10
493.6763420669
 20
71.3039056044
 30
0.0
 11
516.1763411729
 21
71.3039056044
 31
0.0
 70
   160
  1
\A1;<>
 71
     5
 42
-1.0
 73
     0
 74
     0
 75
     0
  3
ISO
100
AcDbAlignedDimension
 13
538.6763420669
 23
79.1014569457
 33
0.0
 14
493.6763420669
 24
79.1014569457
 34
0.0
100
AcDbRotatedDimension
  0
DIMENSION
  5
164
330
1F
100
AcDbEntity
  8
pomocnicze
  6
Continuous
 62
     7
100
AcDbDimension
  2
DMBLK13
 10
501.1763420669
 20
182.519165745
 30
0.0
 11
516.1763417316
 21
182.519165745
 31
0.0
 70
   161
  1
\A1;<>
 71
     5
 42
-1.0
 73
     0
 74
     0
 75
     0
  3
ISO
100
AcDbAlignedDimension
 13
501.1763420669
 23
174.1014569457
 33
0.0
 14
531.1763420669
 24
174.1014569457
 34
0.0
  0
DIMENSION
  5
16E
330
1F
100
AcDbEntity
  8
pomocnicze
  6
Continuous
 62
     7
100
AcDbDimension
  2
DMBLK14
 10
475.8741852609
 20
79.1014569457
 30
0.0
 11
475.8741852609
 21
126.6014575418
 31
0.0
 70
   160
  1
\A1;<>
 71
     5
 42
-1.0
 73
     0
 74
     0
 75
     0
  3
ISO
100
AcDbAlignedDimension
 13
501.1763420669
 23
174.1014569457
 33
0.0
 14
493.6763420669
 24
79.1014569457
 34
0.0
 50
90.0
100
AcDbRotatedDimension
  0
DIMENSION
  5
178
330
1F
100
AcDbEntity
  8
pomocnicze
  6
Continuous
 62
     7
100
AcDbDimension
  2
DMBLK15
 10
501.1763420669
 20
149.6085281874
 30
0.0
 11
506.1763419552
 21
149.6085281874
 31
0.0
 70
   161
  1
\A1;<>
 71
     5
 42
-1.0
 73
     0
 74
     0
 75
     0
  3
ISO
100
AcDbAlignedDimension
 13
501.1763420669
 23
174.1014569457
 33
0.0
 14
511.1763420669
 24
174.1014569457
 34
0.0
  0
DIMENSION
  5
182
330
1F
100
AcDbEntity
  8
pomocnicze
  6
Continuous
 62
     7
100
AcDbDimension
  2
DMBLK16
 10
511.1763420669
 20
149.6085278522
 30
0.0
 11
516.1763419552
 21
149.6085278522
 31
0.0
 70
   161
  1
\A1;<>
 71
     5
 42
-1.0
 73
     0
 74
     0
 75
     0
  3
ISO
100
AcDbAlignedDimension
 13
511.1763420669
 23
159.1014569457
 33
0.0
 14
521.1763420669
 24
159.1014569457
 34
0.0
  0
DIMENSION
  5
18C
330
1F
100
AcDbEntity
  8
pomocnicze
  6
Continuous
 62
     7
100
AcDbDimension
  2
DMBLK17
 10
516.1763420669
 20
82.2770771682
 30
0.0
 11
504.926342514
 21
82.2770771682
 31
0.0
 70
   160
  1
\A1;<>
 71
     5
 42
-1.0
 73
     0
 74
     0
 75
     0
  3
ISO
100
AcDbAlignedDimension
 13
493.6763420669
 23
79.1014569457
 33
0.0
 14
516.1763420669
 24
67.0700926625
 34
0.0
100
AcDbRotatedDimension
  0
DIMENSION
  5
195
330
1F
100
AcDbEntity
  8
pomocnicze
  6
Continuous
 62
     7
100
AcDbDimension
  2
DMBLK18
 10
501.1763420669
 20
177.2072457383
 30
0.0
 11
508.6763422346
 21
177.2072457383
 31
0.0
 70
   160
  1
\A1;<>
 71
     5
 42
-1.0
 73
     0
 74
     0
 75
     0
  3
ISO
100
AcDbAlignedDimension
 13
516.1763420669
 23
164.6671577031
 33
0.0
 14
501.1763420669
 24
174.1014569457
 34
0.0
100
AcDbRotatedDimension
  0
DIMENSION
  5
19F
330
1F
100
AcDbEntity
  8
pomocnicze
  6
Continuous
 62
     7
100
AcDbDimension
  2
DMBLK19
 10
501.1763420669
 20
174.1014569457
 30
0.0
 11
497.9742583501
 21
188.1513938469
 31
0.0
 70
   162
  1
\A1;<>
 71
     5
 42
-1.0
 73
     0
 74
     0
 75
     0
  3
ISO
100
AcDb2LineAngularDimension
 13
493.6763420669
 23
79.1014569457
 33
0.0
 14
493.6763420669
 24
190.513357195
 34
0.0
 15
493.6763420669
 25
79.1014569457
 35
0.0
 16
497.9742583501
 26
188.1513938469
 36
0.0
1001
ACAD
1000
DSTYLE
1002
{
1070
   172
1070
     0
1070
     0
1002
}
  0
DIMENSION
  5
1A9
330
1F
100
AcDbEntity
  8
pomocnicze
  6
Continuous
 62
     7
100
AcDbDimension
  2
DMBLK20
 10
467.7534339494
 20
311.4758442865
 30
0.0
 11
472.9943582736
 21
316.8407962633
 31
0.0
 70
   161
  1
\A1;<>
 71
     5
 42
-1.0
 73
     0
 74
     0
 75
     0
  3
ISO
100
AcDbAlignedDimension
 13
461.6260895352
 23
317.4615359613
 33
0.0
 14
472.107938418
 24
328.1914401547
 34
0.0
  0
DIMENSION
  5
1B3
330
1F
100
AcDbEntity
  8
pomocnicze
  6
Continuous
 62
     7
100
AcDbDimension
  2
DMBLK21
 10
546.1425315677
 20
220.501345543
 30
0.0
 11
554.0039185421
 21
228.5487740078
 31
0.0
 70
   161
  1
\A1;<>
 71
     5
 42
-1.0
 73
     0
 74
     0
 75
     0
  3
ISO
100
AcDbAlignedDimension
 13
538.6763420669
 23
227.7949307108
 33
0.0
 14
554.399115391
 24
243.8897870009
 34
0.0
  0
DIMENSION
  5
1BD
330
1F
100
AcDbEntity
  8
pomocnicze
  6
Continuous
 62
     7
100
AcDbDimension
  2
DMBLK22
 10
554.399115391
 20
243.8897870009
 30
0.0
 11
539.2064744457
 21
244.3980566463
 31
0.0
 70
   162
  1
\A1;<>
 71
     5
 42
-1.0
 73
     0
 74
     0
 75
     0
  3
ISO
100
AcDb2LineAngularDimension
 13
538.6763420669
 23
227.7949307108
 33
0.0
 14
461.6260895352
 24
317.4615359613
 34
0.0
 15
538.6763420669
 25
227.7949307108
 35
0.0
 16
539.2064744457
 26
244.3980566463
 36
0.0
1001
ACAD
1000
DSTYLE
1002
{
1070
   172
1070
     0
1070
     0
1002
}
  0
DIMENSION
  5
1C5
330
1F
100
AcDbEntity
  8
pomocnicze
  6
Continuous
 62
     7
100
AcDbDimension
  2
DMBLK23
 10
74.2860625887
 20
227.7949307108
 30
0.0
 11
74.2860625887
 21
246.1922364793
 31
0.0
 70
   160
  1
\A1;\L37,00000000\l
 71
     5
 42
-1.0
 73
     0
 74
     0
 75
     0
  3
ISO
100
AcDbAlignedDimension
 13
84.2576076665
 23
264.5895416401
 33
0.0
 14
66.6763420669
 24
227.7949307108
 34
0.0
 50
90.0
100
AcDbRotatedDimension
  0
DIMENSION
  5
1CF
330
1F
100
AcDbEntity
  8
pomocnicze
  6
Continuous
 62
     7
100
AcDbDimension
  2
DMBLK24
 10
542.1387136696
 20
164.1014569457
 30
0.0
 11
542.1387136696
 21
169.1014570575
 31
0.0
 70
   160
  1
\A1;<>
 71
     5
 42
-1.0
 73
     0
 74
     0
 75
     0
  3
ISO
100
AcDbAlignedDimension
 13
526.1763420669
 23
174.1014569457
 33
0.0
 14
526.571078909
 24
164.1014569457
 34
0.0
 50
90.0
100
AcDbRotatedDimension
  0
DIMENSION
  5
1D9
330
1F
100
AcDbEntity
  8
pomocnicze
  6
Continuous
 62
     7
100
AcDbDimension
  2
DMBLK25
 10
542.138714095
 20
159.1014569457
 30
0.0
 11
542.138714095
 21
161.6014570016
 31
0.0
 70
   160
  1
\A1;<>
 71
     5
 42
-1.0
 73
     0
 74
     0
 75
     0
  3
ISO
100
AcDbAlignedDimension
 13
526.571078909
 23
164.1014569457
 33
0.0
 14
511.1763420669
 24
159.1014569457
 34
0.0
 50
90.0
100
AcDbRotatedDimension
  0
DIMENSION
  5
1E3
330
1F
100
AcDbEntity
  8
pomocnicze
  6
Continuous
 62
     7
100
AcDbDimension
  2
DMBLK26
 10
63.2576076665
 20
61.1279966887
 30
0.0
 11
85.7576085606
 21
61.1279966887
 31
0.0
 70
   161
  1
\A1;<>
 71
     5
 42
-1.0
 73
     0
 74
     0
 75
     0
  3
ISO
100
AcDbAlignedDimension
 13
63.2576076665
 23
79.1014569457
 33
0.0
 14
108.2576076665
 24
79.1014569457
 34
0.0
  0
DIMENSION
  5
1ED
330
1F
100
AcDbEntity
  8
pomocnicze
  6
Continuous
 62
     7
100
AcDbDimension
  2
DMBLK27
 10
31.7576071599
 20
174.1014569457
 30
0.0
 11
31.7576071599
 21
126.6014563497
 31
0.0
 70
   160
  1
\A1;<>
 71
     5
 42
-1.0
 73
     0
 74
     0
 75
     0
  3
ISO
100
AcDbAlignedDimension
 13
63.2576076665
 23
79.1014569457
 33
0.0
 14
75.7576076665
 24
174.1014569457
 34
0.0
 50
90.0
100
AcDbRotatedDimension
  0
DIMENSION
  5
1F7
330
1F
100
AcDbEntity
  8
pomocnicze
  6
Continuous
 62
     7
100
AcDbDimension
  2
DMBLK28
 10
52.7576078081
 20
116.1014569457
 30
0.0
 11
52.7576078081
 21
97.6014571841
 31
0.0
 70
   160
  1
\A1;<>
 71
     5
 42
-1.0
 73
     0
 74
     0
 75
     0
  3
ISO
100
AcDbAlignedDimension
 13
63.2576076665
 23
79.1014569457
 33
0.0
 14
66.1786602981
 24
116.1014569457
 34
0.0
 50
90.0
100
AcDbRotatedDimension
  0
DIMENSION
  5
201
330
1F
100
AcDbEntity
  8
pomocnicze
  6
Continuous
 62
     7
100
AcDbDimension
  2
DMBLK29
 10
47.7436650896
 20
131.1014569457
 30
0.0
 11
47.7436650896
 21
105.1014574822
 31
0.0
 70
   160
  1
\A1;<>
 71
     5
 42
-1.0
 73
     0
 74
     0
 75
     0
  3
ISO
100
AcDbAlignedDimension
 13
63.2576076665
 23
79.1014569457
 33
0.0
 14
67.3628708244
 24
131.1014569457
 34
0.0
 50
90.0
100
AcDbRotatedDimension
  0
DIMENSION
  5
20B
330
1F
100
AcDbEntity
  8
pomocnicze
  6
Continuous
 62
     7
100
AcDbDimension
  2
DMBLK30
 10
100.7576076665
 20
180.5299682682
 30
0.0
 11
93.2576074989
 21
180.5299682682
 31
0.0
 70
   160
  1
\A1;<>
 71
     5
 42
-1.0
 73
     0
 74
     0
 75
     0
  3
ISO
100
AcDbAlignedDimension
 13
85.7576076665
 23
187.6227780384
 33
0.0
 14
100.7576076665
 24
174.1014569457
 34
0.0
100
AcDbRotatedDimension
  0
DIMENSION
  5
214
330
1F
100
AcDbEntity
  8
pomocnicze
  6
Continuous
 62
     7
100
AcDbDimension
  2
DMBLK31
 10
85.7576076665
 20
138.8242454361
 30
0.0
 11
122.0887210944
 21
138.8242454361
 31
0.0
 70
   161
  1
\A1;<>
 71
     5
 42
-1.0
 73
     0
 74
     0
 75
     0
  3
ISO
100
AcDbAlignedDimension
 13
85.7576076665
 23
131.1014569457
 33
0.0
 14
104.1523445086
 24
131.1014569457
 34
0.0
  0
DIMENSION
  5
21D
330
1F
100
AcDbEntity
  8
pomocnicze
  6
Continuous
 62
     7
100
AcDbDimension
  2
DMBLK32
 10
136.9109986783
 20
338.9117143823
 30
0.0
 11
135.2111889788
 21
327.9108352508
 31
0.0
 70
   162
  1
\A1;<>
 71
     5
 42
-1.0
 73
     0
 74
     0
 75
     0
  3
ISO
100
AcDb2LineAngularDimension
 13
146.6008600874
 23
327.4615359613
 33
0.0
 14
99.3351222137
 24
279.7949307108
 34
0.0
 15
146.6008600874
 25
327.4615359613
 35
0.0
 16
135.2111889788
 26
327.9108352508
 36
0.0
1001
ACAD
1000
DSTYLE
1002
{
1070
   172
1070
     0
1070
     0
1002
}
  0
DIMENSION
  5
225
330
1F
100
AcDbEntity
  8
pomocnicze
  6
Continuous
 62
     7
100
AcDbDimension
  2
DMBLK33
 10
98.2811054031
 20
278.9029553684
 30
0.0
 11
78.4105225618
 21
302.383344742
 31
0.0
 70
   161
  1
\A1;<>
 71
     5
 42
-1.0
 73
     0
 74
     0
 75
     0
  3
ISO
100
AcDbAlignedDimension
 13
99.3351222137
 23
279.7949307108
 33
0.0
 14
87.4553521262
 24
293.8328494549
 34
0.0
  0
DIMENSION
  5
22F
330
1F
100
AcDbEntity
  8
pomocnicze
  6
Continuous
 62
     7
100
AcDbDimension
  2
DMBLK34
 10
147.7275109492
 20
328.4149788079
 30
0.0
 11
132.3521941025
 21
346.5834658213
 31
0.0
 70
   161
  1
\A1;<>
 71
     5
 42
-1.0
 73
     0
 74
     0
 75
     0
  3
ISO
100
AcDbAlignedDimension
 13
146.6008600874
 23
327.4615359613
 33
0.0
 14
136.9109986783
 24
338.9117143823
 34
0.0
  0
DIMENSION
  5
239
330
1F
100
AcDbEntity
  8
pomocnicze
  6
Continuous
 62
     7
100
AcDbDimension
  2
DMBLK35
 10
40.7576076665
 20
282.3068259725
 30
0.0
 11
52.0076072195
 21
282.3068259725
 31
0.0
 70
   160
  1
\A1;<>
 71
     5
 42
-1.0
 73
     0
 74
     0
 75
     0
  3
ISO
100
AcDbAlignedDimension
 13
63.2576076665
 23
279.7949307108
 33
0.0
 14
40.7576076665
 24
279.7949307108
 34
0.0
100
AcDbRotatedDimension
  0
DIMENSION
  5
243
330
1F
100
AcDbEntity
  8
pomocnicze
  6
Continuous
 62
     7
100
AcDbDimension
  2
DMBLK36
 10
137.6320581404
 20
217.7949307108
 30
0.0
 11
137.6320581404
 21
204.6237405383
 31
0.0
 70
   160
  1
\A1;<>
 71
     5
 42
-1.0
 73
     0
 74
     0
 75
     0
  3
ISO
100
AcDbAlignedDimension
 13
66.6763420669
 23
227.7949307108
 33
0.0
 14
63.2576076665
 24
217.7949307108
 34
0.0
 50
90.0
100
AcDbRotatedDimension
  0
DIMENSION
  5
24B
330
1F
100
AcDbEntity
  8
pomocnicze
  6
Continuous
 62
     7
100
AcDbDimension
  2
DMBLK37
 10
366.7340384637
 20
232.0789412086
 30
0.0
 11
376.7340386872
 21
232.0789412086
 31
0.0
 70
   160
  1
\A1;<>
 71
     5
 42
-1.0
 73
     0
 74
     0
 75
     0
  3
ISO
100
AcDbAlignedDimension
 13
386.7340384637
 23
279.1512437587
 33
0.0
 14
366.7340384637
 24
243.1512437587
 34
0.0
100
AcDbRotatedDimension
  0
DIMENSION
  5
255
330
1F
100
AcDbEntity
  8
pomocnicze
  6
Continuous
 62
     7
100
AcDbDimension
  2
DMBLK38
 10
181.7340384637
 20
287.4915204061
 30
0.0
 11
316.7340438281
 21
287.4915204061
 31
0.0
 70
   161
  1
\A1;<>
 71
     5
 42
-1.0
 73
     0
 74
     0
 75
     0
  3
ISO
100
AcDbAlignedDimension
 13
181.7340384637
 23
294.1512437587
 33
0.0
 14
451.7340384637
 24
294.1512437587
 34
0.0
  0
DIMENSION
  5
25F
330
1F
100
AcDbEntity
  8
pomocnicze
  6
Continuous
 62
     7
100
AcDbDimension
  2
DMBLK39
 10
386.7340384637
 20
268.0971181442
 30
0.0
 11
419.2340396558
 21
268.0971181442
 31
0.0
 70
   160
  1
\A1;<>
 71
     5
 42
-1.0
 73
     0
 74
     0
 75
     0
  3
ISO
100
AcDbAlignedDimension
 13
451.7340384637
 23
279.1512437587
 33
0.0
 14
386.7340384637
 24
279.1512437587
 34
0.0
100
AcDbRotatedDimension
  0
DIMENSION
  5
269
330
1F
100
AcDbEntity
  8
pomocnicze
  6
Continuous
 62
     7
100
AcDbDimension
  2
DMBLK40
 10
465.7938726459
 20
279.1512437587
 30
0.0
 11
465.7938726459
 21
286.6512439263
 31
0.0
 70
   160
  1
\A1;<>
 71
     5
 42
-1.0
 73
     0
 74
     0
 75
     0
  3
ISO
100
AcDbAlignedDimension
 13
451.7340384637
 23
294.1512437587
 33
0.0
 14
386.7340384637
 24
279.1512437587
 34
0.0
 50
90.0
100
AcDbRotatedDimension
  0
DIMENSION
  5
273
330
1F
100
AcDbEntity
  8
pomocnicze
  6
Continuous
 62
     7
100
AcDbDimension
  2
DMBLK41
 10
210.896015114
 20
294.1512437587
 30
0.0
 11
210.896015114
 21
268.6512442355
 31
0.0
 70
   161
  1
\A1;<>
 71
     5
 42
-1.0
 73
     0
 74
     0
 75
     0
  3
ISO
100
AcDbAlignedDimension
 13
181.7340384637
 23
294.1512437587
 33
0.0
 14
181.7340384637
 24
243.1512437587
 34
0.0
  0
DIMENSION
  5
27B
330
1F
100
AcDbEntity
  8
pomocnicze
  6
Continuous
 62
     7
100
AcDbDimension
  2
DMBLK42
 10
181.7340384637
 20
233.1871939649
 30
0.0
 11
274.2340372716
 21
233.1871939649
 31
0.0
 70
   160
  1
\A1;<>
 71
     5
 42
-1.0
 73
     0
 74
     0
 75
     0
  3
ISO
100
AcDbAlignedDimension
 13
366.7340384637
 23
243.1512437587
 33
0.0
 14
181.7340384637
 24
243.1512437587
 34
0.0
100
AcDbRotatedDimension
  0
DIMENSION
  5
285
330
1F
100
AcDbEntity
  8
pomocnicze
  6
Continuous
 62
     7
100
AcDbDimension
  2
DMBLK43
 10
181.7340384637
 20
233.1871939649
 30
0.0
 11
167.5673713376
 21
233.1871939649
 31
0.0
 70
   161
  1
\A1;<>
 71
     5
 42
-1.0
 73
     0
 74
     0
 75
     0
  3
ISO
100
AcDbAlignedDimension
 13
181.7340384637
 23
243.1512437587
 33
0.0
 14
153.4007051303
 24
243.1512437587
 34
0.0
  0
DIMENSION
  5
28F
330
1F
100
AcDbEntity
  8
pomocnicze
  6
Continuous
 62
     7
100
AcDbDimension
  2
DMBLK44
 10
386.7340384637
 20
279.1512437587
 30
0.0
 11
393.3545507726
 21
258.8148423533
 31
0.0
 70
   162
  1
\A1;<>
 71
     5
 42
-1.0
 73
     0
 74
     0
 75
     0
  3
ISO
100
AcDb2LineAngularDimension
 13
366.7340384637
 23
243.1512437587
 33
0.0
 14
366.7440384637
 24
243.1512437587
 34
0.0
 15
366.7340384637
 25
243.1512437587
 35
0.0
 16
393.3545507726
 26
258.8148423533
 36
0.0
1001
ACAD
1000
DSTYLE
1002
{
1070
   172
1070
     0
1070
     0
1002
}
  0
DIMENSION
  5
298
330
1F
100
AcDbEntity
  8
pomocnicze
  6
Continuous
 62
     7
100
AcDbDimension
  2
DMBLK45
 10
125.0587198351
 20
227.7949307108
 30
0.0
 11
125.0587198351
 21
235.4730870401
 31
0.0
 70
   160
  1
\A1;\L15,00000000\l
 71
     5
 42
-1.0
 73
     0
 74
     0
 75
     0
  3
ISO
100
AcDbAlignedDimension
 13
181.7340384637
 23
243.1512437587
 33
0.0
 14
303.2118759729
 24
227.7949307108
 34
0.0
 50
90.0
100
AcDbRotatedDimension
  0
DIMENSION
  5
2A2
330
1F
100
AcDbEntity
  8
pomocnicze
  6
Continuous
 62
     7
100
AcDbDimension
  2
DMBLK46
 10
153.4007051303
 20
252.3618977511
 30
0.0
 11
118.8291547277
 21
252.3618977511
 31
0.0
 70
   160
  1
\A1;<>
 71
     5
 42
-1.0
 73
     0
 74
     0
 75
     0
  3
ISO
100
AcDbAlignedDimension
 13
84.2576076665
 23
227.7949307108
 33
0.0
 14
153.4007051303
 24
243.1512437587
 34
0.0
100
AcDbRotatedDimension
  0
DIMENSION
  5
2AB
330
1F
100
AcDbEntity
  8
pomocnicze
  6
Continuous
 62
     7
100
AcDbDimension
  2
DMBLK47
 10
538.6763420669
 20
203.1555287366
 30
0.0
 11
452.7051927362
 21
203.1555287366
 31
0.0
 70
   160
  1
\A1;<>
 71
     5
 42
-1.0
 73
     0
 74
     0
 75
     0
  3
ISO
100
AcDbAlignedDimension
 13
366.7340384637
 23
243.1512437587
 33
0.0
 14
538.6763420669
 24
227.7949307108
 34
0.0
100
AcDbRotatedDimension
  0
DIMENSION
  5
2B5
330
1F
100
AcDbEntity
  8
pomocnicze
  6
Continuous
 62
     7
100
AcDbDimension
  2
DMBLK48
 10
366.7340384637
 20
257.0608847151
 30
0.0
 11
333.2658243242
 21
257.0608847151
 31
0.0
 70
   160
  1
\A1;<>
 71
     5
 42
-1.0
 73
     0
 74
     0
 75
     0
  3
ISO
100
AcDbAlignedDimension
 13
299.7976076665
 23
254.844381691
 33
0.0
 14
366.7340384637
 24
243.1512437587
 34
0.0
100
AcDbRotatedDimension
  0
DIMENSION
  5
2BF
330
1F
100
AcDbEntity
  8
pomocnicze
  6
Continuous
 62
     7
100
AcDbDimension
  2
DMBLK49
 10
554.399115391
 20
201.0941807174
 30
0.0
 11
546.5377290515
 21
201.0941807174
 31
0.0
 70
   160
  1
\A1;<>
 71
     5
 42
-1.0
 73
     0
 74
     0
 75
     0
  3
ISO
100
AcDbAlignedDimension
 13
538.6763420669
 23
227.7949307108
 33
0.0
 14
554.399115391
 24
243.8897870009
 34
0.0
100
AcDbRotatedDimension
  0
DIMENSION
  5
2C9
330
1F
100
AcDbEntity
  8
pomocnicze
  6
Continuous
 62
     7
100
AcDbDimension
  2
DMBLK50
 10
497.6763420669
 20
227.7949307108
 30
0.0
 11
495.0881357665
 21
247.8099228981
 31
0.0
 70
   162
  1
\A1;<>
 71
     5
 42
-1.0
 73
     0
 74
     0
 75
     0
  3
ISO
100
AcDb2LineAngularDimension
 13
538.6763420669
 23
227.7949307108
 33
0.0
 14
461.6260895352
 24
317.4615359613
 34
0.0
 15
538.6763420669
 25
227.7949307108
 35
0.0
 16
495.0881357665
 26
247.8099228981
 36
0.0
1001
ACAD
1000
DSTYLE
1002
{
1070
   172
1070
     0
1070
     0
1002
}
  0
DIMENSION
  5
2D2
330
1F
100
AcDbEntity
  8
pomocnicze
  6
Continuous
 62
     7
100
AcDbDimension
  2
DMBLK51
 10
428.9265045647
 20
177.7358820587
 30
0.0
 11
443.1370304649
 21
177.7358820587
 31
0.0
 70
   161
  1
\A1;<>
 71
     5
 42
-1.0
 73
     0
 74
     0
 75
     0
  3
ISO
100
AcDbAlignedDimension
 13
428.9265045647
 23
174.1014569457
 33
0.0
 14
457.3475571963
 24
174.1014569457
 34
0.0
  0
DIMENSION
  5
2DC
330
1F
100
AcDbEntity
  8
pomocnicze
  6
Continuous
 62
     7
100
AcDbDimension
  2
DMBLK52
 10
499.9921315406
 20
125.9748754855
 30
0.0
 11
516.1763423179
 21
125.9748754855
 31
0.0
 70
   161
  1
\A1;<>
 71
     5
 42
-1.0
 73
     0
 74
     0
 75
     0
  3
ISO
100
AcDbAlignedDimension
 13
499.9921315406
 23
159.1014569457
 33
0.0
 14
532.3605525932
 24
159.1014569457
 34
0.0
  0
DIMENSION
  5
2E6
330
1F
100
AcDbEntity
  8
pomocnicze
  6
Continuous
 62
     7
100
AcDbDimension
  2
DMBLK53
 10
33.8544148178
 20
217.7949307108
 30
0.0
 11
33.8544148178
 21
281.1282332251
 31
0.0
 70
   160
  1
\A1;<>
 71
     5
 42
-1.0
 73
     0
 74
     0
 75
     0
  3
ISO
100
AcDbAlignedDimension
 13
131.7270073266
 23
344.4615359613
 33
0.0
 14
63.2576076665
 24
217.7949307108
 34
0.0
 50
90.0
100
AcDbRotatedDimension
  0
DIMENSION
  5
2F0
330
1F
100
AcDbEntity
  8
pomocnicze
  6
Continuous
 62
     7
100
AcDbDimension
  2
DMBLK54
 10
145.566173938
 20
227.7949307108
 30
0.0
 11
145.566173938
 21
270.1282348046
 31
0.0
 70
   160
  1
\A1;<>
 71
     5
 42
-1.0
 73
     0
 74
     0
 75
     0
  3
ISO
100
AcDbAlignedDimension
 13
131.7270073266
 23
312.4615359613
 33
0.0
 14
63.2576076665
 24
227.7949307108
 34
0.0
 50
90.0
100
AcDbRotatedDimension
  0
DIMENSION
  5
2FA
330
1F
100
AcDbEntity
  8
pomocnicze
  6
Continuous
 62
     7
100
AcDbDimension
  2
DMBLK55
 10
158.4218917766
 20
327.4615359613
 30
0.0
 11
158.4218917766
 21
277.6282321655
 31
0.0
 70
   160
  1
\A1;<>
 71
     5
 42
-1.0
 73
     0
 74
     0
 75
     0
  3
ISO
100
AcDbAlignedDimension
 13
63.2576076665
 23
227.7949307108
 33
0.0
 14
146.6008600874
 24
327.4615359613
 34
0.0
 50
90.0
100
AcDbRotatedDimension
  0
DIMENSION
  5
304
330
1F
100
AcDbEntity
  8
pomocnicze
  6
Continuous
 62
     7
100
AcDbDimension
  2
DMBLK56
 10
68.4681339823
 20
149.6138810608
 30
0.0
 11
85.7576067442
 21
149.6138810608
 31
0.0
 70
   160
  1
\A1;<>
 71
     5
 42
-1.0
 73
     0
 74
     0
 75
     0
  3
ISO
100
AcDbAlignedDimension
 13
103.0470813507
 23
145.1014569457
 33
0.0
 14
68.4681339823
 24
145.1014569457
 34
0.0
100
AcDbRotatedDimension
  0
DIMENSION
  5
30E
330
1F
100
AcDbEntity
  8
pomocnicze
  6
Continuous
 62
     7
100
AcDbDimension
  2
DMBLK57
 10
64.4418181928
 20
101.2941133435
 30
0.0
 11
125.6176463768
 21
101.2941133435
 31
0.0
 70
   160
  1
\A1;<>
 71
     5
 42
-1.0
 73
     0
 74
     0
 75
     0
  3
ISO
100
AcDbAlignedDimension
 13
107.0733971402
 23
94.1014569457
 33
0.0
 14
64.4418181928
 24
94.1014569457
 34
0.0
100
AcDbRotatedDimension
  0
LINE
  5
318
330
1F
100
AcDbEntity
  8
Default
  6
Continuous
 62
     7
100
AcDbLine
 10
10.0
 20
10.0
 30
0.0
 11
584.0
 21
10.0
 31
0.0
  0
LINE
  5
319
330
1F
100
AcDbEntity
  8
Default
  6
Continuous
 62
     7
100
AcDbLine
 10
584.0
 20
10.0
 30
0.0
 11
584.0
 21
410.0
 31
0.0
  0
LINE
  5
31A
330
1F
100
AcDbEntity
  8
Default
  6
Continuous
 62
     7
100
AcDbLine
 10
584.0
 20
410.0
 30
0.0
 11
10.0
 21
410.0
 31
0.0
  0
LINE
  5
31B
330
1F
100
AcDbEntity
  8
Default
  6
Continuous
 62
     7
100
AcDbLine
 10
10.0
 20
410.0
 30
0.0
 11
10.0
 21
10.0
 31
0.0
  0
LINE
  5
31C
330
1F
100
AcDbEntity
  8
Default
  6
Continuous
 62
     7
100
AcDbLine
 10
441.125
 20
10.0
 30
0.0
 11
441.125
 21
60.8
 31
0.0
  0
LINE
  5
31D
330
1F
100
AcDbEntity
  8
Default
  6
Continuous
 62
     7
100
AcDbLine
 10
463.35
 20
32.225
 30
0.0
 11
463.35
 21
60.8
 31
0.0
  0
LINE
  5
31E
330
1F
100
AcDbEntity
  8
Default
  6
Continuous
 62
     7
100
AcDbLine
 10
482.4
 20
32.225
 30
0.0
 11
482.4
 21
60.8
 31
0.0
  0
LINE
  5
31F
330
1F
100
AcDbEntity
  8
Default
  6
Continuous
 62
     7
100
AcDbLine
 10
504.625
 20
10.0
 30
0.0
 11
504.625
 21
60.8
 31
0.0
  0
LINE
  5
320
330
1F
100
AcDbEntity
  8
Default
  6
Continuous
 62
     7
100
AcDbLine
 10
514.15
 20
22.7
 30
0.0
 11
514.15
 21
32.098
 31
0.0
  0
LINE
  5
321
330
1F
100
AcDbEntity
  8
Default
  6
Continuous
 62
     7
100
AcDbLine
 10
526.85
 20
10.0
 30
0.0
 11
526.85
 21
16.35
 31
0.0
  0
LINE
  5
322
330
1F
100
AcDbEntity
  8
Default
  6
Continuous
 62
     7
100
AcDbLine
 10
552.25
 20
10.0
 30
0.0
 11
552.25
 21
16.35
 31
0.0
  0
LINE
  5
323
330
1F
100
AcDbEntity
  8
Default
  6
Continuous
 62
     7
100
AcDbLine
 10
574.348
 20
22.7
 30
0.0
 11
574.348
 21
32.098
 31
0.0
  0
LINE
  5
324
330
1F
100
AcDbEntity
  8
Default
  6
Continuous
 62
     7
100
AcDbLine
 10
441.125
 20
60.8
 30
0.0
 11
584.0
 21
60.8
 31
0.0
  0
LINE
  5
325
330
1F
100
AcDbEntity
  8
Default
  6
Continuous
 62
     7
100
AcDbLine
 10
441.125
 20
55.085
 30
0.0
 11
504.625
 21
55.085
 31
0.0
  0
LINE
  5
326
330
1F
100
AcDbEntity
  8
Default
  6
Continuous
 62
     7
100
AcDbLine
 10
441.125
 20
49.37
 30
0.0
 11
504.625
 21
49.37
 31
0.0
  0
LINE
  5
327
330
1F
100
AcDbEntity
  8
Default
  6
Continuous
 62
     7
100
AcDbLine
 10
504.625
 20
45.052
 30
0.0
 11
584.0
 21
45.052
 31
0.0
  0
LINE
  5
328
330
1F
100
AcDbEntity
  8
Default
  6
Continuous
 62
     7
100
AcDbLine
 10
441.125
 20
43.655
 30
0.0
 11
504.625
 21
43.655
 31
0.0
  0
LINE
  5
329
330
1F
100
AcDbEntity
  8
Default
  6
Continuous
 62
     7
100
AcDbLine
 10
441.125
 20
37.94
 30
0.0
 11
504.625
 21
37.94
 31
0.0
  0
LINE
  5
32A
330
1F
100
AcDbEntity
  8
Default
  6
Continuous
 62
     7
100
AcDbLine
 10
441.125
 20
32.225
 30
0.0
 11
584.0
 21
32.225
 31
0.0
  0
LINE
  5
32B
330
1F
100
AcDbEntity
  8
Default
  6
Continuous
 62
     7
100
AcDbLine
 10
504.625
 20
22.7
 30
0.0
 11
584.0
 21
22.7
 31
0.0
  0
LINE
  5
32C
330
1F
100
AcDbEntity
  8
Default
  6
Continuous
 62
     7
100
AcDbLine
 10
504.625
 20
16.35
 30
0.0
 11
584.0
 21
16.35
 31
0.0
  0
MTEXT
  5
32D
330
1F
100
AcDbEntity
  8
Default
100
AcDbMText
 10
442.649
 20
52.2275
 30
0.0
 40
3.048
 41
20.701
 46
5.715
 71
     4
 72
     1
  1
{\fSolid Edge ISO|b0||i0||c0|p34;\C7;\H3.048;\W1.;DRAWN}
 73
     1
 44
1.0
1001
ACAD
1000
ACAD_MTEXT_DEFINED_HEIGHT_BEGIN
1070
    46
1040
5.715
1000
ACAD_MTEXT_DEFINED_HEIGHT_END
  0
MTEXT
  5
32E
330
1F
100
AcDbEntity
  8
Default
100
AcDbMText
 10
442.649
 20
46.5125
 30
0.0
 40
3.048
 41
20.701
 46
5.715
 71
     4
 72
     1
  1
{\fSolid Edge ISO|b0||i0||c0|p34;\C7;\H3.048;\W1.;CHECKED}
 73
     1
 44
1.0
1001
ACAD
1000
ACAD_MTEXT_DEFINED_HEIGHT_BEGIN
1070
    46
1040
5.715
1000
ACAD_MTEXT_DEFINED_HEIGHT_END
  0
MTEXT
  5
32F
330
1F
100
AcDbEntity
  8
Default
100
AcDbMText
 10
442.649
 20
40.7975
 30
0.0
 40
3.048
 41
20.701
 46
5.715
 71
     4
 72
     1
  1
{\fSolid Edge ISO|b0||i0||c0|p34;\C7;\H3.048;\W1.;ENG APPR}
 73
     1
 44
1.0
1001
ACAD
1000
ACAD_MTEXT_DEFINED_HEIGHT_BEGIN
1070
    46
1040
5.715
1000
ACAD_MTEXT_DEFINED_HEIGHT_END
  0
MTEXT
  5
330
330
1F
100
AcDbEntity
  8
Default
100
AcDbMText
 10
442.649
 20
35.0825
 30
0.0
 40
3.048
 41
20.701
 46
5.715
 71
     4
 72
     1
  1
{\fSolid Edge ISO|b0||i0||c0|p34;\C7;\H3.048;\W1.;MGR APPR}
 73
     1
 44
1.0
1001
ACAD
1000
ACAD_MTEXT_DEFINED_HEIGHT_BEGIN
1070
    46
1040
5.715
1000
ACAD_MTEXT_DEFINED_HEIGHT_END
  0
MTEXT
  5
331
330
1F
100
AcDbEntity
  8
Default
100
AcDbMText
 10
472.875
 20
21.1125
 30
0.0
 40
3.048
 41
63.5
 46
22.225
 71
     5
 72
     1
  3
{\fSolid Edge ISO|b0||i0||c0|p34;\C7;\H3.048;\W1.;UNLESS OTHERWISE SPECIFIED\P}{\fSolid Edge ISO|b0||i0||c0|p34;\C7;\H3.048;\W1.;DIMENSIONS ARE IN MILLIMETERS\P}{\fSolid Edge ISO|b0||i0||c0|p34;\C7;\H3.048;\W1.;ANGLES ±X.X°\P}{\fSolid Edge ISO|b0||i0
  1
||c0|p34;\C7;\H3.048;\W1.;2 PL ±X.XX 3 PL ±X.XXX}
 73
     1
 44
1.0
1001
ACAD
1000
ACAD_MTEXT_DEFINED_HEIGHT_BEGIN
1070
    46
1040
22.225
1000
ACAD_MTEXT_DEFINED_HEIGHT_END
  0
MTEXT
  5
332
330
1F
100
AcDbEntity
  8
Default
100
AcDbMText
 10
472.875
 20
57.9425
 30
0.0
 40
3.048
 41
19.05
 46
5.715
 71
     5
 72
     1
  1
{\fSolid Edge ISO|b0||i0||c0|p34;\C7;\H3.048;\W1.;NAME}
 73
     1
 44
1.0
1001
ACAD
1000
ACAD_MTEXT_DEFINED_HEIGHT_BEGIN
1070
    46
1040
5.715
1000
ACAD_MTEXT_DEFINED_HEIGHT_END
  0
INSERT
  5
334
330
1F
100
AcDbEntity
  8
Default
100
AcDbBlockReference
  2
SEANNOT_GROUP
 10
0.0
 20
0.0
 30
0.0
  0
MULTILEADER
  5
337
330
1F
100
AcDbEntity
  8
Default
  6
Continuous
 62
     7
 92
      232
310
E8000000020000000C00000013000000993A0000D4000000260000001BF4A5B73F1B7D40365EBA490C5A4940000000000000000000000000000000000000000000000000000000000000F03F000000000000F03F00000000000000000000000000000000520065006E006C0065007200000000000600000001000000FCA9F1
310
D24D620840000000000000F03F0000000000000000000000000000F03F00000000000000000000000000000000000000000000000000000000000000002200000053006F006C0069006400200045006400670065002000490053004F00000000000000000000000000
100
AcDbMLeader
300
CONTEXT_DATA{
 40
1.0
 10
463.9408
 20
52.222928
 30
0.0
 41
3.048
140
3.048
145
1.0668
174
     1
175
     1
176
     0
177
     0
290
     1
304
{\pxsm0.9;\fSolid Edge ISO|b0||i0||c0|p34;\W1.;Renler\P}
 11
0.0
 21
0.0
 31
1.0
340
11
 12
465.9408
 22
53.7515
 32
0.0
 13
1.0
 23
0.0
 33
0.0
 42
0.0
 43
0.0
 44
0.0
 45
1.0
170
     1
 90
-1073741824
171
     1
172
     1
 91
-939524096
141
1.5
 92
        0
291
     0
292
     0
173
     0
293
     0
142
0.0
143
0.0
294
     0
295
     0
296
     0
110
0.0
120
0.0
130
0.0
111
1.0
121
0.0
131
0.0
112
0.0
122
1.0
132
0.0
297
     0
301
}
340
6C
 90
 35117985
170
     0
 91
-1056964608
341
14
171
    -2
290
     1
291
     1
 41
0.0
342
D7
 42
4.0
172
     2
343
11
173
     1
 95
        1
174
     1
175
     0
 92
-1073741824
292
     0
 93
-1023410169
 10
1.0
 20
1.0
 30
1.0
 43
0.0
176
     0
293
     0
294
     0
178
     0
179
     1
 45
1.0
1001
ACAD_MLEADERVER
1070
     2
  0
MTEXT
  5
338
330
1F
100
AcDbEntity
  8
Default
100
AcDbMText
 10
493.5125
 20
57.9425
 30
0.0
 40
3.048
 41
22.225
 46
5.715
 71
     5
 72
     1
  1
{\fSolid Edge ISO|b0||i0||c0|p34;\C7;\H3.048;\W1.;DATE}
 73
     1
 44
1.0
1001
ACAD
1000
ACAD_MTEXT_DEFINED_HEIGHT_BEGIN
1070
    46
1040
5.715
1000
ACAD_MTEXT_DEFINED_HEIGHT_END
  0
INSERT
  5
33A
330
1F
100
AcDbEntity
  8
Default
100
AcDbBlockReference
  2
SEANNOT_GROUP1
 10
0.0
 20
0.0
 30
0.0
  0
MULTILEADER
  5
33D
330
1F
100
AcDbEntity
  8
Default
  6
Continuous
 62
     7
 92
      236
310
EC000000020000000C00000013000000993A0000D8000000260000008D9C853DED4C7E407B354069A8594940000000000000000000000000000000000000000000000000000000000000F03F000000000000F03F00000000000000000000000000000000300031002F00310035002F00310037000000000008000000010000
310
00FCA9F1D24D620840000000000000F03F0000000000000000000000000000F03F00000000000000000000000000000000000000000000000000000000000000002200000053006F006C0069006400200045006400670065002000490053004F00000000000000000000000000
100
AcDbMLeader
300
CONTEXT_DATA{
 40
1.0
 10
482.9908
 20
52.21226
 30
0.0
 41
3.048
140
3.048
145
1.0668
174
     1
175
     1
176
     0
177
     0
290
     1
304
{\pxsm0.9;\fSolid Edge ISO|b0||i0||c0|p34;\W1.;01/15/17\P}
 11
0.0
 21
0.0
 31
1.0
340
11
 12
484.9908
 22
53.7515
 32
0.0
 13
1.0
 23
0.0
 33
0.0
 42
0.0
 43
0.0
 44
0.0
 45
1.0
170
     1
 90
-1073741824
171
     1
172
     1
 91
-939524096
141
1.5
 92
        0
291
     0
292
     0
173
     0
293
     0
142
0.0
143
0.0
294
     0
295
     0
296
     0
110
0.0
120
0.0
130
0.0
111
1.0
121
0.0
131
0.0
112
0.0
122
1.0
132
0.0
297
     0
301
}
340
6C
 90
 35117985
170
     0
 91
-1056964608
341
14
171
    -2
290
     1
291
     1
 41
0.0
342
D7
 42
4.0
172
     2
343
11
173
     1
 95
        1
174
     1
175
     0
 92
-1073741824
292
     0
 93
-1023410169
 10
1.0
 20
1.0
 30
1.0
 43
0.0
176
     0
293
     0
294
     0
178
     0
179
     1
 45
1.0
1001
ACAD_MLEADERVER
1070
     2
  0
MTEXT
  5
33E
330
1F
100
AcDbEntity
  8
Default
100
AcDbMText
 10
544.3125
 20
52.831
 30
0.0
 40
6.35
 41
79.375
 46
11.938
 71
     5
 72
     1
  1
{\fSolid Edge ISO|b1||i0||c0|p34;\C7;\H6.35;\W1.;Solid Edge}
 73
     1
 44
1.0
1001
ACAD
1000
ACAD_MTEXT_DEFINED_HEIGHT_BEGIN
1070
    46
1040
11.938
1000
ACAD_MTEXT_DEFINED_HEIGHT_END
  0
MTEXT
  5
33F
330
1F
100
AcDbEntity
  8
Default
100
AcDbMText
 10
505.895
 20
44.3015454545
 30
0.0
 40
2.54
 41
78.105
 46
4.1563736364
 71
     1
 72
     1
  1
{\fSolid Edge ISO|b0||i0||c0|p34;\C7;\H2.54;\W1.;TITLE}
 73
     1
 44
1.0
1001
ACAD
1000
ACAD_MTEXT_DEFINED_HEIGHT_BEGIN
1070
    46
1040
4.1563736364
1000
ACAD_MTEXT_DEFINED_HEIGHT_END
  0
MTEXT
  5
340
330
1F
100
AcDbEntity
  8
Default
100
AcDbMText
 10
509.3875
 20
31.4745454545
 30
0.0
 40
2.54
 41
9.525
 46
4.1563736364
 71
     2
 72
     1
  1
{\fSolid Edge ISO|b0||i0||c0|p34;\C7;\H2.54;\W1.;SIZE}
 73
     1
 44
1.0
1001
ACAD
1000
ACAD_MTEXT_DEFINED_HEIGHT_BEGIN
1070
    46
1040
4.1563736364
1000
ACAD_MTEXT_DEFINED_HEIGHT_END
  0
MTEXT
  5
341
330
1F
100
AcDbEntity
  8
Default
100
AcDbMText
 10
509.3875
 20
26.1925
 30
0.0
 40
3.048
 41
9.525
 46
6.985
 71
     5
 72
     1
  1
{\fSolid Edge ISO|b1||i0||c0|p34;\C7;\H3.048;\W1.;A2}
 73
     1
 44
1.0
1001
ACAD
1000
ACAD_MTEXT_DEFINED_HEIGHT_BEGIN
1070
    46
1040
6.985
1000
ACAD_MTEXT_DEFINED_HEIGHT_END
  0
MTEXT
  5
342
330
1F
100
AcDbEntity
  8
Default
100
AcDbMText
 10
515.42
 20
31.4745454545
 30
0.0
 40
2.54
 41
58.928
 46
4.1563736364
 71
     1
 72
     1
  1
{\fSolid Edge ISO|b0||i0||c0|p34;\C7;\H2.54;\W1.;DWG NO}
 73
     1
 44
1.0
1001
ACAD
1000
ACAD_MTEXT_DEFINED_HEIGHT_BEGIN
1070
    46
1040
4.1563736364
1000
ACAD_MTEXT_DEFINED_HEIGHT_END
  0
MTEXT
  5
343
330
1F
100
AcDbEntity
  8
Default
100
AcDbMText
 10
579.174
 20
31.4745454545
 30
0.0
 40
2.54
 41
9.652
 46
4.1563736364
 71
     2
 72
     1
  1
{\fSolid Edge ISO|b0||i0||c0|p34;\C7;\H2.54;\W1.;REV}
 73
     1
 44
1.0
1001
ACAD
1000
ACAD_MTEXT_DEFINED_HEIGHT_BEGIN
1070
    46
1040
4.1563736364
1000
ACAD_MTEXT_DEFINED_HEIGHT_END
  0
INSERT
  5
345
330
1F
100
AcDbEntity
  8
Default
100
AcDbBlockReference
  2
SEANNOT_GROUP2
 10
0.0
 20
0.0
 30
0.0
  0
MULTILEADER
  5
348
330
1F
100
AcDbEntity
  8
Default
  6
Continuous
 62
     7
 92
      256
310
00010000020000000C00000013000000993A0000EC00000026000000989F1B9AB2AF7F4050FA42C879FF3140000000000000000000000000000000000000000000000000000000000000F03F000000000000F03F00000000000000000000000000000000460049004C00450020004E0041004D0045003A0020006D00340031
310
002E00640066007400000000001200000001000000FCA9F1D24D620840000000000000F03F0000000000000000000000000000F03F00000000000000000000000000000000000000000000000000000000000000002200000053006F006C0069006400200045006400670065002000490053004F0000000000000000000000
310
0000
100
AcDbMLeader
300
CONTEXT_DATA{
 40
1.0
 10
505.2158
 20
19.520428
 30
0.0
 41
3.048
140
3.048
145
1.0668
174
     1
175
     1
176
     0
177
     0
290
     1
304
{\pxsm0.9;\fSolid Edge ISO|b0||i0||c0|p34;\W1.;FILE NAME: m41.dft\P}
 11
0.0
 21
0.0
 31
1.0
340
11
 12
507.2158
 22
21.049
 32
0.0
 13
1.0
 23
0.0
 33
0.0
 42
0.0
 43
0.0
 44
0.0
 45
1.0
170
     1
 90
-1073741824
171
     1
172
     1
 91
-939524096
141
1.5
 92
        0
291
     0
292
     0
173
     0
293
     0
142
0.0
143
0.0
294
     0
295
     0
296
     0
110
0.0
120
0.0
130
0.0
111
1.0
121
0.0
131
0.0
112
0.0
122
1.0
132
0.0
297
     0
301
}
340
6C
 90
 35117985
170
     0
 91
-1056964608
341
14
171
    -2
290
     1
291
     1
 41
0.0
342
D7
 42
4.0
172
     2
343
11
173
     1
 95
        1
174
     1
175
     0
 92
-1073741824
292
     0
 93
-1023410169
 10
1.0
 20
1.0
 30
1.0
 43
0.0
176
     0
293
     0
294
     0
178
     0
179
     1
 45
1.0
1001
ACAD_MLEADERVER
1070
     2
  0
MTEXT
  5
349
330
1F
100
AcDbEntity
  8
Default
100
AcDbMText
 10
506.149
 20
13.175
 30
0.0
 40
3.048
 41
20.701
 46
6.35
 71
     4
 72
     1
  1
{\fSolid Edge ISO|b0||i0||c0|p34;\C7;\H3.048;\W1.;SCALE:}
 73
     1
 44
1.0
1001
ACAD
1000
ACAD_MTEXT_DEFINED_HEIGHT_BEGIN
1070
    46
1040
6.35
1000
ACAD_MTEXT_DEFINED_HEIGHT_END
  0
MTEXT
  5
34A
330
1F
100
AcDbEntity
  8
Default
100
AcDbMText
 10
528.374
 20
13.175
 30
0.0
 40
3.048
 41
23.876
 46
6.35
 71
     4
 72
     1
  1
{\fSolid Edge ISO|b0||i0||c0|p34;\C7;\H3.048;\W1.;WEIGHT:}
 73
     1
 44
1.0
1001
ACAD
1000
ACAD_MTEXT_DEFINED_HEIGHT_BEGIN
1070
    46
1040
6.35
1000
ACAD_MTEXT_DEFINED_HEIGHT_END
  0
INSERT
  5
34C
330
1F
100
AcDbEntity
  8
Default
100
AcDbBlockReference
  2
SEANNOT_GROUP3
 10
0.0
 20
0.0
 30
0.0
  0
MULTILEADER
  5
34F
330
1F
100
AcDbEntity
  8
Default
  6
Continuous
 62
     7
 92
      244
310
F4000000020000000C00000013000000993A0000E000000026000000CEC3094CA7558140D092C7D3F2432740000000000000000000000000000000000000000000000000000000000000F03F000000000000F03F00000000000000000000000000000000530048004500450054002000310020004F00460020003300000000
310
000C00000001000000FCA9F1D24D620840000000000000F03F0000000000000000000000000000F03F00000000000000000000000000000000000000000000000000000000000000002200000053006F006C0069006400200045006400670065002000490053004F00000000000000000000000000
100
AcDbMLeader
300
CONTEXT_DATA{
 40
1.0
 10
552.8408
 20
13.15976
 30
0.0
 41
3.048
140
3.048
145
1.0668
174
     1
175
     1
176
     0
177
     0
290
     1
304
{\pxsm0.9;\fSolid Edge ISO|b0||i0||c0|p34;\W1.;SHEET 1 OF 3\P}
 11
0.0
 21
0.0
 31
1.0
340
11
 12
554.8408
 22
14.699
 32
0.0
 13
1.0
 23
0.0
 33
0.0
 42
0.0
 43
0.0
 44
0.0
 45
1.0
170
     1
 90
-1073741824
171
     1
172
     1
 91
-939524096
141
1.5
 92
        0
291
     0
292
     0
173
     0
293
     0
142
0.0
143
0.0
294
     0
295
     0
296
     0
110
0.0
120
0.0
130
0.0
111
1.0
121
0.0
131
0.0
112
0.0
122
1.0
132
0.0
297
     0
301
}
340
6C
 90
 35117985
170
     0
 91
-1056964608
341
14
171
    -2
290
     1
291
     1
 41
0.0
342
D7
 42
4.0
172
     2
343
11
173
     1
 95
        1
174
     1
175
     0
 92
-1073741824
292
     0
 93
-1023410169
 10
1.0
 20
1.0
 30
1.0
 43
0.0
176
     0
293
     0
294
     0
178
     0
179
     1
 45
1.0
1001
ACAD_MLEADERVER
1070
     2
  0
LINE
  5
350
330
1F
100
AcDbEntity
  8
Default
  6
Continuous
 62
     7
100
AcDbLine
 10
457.0
 20
410.0
 30
0.0
 11
457.0
 21
390.95
 31
0.0
  0
LINE
  5
351
330
1F
100
AcDbEntity
  8
Default
  6
Continuous
 62
     7
100
AcDbLine
 10
466.652
 20
403.65
 30
0.0
 11
466.652
 21
390.95
 31
0.0
  0
LINE
  5
352
330
1F
100
AcDbEntity
  8
Default
  6
Continuous
 62
     7
100
AcDbLine
 10
536.248
 20
403.65
 30
0.0
 11
536.248
 21
390.95
 31
0.0
  0
LINE
  5
353
330
1F
100
AcDbEntity
  8
Default
  6
Continuous
 62
     7
100
AcDbLine
 10
558.6
 20
403.65
 30
0.0
 11
558.6
 21
390.95
 31
0.0
  0
LINE
  5
354
330
1F
100
AcDbEntity
  8
Default
  6
Continuous
 62
     7
100
AcDbLine
 10
457.0
 20
403.65
 30
0.0
 11
584.0
 21
403.65
 31
0.0
  0
LINE
  5
355
330
1F
100
AcDbEntity
  8
Default
  6
Continuous
 62
     7
100
AcDbLine
 10
457.0
 20
397.3
 30
0.0
 11
584.0
 21
397.3
 31
0.0
  0
MTEXT
  5
356
330
1F
100
AcDbEntity
  8
Default
100
AcDbMText
 10
520.5
 20
406.825
 30
0.0
 40
3.048
 41
127.0
 46
6.35
 71
     5
 72
     1
  1
{\fSolid Edge ISO|b0||i0||c0|p34;\C7;\H3.048;\W1.;REVISION HISTORY}
 73
     1
 44
1.0
1001
ACAD
1000
ACAD_MTEXT_DEFINED_HEIGHT_BEGIN
1070
    46
1040
6.35
1000
ACAD_MTEXT_DEFINED_HEIGHT_END
  0
MTEXT
  5
357
330
1F
100
AcDbEntity
  8
Default
100
AcDbMText
 10
461.826
 20
400.475
 30
0.0
 40
3.048
 41
9.652
 46
6.35
 71
     5
 72
     1
  1
{\fSolid Edge ISO|b0||i0||c0|p34;\C7;\H3.048;\W1.;REV}
 73
     1
 44
1.0
1001
ACAD
1000
ACAD_MTEXT_DEFINED_HEIGHT_BEGIN
1070
    46
1040
6.35
1000
ACAD_MTEXT_DEFINED_HEIGHT_END
  0
MTEXT
  5
358
330
1F
100
AcDbEntity
  8
Default
100
AcDbMText
 10
501.45
 20
400.475
 30
0.0
 40
3.048
 41
69.596
 46
6.35
 71
     5
 72
     1
  1
{\fSolid Edge ISO|b0||i0||c0|p34;\C7;\H3.048;\W1.;DESCRIPTION}
 73
     1
 44
1.0
1001
ACAD
1000
ACAD_MTEXT_DEFINED_HEIGHT_BEGIN
1070
    46
1040
6.35
1000
ACAD_MTEXT_DEFINED_HEIGHT_END
  0
MTEXT
  5
359
330
1F
100
AcDbEntity
  8
Default
100
AcDbMText
 10
547.424
 20
400.475
 30
0.0
 40
3.048
 41
22.352
 46
6.35
 71
     5
 72
     1
  1
{\fSolid Edge ISO|b0||i0||c0|p34;\C7;\H3.048;\W1.;DATE}
 73
     1
 44
1.0
1001
ACAD
1000
ACAD_MTEXT_DEFINED_HEIGHT_BEGIN
1070
    46
1040
6.35
1000
ACAD_MTEXT_DEFINED_HEIGHT_END
  0
MTEXT
  5
35A
330
1F
100
AcDbEntity
  8
Default
100
AcDbMText
 10
571.3
 20
400.475
 30
0.0
 40
3.048
 41
25.4
 46
6.35
 71
     5
 72
     1
  1
{\fSolid Edge ISO|b0||i0||c0|p34;\C7;\H3.048;\W1.;APPROVED}
 73
     1
 44
1.0
1001
ACAD
1000
ACAD_MTEXT_DEFINED_HEIGHT_BEGIN
1070
    46
1040
6.35
1000
ACAD_MTEXT_DEFINED_HEIGHT_END
  0
ENDSEC
  0
SECTION
  2
OBJECTS
  0
DICTIONARY
  5
C
330
0
100
AcDbDictionary
281
     1
  3
ACAD_DETAILVIEWSTYLE
350
396
  3
ACAD_GROUP
350
D
  3
ACAD_LAYOUT
350
1A
  3
ACAD_MATERIAL
350
43
  3
ACAD_MLEADERSTYLE
350
6B
  3
ACAD_MLINESTYLE
350
17
  3
ACAD_PLOTSETTINGS
350
19
  3
ACAD_PLOTSTYLENAME
350
E
  3
ACAD_SCALELIST
350
47
  3
ACAD_SECTIONVIEWSTYLE
350
397
  3
ACAD_TABLESTYLE
350
69
  3
ACAD_VISUALSTYLE
350
2A
  3
ACDB_RECOMPOSE_DATA
350
393
  3
AcDbVariableDictionary
350
35C
  0
SUN
  5
6D
330
29
100
AcDbSun
 90
        1
290
     0
 63
     7
421
 16777215
 40
1.0
291
     1
 91
  2455826
 92
 54000000
292
     0
 70
     2
 71
   256
280
     1
  0
DICTIONARY
  5
396
102
{ACAD_REACTORS
330
C
102
}
330
C
100
AcDbDictionary
281
     1
  0
DICTIONARY
  5
D
102
{ACAD_REACTORS
330
C
102
}
330
C
100
AcDbDictionary
281
     1
  0
DICTIONARY
  5
1A
102
{ACAD_REACTORS
330
C
102
}
330
C
100
AcDbDictionary
281
     1
  3
Layout1
350
1E
  3
Model
350
22
  0
DICTIONARY
  5
43
102
{ACAD_REACTORS
330
C
102
}
330
C
100
AcDbDictionary
281
     1
  3
ByBlock
350
45
  3
ByLayer
350
44
  3
Global
350
46
  0
DICTIONARY
  5
6B
102
{ACAD_REACTORS
330
C
102
}
330
C
100
AcDbDictionary
281
     1
  3
Standard
350
6C
  0
DICTIONARY
  5
17
102
{ACAD_REACTORS
330
C
102
}
330
C
100
AcDbDictionary
281
     1
  3
Standard
350
18
  0
DICTIONARY
  5
19
102
{ACAD_REACTORS
330
C
102
}
330
C
100
AcDbDictionary
281
     1
  0
ACDBDICTIONARYWDFLT
  5
E
102
{ACAD_REACTORS
330
C
102
}
330
C
100
AcDbDictionary
281
     1
  3
Normal
350
F
100
AcDbDictionaryWithDefault
340
F
  0
DICTIONARY
  5
47
102
{ACAD_REACTORS
330
C
102
}
330
C
100
AcDbDictionary
281
     1
  3
A0
350
48
  3
A1
350
49
  3
A2
350
4A
  3
A3
350
4B
  3
A4
350
4C
  3
A5
350
4D
  3
A6
350
4E
  3
A7
350
4F
  3
A8
350
50
  3
A9
350
51
  3
B0
350
52
  3
B1
350
53
  3
B2
350
54
  3
B3
350
55
  3
B4
350
56
  3
B5
350
57
  3
B6
350
58
  3
B7
350
59
  3
B8
350
5A
  3
B9
350
5B
  3
C0
350
5C
  3
C1
350
5D
  3
C2
350
5E
  3
C3
350
5F
  3
C4
350
60
  3
C5
350
61
  3
C6
350
62
  3
C7
350
63
  3
C8
350
64
  3
C9
350
65
  3
D0
350
66
  3
D1
350
67
  3
D2
350
68
  0
DICTIONARY
  5
397
102
{ACAD_REACTORS
330
C
102
}
330
C
100
AcDbDictionary
281
     1
  0
DICTIONARY
  5
69
102
{ACAD_REACTORS
330
C
102
}
330
C
100
AcDbDictionary
281
     1
  3
Standard
350
6A
  0
DICTIONARY
  5
2A
102
{ACAD_REACTORS
330
C
102
}
330
C
100
AcDbDictionary
281
     1
  3
2dWireframe
350
2F
  3
Basic
350
32
  3
Brighten
350
36
  3
ColorChange
350
3A
  3
Conceptual
350
34
  3
Dim
350
35
  3
EdgeColorOff
350
3D
  3
Facepattern
350
39
  3
Flat
350
2B
  3
FlatWithEdges
350
2C
  3
Gouraud
350
2D
  3
GouraudWithEdges
350
2E
  3
Hidden
350
31
  3
JitterOff
350
3B
  3
Linepattern
350
38
  3
OverhangOff
350
3C
  3
Realistic
350
33
  3
Shaded
350
42
  3
Shaded with edges
350
41
  3
Shades of Gray
350
3E
  3
Sketchy
350
3F
  3
Thicken
350
37
  3
Wireframe
350
30
  3
X-Ray
350
40
  0
XRECORD
  5
393
102
{ACAD_REACTORS
330
C
102
}
330
C
100
AcDbXrecord
280
     1
 90
        1
330
6A
  0
DICTIONARY
  5
35C
102
{ACAD_REACTORS
330
C
102
}
330
C
100
AcDbDictionary
281
     1
  3
CANNOSCALE
350
35D
  3
CMLEADERSTYLE
350
395
  3
CTABLESTYLE
350
394
  3
XCLIPFRAME
350
35E
  0
LAYOUT
  5
1E
102
{ACAD_REACTORS
330
1A
102
}
330
1A
100
AcDbPlotSettings
  1

  2
none_device
  4

  6

 40
0.0
 41
0.0
 42
0.0
 43
0.0
 44
0.0
 45
0.0
 46
0.0
 47
0.0
 48
0.0
 49
0.0
140
0.0
141
0.0
142
1.0
143
1.0
 70
   688
 72
     1
 73
     0
 74
     5
  7

 75
    16
 76
     0
 77
     2
 78
   300
147
1.0
148
0.0
149
0.0
100
AcDbLayout
  1
Layout1
 70
     1
 71
     1
 10
0.0
 20
0.0
 11
594.0
 21
420.0
 12
0.0
 22
0.0
 32
0.0
 14
0.0
 24
0.0
 34
0.0
 15
594.0
 25
420.0
 35
0.0
146
0.0
 13
0.0
 23
0.0
 33
0.0
 16
1.0
 26
0.0
 36
0.0
 17
0.0
 27
1.0
 37
0.0
 76
     0
330
1B
  0
LAYOUT
  5
22
102
{ACAD_REACTORS
330
1A
102
}
330
1A
100
AcDbPlotSettings
  1

  2
none_device
  4
Letter_(8.50_x_11.00_Inches)
  6

 40
6.35
 41
6.35
 42
6.35000508
 43
6.35000508
 44
215.9
 45
279.4
 46
0.0
 47
0.0
 48
0.0
 49
0.0
140
0.0
141
0.0
142
1.0
143
1.0
 70
  1712
 72
     1
 73
     0
 74
     0
  7

 75
     0
 76
     0
 77
     2
 78
   300
147
1.0
148
0.0
149
0.0
100
AcDbLayout
  1
Model
 70
     1
 71
     0
 10
0.0
 20
0.0
 11
594.0
 21
420.0
 12
0.0
 22
0.0
 32
0.0
 14
0.0
 24
0.0
 34
0.0
 15
594.0
 25
420.0
 35
0.0
146
0.0
 13
0.0
 23
0.0
 33
0.0
 16
1.0
 26
0.0
 36
0.0
 17
0.0
 27
1.0
 37
0.0
 76
     0
330
1F
331
29
  0
MATERIAL
  5
45
102
{ACAD_REACTORS
330
43
102
}
330
43
100
AcDbMaterial
  1
ByBlock
 72
     1
 94
      127
  0
MATERIAL
  5
44
102
{ACAD_REACTORS
330
43
102
}
330
43
100
AcDbMaterial
  1
ByLayer
 72
     1
 94
      127
  0
MATERIAL
  5
46
102
{ACAD_REACTORS
330
43
102
}
330
43
100
AcDbMaterial
  1
Global
 72
     1
 94
      127
  0
MLEADERSTYLE
  5
6C
102
{ACAD_REACTORS
330
6B
102
}
102
{ACAD_XDICTIONARY
360
391
102
}
330
6B
100
AcDbMLeaderStyle
170
     2
171
     1
172
     0
 90
        2
 40
0.0
 41
0.0
173
     1
 91
-1056964608
340
14
 92
       -2
290
     1
 42
2.0
291
     1
 43
8.0
  3
Standard
341
0
 44
4.0
300

342
11
174
     1
178
     6
175
     1
176
     0
 93
-1056964608
 45
4.0
292
     0
297
     0
 46
4.0
343
0
 94
-1056964608
 47
1.0
 49
1.0
140
1.0
293
     1
141
0.0
294
     1
177
     0
142
1.0
295
     0
296
     0
143
3.75
1001
ACAD_MLEADERVER
1070
     2
  0
MLINESTYLE
  5
18
102
{ACAD_REACTORS
330
17
102
}
330
17
100
AcDbMlineStyle
  2
Standard
 70
     0
  3

 62
   256
 51
90.0
 52
90.0
 71
     2
 49
0.5
 62
   256
  6
BYLAYER
 49
-0.5
 62
   256
  6
BYLAYER
  0
ACDBPLACEHOLDER
  5
F
102
{ACAD_REACTORS
330
E
102
}
330
E
  0
SCALE
  5
48
102
{ACAD_REACTORS
330
47
102
}
330
47
100
AcDbScale
 70
     0
300
1:1
140
1.0
141
1.0
290
     1
  0
SCALE
  5
49
102
{ACAD_REACTORS
330
47
102
}
330
47
100
AcDbScale
 70
     0
300
1:2
140
1.0
141
2.0
290
     0
  0
SCALE
  5
4A
102
{ACAD_REACTORS
330
47
102
}
330
47
100
AcDbScale
 70
     0
300
1:4
140
1.0
141
4.0
290
     0
  0
SCALE
  5
4B
102
{ACAD_REACTORS
330
47
102
}
330
47
100
AcDbScale
 70
     0
300
1:5
140
1.0
141
5.0
290
     0
  0
SCALE
  5
4C
102
{ACAD_REACTORS
330
47
102
}
330
47
100
AcDbScale
 70
     0
300
1:8
140
1.0
141
8.0
290
     0
  0
SCALE
  5
4D
102
{ACAD_REACTORS
330
47
102
}
330
47
100
AcDbScale
 70
     0
300
1:10
140
1.0
141
10.0
290
     0
  0
SCALE
  5
4E
102
{ACAD_REACTORS
330
47
102
}
330
47
100
AcDbScale
 70
     0
300
1:16
140
1.0
141
16.0
290
     0
  0
SCALE
  5
4F
102
{ACAD_REACTORS
330
47
102
}
330
47
100
AcDbScale
 70
     0
300
1:20
140
1.0
141
20.0
290
     0
  0
SCALE
  5
50
102
{ACAD_REACTORS
330
47
102
}
330
47
100
AcDbScale
 70
     0
300
1:30
140
1.0
141
30.0
290
     0
  0
SCALE
  5
51
102
{ACAD_REACTORS
330
47
102
}
330
47
100
AcDbScale
 70
     0
300
1:40
140
1.0
141
40.0
290
     0
  0
SCALE
  5
52
102
{ACAD_REACTORS
330
47
102
}
330
47
100
AcDbScale
 70
     0
300
1:50
140
1.0
141
50.0
290
     0
  0
SCALE
  5
53
102
{ACAD_REACTORS
330
47
102
}
330
47
100
AcDbScale
 70
     0
300
1:100
140
1.0
141
100.0
290
     0
  0
SCALE
  5
54
102
{ACAD_REACTORS
330
47
102
}
330
47
100
AcDbScale
 70
     0
300
2:1
140
2.0
141
1.0
290
     0
  0
SCALE
  5
55
102
{ACAD_REACTORS
330
47
102
}
330
47
100
AcDbScale
 70
     0
300
4:1
140
4.0
141
1.0
290
     0
  0
SCALE
  5
56
102
{ACAD_REACTORS
330
47
102
}
330
47
100
AcDbScale
 70
     0
300
8:1
140
8.0
141
1.0
290
     0
  0
SCALE
  5
57
102
{ACAD_REACTORS
330
47
102
}
330
47
100
AcDbScale
 70
     0
300
10:1
140
10.0
141
1.0
290
     0
  0
SCALE
  5
58
102
{ACAD_REACTORS
330
47
102
}
330
47
100
AcDbScale
 70
     0
300
100:1
140
100.0
141
1.0
290
     0
  0
SCALE
  5
59
102
{ACAD_REACTORS
330
47
102
}
330
47
100
AcDbScale
 70
     0
300
1/128" = 1'-0"
140
0.0078125
141
12.0
290
     0
  0
SCALE
  5
5A
102
{ACAD_REACTORS
330
47
102
}
330
47
100
AcDbScale
 70
     0
300
1/64" = 1'-0"
140
0.015625
141
12.0
290
     0
  0
SCALE
  5
5B
102
{ACAD_REACTORS
330
47
102
}
330
47
100
AcDbScale
 70
     0
300
1/32" = 1'-0"
140
0.03125
141
12.0
290
     0
  0
SCALE
  5
5C
102
{ACAD_REACTORS
330
47
102
}
330
47
100
AcDbScale
 70
     0
300
1/16" = 1'-0"
140
0.0625
141
12.0
290
     0
  0
SCALE
  5
5D
102
{ACAD_REACTORS
330
47
102
}
330
47
100
AcDbScale
 70
     0
300
3/32" = 1'-0"
140
0.09375
141
12.0
290
     0
  0
SCALE
  5
5E
102
{ACAD_REACTORS
330
47
102
}
330
47
100
AcDbScale
 70
     0
300
1/8" = 1'-0"
140
0.125
141
12.0
290
     0
  0
SCALE
  5
5F
102
{ACAD_REACTORS
330
47
102
}
330
47
100
AcDbScale
 70
     0
300
3/16" = 1'-0"
140
0.1875
141
12.0
290
     0
  0
SCALE
  5
60
102
{ACAD_REACTORS
330
47
102
}
330
47
100
AcDbScale
 70
     0
300
1/4" = 1'-0"
140
0.25
141
12.0
290
     0
  0
SCALE
  5
61
102
{ACAD_REACTORS
330
47
102
}
330
47
100
AcDbScale
 70
     0
300
3/8" = 1'-0"
140
0.375
141
12.0
290
     0
  0
SCALE
  5
62
102
{ACAD_REACTORS
330
47
102
}
330
47
100
AcDbScale
 70
     0
300
1/2" = 1'-0"
140
0.5
141
12.0
290
     0
  0
SCALE
  5
63
102
{ACAD_REACTORS
330
47
102
}
330
47
100
AcDbScale
 70
     0
300
3/4" = 1'-0"
140
0.75
141
12.0
290
     0
  0
SCALE
  5
64
102
{ACAD_REACTORS
330
47
102
}
330
47
100
AcDbScale
 70
     0
300
1" = 1'-0"
140
1.0
141
12.0
290
     0
  0
SCALE
  5
65
102
{ACAD_REACTORS
330
47
102
}
330
47
100
AcDbScale
 70
     0
300
1-1/2" = 1'-0"
140
1.5
141
12.0
290
     0
  0
SCALE
  5
66
102
{ACAD_REACTORS
330
47
102
}
330
47
100
AcDbScale
 70
     0
300
3" = 1'-0"
140
3.0
141
12.0
290
     0
  0
SCALE
  5
67
102
{ACAD_REACTORS
330
47
102
}
330
47
100
AcDbScale
 70
     0
300
6" = 1'-0"
140
6.0
141
12.0
290
     0
  0
SCALE
  5
68
102
{ACAD_REACTORS
330
47
102
}
330
47
100
AcDbScale
 70
     0
300
1'-0" = 1'-0"
140
12.0
141
12.0
290
     0
  0
TABLESTYLE
  5
6A
102
{ACAD_REACTORS
330
69
102
}
102
{ACAD_XDICTIONARY
360
38F
102
}
330
69
100
AcDbTableStyle
  3
Standard
 70
     0
 71
     0
 40
0.06
 41
0.06
280
     0
281
     0
  7
Standard
140
4.5
170
     2
 62
     0
 63
   257
283
     0
 90
        4
 91
        0
  1

274
    -2
284
     1
 64
     0
275
    -2
285
     1
 65
     0
276
    -2
286
     1
 66
     0
277
    -2
287
     1
 67
     0
278
    -2
288
     1
 68
     0
279
    -2
289
     1
 69
     0
  7
Standard
140
6.0
170
     5
 62
     0
 63
   257
283
     0
 90
        4
 91
        0
  1

274
    -2
284
     1
 64
     0
275
    -2
285
     1
 65
     0
276
    -2
286
     1
 66
     0
277
    -2
287
     1
 67
     0
278
    -2
288
     1
 68
     0
279
    -2
289
     1
 69
     0
  7
Standard
140
4.5
170
     5
 62
     0
 63
   257
283
     0
 90
        4
 91
        0
  1

274
    -2
284
     1
 64
     0
275
    -2
285
     1
 65
     0
276
    -2
286
     1
 66
     0
277
    -2
287
     1
 67
     0
278
    -2
288
     1
 68
     0
279
    -2
289
     1
 69
     0
  0
VISUALSTYLE
  5
2F
102
{ACAD_REACTORS
330
2A
102
}
102
{ACAD_XDICTIONARY
360
367
102
}
330
2A
100
AcDbVisualStyle
  2
2dWireframe
 70
     4
 71
     0
 72
     2
 73
     0
 90
        0
 40
0.6
 41
30.0
 62
     5
 63
     7
421
 16777215
 74
     1
 91
        4
 64
     7
 65
   257
 75
     1
175
     1
 42
1.0
 92
        0
 66
   257
 43
1.0
 76
     1
 77
     6
 78
     2
 67
     7
 79
     5
170
     0
171
     0
290
     0
174
     0
 93
        1
 44
0.0
173
     0
291
     0
 45
0.0
  0
VISUALSTYLE
  5
32
102
{ACAD_REACTORS
330
2A
102
}
102
{ACAD_XDICTIONARY
360
36D
102
}
330
2A
100
AcDbVisualStyle
  2
Basic
 70
     7
 71
     1
 72
     0
 73
     1
 90
        0
 40
0.6
 41
30.0
 62
     5
 63
     7
421
 16777215
 74
     0
 91
        4
 64
     7
 65
   257
 75
     1
175
     1
 42
1.0
 92
        8
 66
     7
 43
1.0
 76
     1
 77
     6
 78
     2
 67
     7
 79
     5
170
     0
171
     0
290
     0
174
     0
 93
        1
 44
0.0
173
     0
291
     1
 45
0.0
  0
VISUALSTYLE
  5
36
102
{ACAD_REACTORS
330
2A
102
}
102
{ACAD_XDICTIONARY
360
375
102
}
330
2A
100
AcDbVisualStyle
  2
Brighten
 70
    12
 71
     2
 72
     2
 73
     0
 90
        0
 40
0.6
 41
30.0
 62
     5
 63
     7
421
 16777215
 74
     1
 91
        4
 64
     7
 65
   257
 75
     1
175
     1
 42
1.0
 92
        8
 66
     7
 43
1.0
 76
     1
 77
     6
 78
     2
 67
     7
 79
     5
170
     0
171
     0
290
     0
174
     0
 93
        1
 44
50.0
173
     0
291
     1
 45
0.0
  0
VISUALSTYLE
  5
3A
102
{ACAD_REACTORS
330
2A
102
}
102
{ACAD_XDICTIONARY
360
37D
102
}
330
2A
100
AcDbVisualStyle
  2
ColorChange
 70
    16
 71
     2
 72
     2
 73
     3
 90
        0
 40
0.6
 41
30.0
 62
     5
 63
     8
421
  8421504
 74
     1
 91
        4
 64
     7
 65
   257
 75
     1
175
     1
 42
1.0
 92
        8
 66
     8
424
  8421504
 43
1.0
 76
     1
 77
     6
 78
     2
 67
     7
 79
     5
170
     0
171
     0
290
     0
174
     0
 93
        1
 44
0.0
173
     0
291
     1
 45
0.0
  0
VISUALSTYLE
  5
34
102
{ACAD_REACTORS
330
2A
102
}
102
{ACAD_XDICTIONARY
360
371
102
}
330
2A
100
AcDbVisualStyle
  2
Conceptual
 70
     9
 71
     3
 72
     2
 73
     0
 90
        0
 40
0.6
 41
30.0
 62
     5
 63
     7
421
 16777215
 74
     2
 91
        2
 64
     7
 65
   257
 75
     1
175
     1
 42
179.0
 92
        8
 66
     7
 43
1.0
 76
     1
 77
     6
 78
     2
 67
     7
 79
     3
170
     0
171
     0
290
     0
174
     0
 93
        1
 44
0.0
173
     0
291
     0
 45
0.0
  0
VISUALSTYLE
  5
35
102
{ACAD_REACTORS
330
2A
102
}
102
{ACAD_XDICTIONARY
360
373
102
}
330
2A
100
AcDbVisualStyle
  2
Dim
 70
    11
 71
     2
 72
     2
 73
     0
 90
        0
 40
0.6
 41
30.0
 62
     5
 63
     7
421
 16777215
 74
     1
 91
        4
 64
     7
 65
   257
 75
     1
175
     1
 42
1.0
 92
        8
 66
     7
 43
1.0
 76
     1
 77
     6
 78
     2
 67
     7
 79
     5
170
     0
171
     0
290
     0
174
     0
 93
        1
 44
-50.0
173
     0
291
     1
 45
0.0
  0
VISUALSTYLE
  5
3D
102
{ACAD_REACTORS
330
2A
102
}
102
{ACAD_XDICTIONARY
360
383
102
}
330
2A
100
AcDbVisualStyle
  2
EdgeColorOff
 70
    22
 71
     2
 72
     2
 73
     0
 90
        0
 40
0.6
 41
30.0
 62
     5
 63
     7
421
 16777215
 74
     1
 91
        4
 64
     7
 65
   257
 75
     1
175
     1
 42
1.0
 92
        8
 66
     7
 43
1.0
 76
     1
 77
     6
 78
     2
 67
     7
 79
     5
170
     0
171
     0
290
     0
174
     0
 93
        1
 44
0.0
173
     0
291
     1
 45
0.0
  0
VISUALSTYLE
  5
39
102
{ACAD_REACTORS
330
2A
102
}
102
{ACAD_XDICTIONARY
360
37B
102
}
330
2A
100
AcDbVisualStyle
  2
Facepattern
 70
    15
 71
     2
 72
     2
 73
     0
 90
        0
 40
0.6
 41
30.0
 62
     5
 63
     7
421
 16777215
 74
     1
 91
        4
 64
     7
 65
   257
 75
     1
175
     1
 42
1.0
 92
        8
 66
     7
 43
1.0
 76
     1
 77
     6
 78
     2
 67
     7
 79
     5
170
     0
171
     0
290
     0
174
     0
 93
        1
 44
0.0
173
     0
291
     1
 45
0.0
  0
VISUALSTYLE
  5
2B
102
{ACAD_REACTORS
330
2A
102
}
102
{ACAD_XDICTIONARY
360
35F
102
}
330
2A
100
AcDbVisualStyle
  2
Flat
 70
     0
 71
     2
 72
     1
 73
     1
 90
        2
 40
0.6
 41
30.0
 62
     5
 63
     7
421
 16777215
 74
     0
 91
        0
 64
     7
 65
   257
 75
     1
175
     1
 42
1.0
 92
        8
 66
     7
 43
1.0
 76
     1
 77
     6
 78
     2
 67
     7
 79
     5
170
     0
171
     0
290
     0
174
     0
 93
       13
 44
0.0
173
     0
291
     1
 45
0.0
  0
VISUALSTYLE
  5
2C
102
{ACAD_REACTORS
330
2A
102
}
102
{ACAD_XDICTIONARY
360
361
102
}
330
2A
100
AcDbVisualStyle
  2
FlatWithEdges
 70
     1
 71
     2
 72
     1
 73
     1
 90
        2
 40
0.6
 41
30.0
 62
     5
 63
     7
421
 16777215
 74
     1
 91
        0
 64
     7
 65
   257
 75
     1
175
     1
 42
1.0
 92
        0
 66
   257
 43
1.0
 76
     1
 77
     6
 78
     2
 67
     7
 79
     5
170
     0
171
     0
290
     0
174
     0
 93
       13
 44
0.0
173
     0
291
     1
 45
0.0
  0
VISUALSTYLE
  5
2D
102
{ACAD_REACTORS
330
2A
102
}
102
{ACAD_XDICTIONARY
360
363
102
}
330
2A
100
AcDbVisualStyle
  2
Gouraud
 70
     2
 71
     2
 72
     2
 73
     1
 90
        2
 40
0.6
 41
30.0
 62
     5
 63
     7
421
 16777215
 74
     0
 91
        0
 64
     7
 65
   257
 75
     1
175
     1
 42
1.0
 92
        0
 66
     7
 43
1.0
 76
     1
 77
     6
 78
     2
 67
     7
 79
     5
170
     0
171
     0
290
     0
174
     0
 93
       13
 44
0.0
173
     0
291
     1
 45
0.0
  0
VISUALSTYLE
  5
2E
102
{ACAD_REACTORS
330
2A
102
}
102
{ACAD_XDICTIONARY
360
365
102
}
330
2A
100
AcDbVisualStyle
  2
GouraudWithEdges
 70
     3
 71
     2
 72
     2
 73
     1
 90
        2
 40
0.6
 41
30.0
 62
     5
 63
     7
421
 16777215
 74
     1
 91
        0
 64
     7
 65
   257
 75
     1
175
     1
 42
1.0
 92
        0
 66
   257
 43
1.0
 76
     1
 77
     6
 78
     2
 67
     7
 79
     5
170
     0
171
     0
290
     0
174
     0
 93
       13
 44
0.0
173
     0
291
     1
 45
0.0
  0
VISUALSTYLE
  5
31
102
{ACAD_REACTORS
330
2A
102
}
102
{ACAD_XDICTIONARY
360
36B
102
}
330
2A
100
AcDbVisualStyle
  2
Hidden
 70
     6
 71
     1
 72
     2
 73
     2
 90
        0
 40
0.6
 41
30.0
 62
     5
 63
     7
421
 16777215
 74
     2
 91
        2
 64
     7
 65
   257
 75
     2
175
     1
 42
40.0
 92
        0
 66
   257
 43
1.0
 76
     1
 77
     6
 78
     2
 67
     7
 79
     3
170
     0
171
     0
290
     0
174
     0
 93
        1
 44
0.0
173
     0
291
     0
 45
0.0
  0
VISUALSTYLE
  5
3B
102
{ACAD_REACTORS
330
2A
102
}
102
{ACAD_XDICTIONARY
360
37F
102
}
330
2A
100
AcDbVisualStyle
  2
JitterOff
 70
    20
 71
     2
 72
     2
 73
     0
 90
        0
 40
0.6
 41
30.0
 62
     5
 63
     7
421
 16777215
 74
     1
 91
        4
 64
     7
 65
   257
 75
     1
175
     1
 42
1.0
 92
       10
 66
     7
 43
1.0
 76
     1
 77
     6
 78
     2
 67
     7
 79
     5
170
     0
171
     0
290
     0
174
     0
 93
        1
 44
0.0
173
     0
291
     1
 45
0.0
  0
VISUALSTYLE
  5
38
102
{ACAD_REACTORS
330
2A
102
}
102
{ACAD_XDICTIONARY
360
379
102
}
330
2A
100
AcDbVisualStyle
  2
Linepattern
 70
    14
 71
     2
 72
     2
 73
     0
 90
        0
 40
0.6
 41
30.0
 62
     5
 63
     7
421
 16777215
 74
     1
 91
        4
 64
     7
 65
   257
 75
     7
175
     7
 42
1.0
 92
        8
 66
     7
 43
1.0
 76
     1
 77
     6
 78
     2
 67
     7
 79
     5
170
     0
171
     0
290
     0
174
     0
 93
        1
 44
0.0
173
     0
291
     1
 45
0.0
  0
VISUALSTYLE
  5
3C
102
{ACAD_REACTORS
330
2A
102
}
102
{ACAD_XDICTIONARY
360
381
102
}
330
2A
100
AcDbVisualStyle
  2
OverhangOff
 70
    21
 71
     2
 72
     2
 73
     0
 90
        0
 40
0.6
 41
30.0
 62
     5
 63
     7
421
 16777215
 74
     1
 91
        4
 64
     7
 65
   257
 75
     1
175
     1
 42
1.0
 92
        9
 66
     7
 43
1.0
 76
     1
 77
     6
 78
     2
 67
     7
 79
     5
170
     0
171
     0
290
     0
174
     0
 93
        1
 44
0.0
173
     0
291
     1
 45
0.0
  0
VISUALSTYLE
  5
33
102
{ACAD_REACTORS
330
2A
102
}
102
{ACAD_XDICTIONARY
360
36F
102
}
330
2A
100
AcDbVisualStyle
  2
Realistic
 70
     8
 71
     2
 72
     3
 73
     0
 90
        2
 40
0.6
 41
30.0
 62
     5
 63
     7
421
 16777215
 74
     0
 91
        0
 64
     7
 65
   257
 75
     1
175
     1
 42
1.0
 92
        8
 66
   257
 43
1.0
 76
     1
 77
     6
 78
     2
 67
     7
 79
     3
170
     0
171
     0
290
     0
174
     0
 93
       13
 44
0.0
173
     0
291
     0
 45
0.0
  0
VISUALSTYLE
  5
42
102
{ACAD_REACTORS
330
2A
102
}
102
{ACAD_XDICTIONARY
360
38D
102
}
330
2A
100
AcDbVisualStyle
  2
Shaded
 70
    27
 71
     2
 72
     2
 73
     1
 90
        2
 40
0.6
 41
30.0
 62
     5
 63
     7
421
 16777215
 74
     0
 91
        4
 64
     7
 65
   257
 75
     1
175
     1
 42
1.0
 92
        8
 66
   257
 43
1.0
 76
     1
 77
     6
 78
     2
 67
     8
425
  7895160
 79
     3
170
     0
171
     0
290
     0
174
     0
 93
        5
 44
0.0
173
     0
291
     0
 45
0.0
  0
VISUALSTYLE
  5
41
102
{ACAD_REACTORS
330
2A
102
}
102
{ACAD_XDICTIONARY
360
38B
102
}
330
2A
100
AcDbVisualStyle
  2
Shaded with edges
 70
    26
 71
     2
 72
     2
 73
     1
 90
        2
 40
0.6
 41
30.0
 62
     5
 63
     7
421
 16777215
 74
     1
 91
       10
 64
     7
 65
   257
 75
     2
175
     1
 42
1.0
 92
        8
 66
   257
 43
1.0
 76
     1
 77
     6
 78
     2
 67
     7
 79
     3
170
     0
171
     0
290
     0
174
     0
 93
        5
 44
0.0
173
     0
291
     0
 45
0.0
  0
VISUALSTYLE
  5
3E
102
{ACAD_REACTORS
330
2A
102
}
102
{ACAD_XDICTIONARY
360
385
102
}
330
2A
100
AcDbVisualStyle
  2
Shades of Gray
 70
    23
 71
     2
 72
     2
 73
     3
 90
        0
 40
0.6
 41
30.0
 62
     5
 63
     7
421
 16777215
 74
     2
 91
        2
 64
     7
 65
     7
 75
     1
175
     1
 42
40.0
 92
        8
 66
     7
 43
1.0
 76
     1
 77
     6
 78
     2
 67
     7
 79
     3
170
     0
171
     0
290
     0
174
     0
 93
        1
 44
0.0
173
     0
291
     0
 45
0.0
  0
VISUALSTYLE
  5
3F
102
{ACAD_REACTORS
330
2A
102
}
102
{ACAD_XDICTIONARY
360
387
102
}
330
2A
100
AcDbVisualStyle
  2
Sketchy
 70
    24
 71
     1
 72
     2
 73
     2
 90
        0
 40
0.6
 41
30.0
 62
     5
 63
     7
421
 16777215
 74
     2
 91
        2
 64
     7
 65
     7
 75
     1
175
     1
 42
40.0
 92
       11
 66
     7
 43
1.0
 76
     1
 77
     6
 78
     2
 67
     7
 79
     6
170
     0
171
     0
290
     0
174
     0
 93
        1
 44
0.0
173
     0
291
     0
 45
0.0
  0
VISUALSTYLE
  5
37
102
{ACAD_REACTORS
330
2A
102
}
102
{ACAD_XDICTIONARY
360
377
102
}
330
2A
100
AcDbVisualStyle
  2
Thicken
 70
    13
 71
     2
 72
     2
 73
     0
 90
        0
 40
0.6
 41
30.0
 62
     5
 63
     7
421
 16777215
 74
     1
 91
        4
 64
     7
 65
   257
 75
     1
175
     1
 42
1.0
 92
       12
 66
     7
 43
1.0
 76
     1
 77
     6
 78
     2
 67
     7
 79
     5
170
     0
171
     0
290
     0
174
     0
 93
        1
 44
0.0
173
     0
291
     1
 45
0.0
  0
VISUALSTYLE
  5
30
102
{ACAD_REACTORS
330
2A
102
}
102
{ACAD_XDICTIONARY
360
369
102
}
330
2A
100
AcDbVisualStyle
  2
Wireframe
 70
     5
 71
     0
 72
     2
 73
     0
 90
        0
 40
0.6
 41
30.0
 62
     5
 63
     7
421
 16777215
 74
     1
 91
        4
 64
     7
 65
   257
 75
     1
175
     1
 42
1.0
 92
        0
 66
   257
 43
1.0
 76
     1
 77
     6
 78
     2
 67
     7
 79
     3
170
     0
171
     0
290
     0
174
     0
 93
        1
 44
0.0
173
     0
291
     0
 45
0.0
  0
VISUALSTYLE
  5
40
102
{ACAD_REACTORS
330
2A
102
}
102
{ACAD_XDICTIONARY
360
389
102
}
330
2A
100
AcDbVisualStyle
  2
X-Ray
 70
    25
 71
     2
 72
     2
 73
     1
 90
        1
 40
0.5
 41
30.0
 62
     5
 63
     7
421
 16777215
 74
     1
 91
        0
 64
     7
 65
   257
 75
     1
175
     1
 42
1.0
 92
        8
 66
     7
 43
1.0
 76
     1
 77
     6
 78
     2
 67
     7
 79
     3
170
     0
171
     0
290
     0
174
     0
 93
       13
 44
0.0
173
     0
291
     0
 45
0.0
  0
DICTIONARYVAR
  5
35D
102
{ACAD_REACTORS
330
35C
102
}
330
35C
100
DictionaryVariables
280
     0
  1
1:1
  0
DICTIONARYVAR
  5
395
102
{ACAD_REACTORS
330
35C
102
}
330
35C
100
DictionaryVariables
280
     0
  1
Standard
  0
DICTIONARYVAR
  5
394
102
{ACAD_REACTORS
330
35C
102
}
330
35C
100
DictionaryVariables
280
     0
  1
Standard
  0
DICTIONARYVAR
  5
35E
102
{ACAD_REACTORS
330
35C
102
}
330
35C
100
DictionaryVariables
280
     0
  1
2
  0
DICTIONARY
  5
391
330
6C
100
AcDbDictionary
280
     1
281
     1
  3
ACAD_XREC_ROUNDTRIP
360
392
  0
DICTIONARY
  5
38F
330
6A
100
AcDbDictionary
280
     1
281
     1
  3
ACAD_ROUNDTRIP_2008_TABLESTYLE_CELLSTYLEMAP
360
390
  0
DICTIONARY
  5
367
330
2F
100
AcDbDictionary
280
     1
281
     1
  3
ACAD_XREC_ROUNDTRIP
360
368
  0
DICTIONARY
  5
36D
330
32
100
AcDbDictionary
280
     1
281
     1
  3
ACAD_XREC_ROUNDTRIP
360
36E
  0
DICTIONARY
  5
375
330
36
100
AcDbDictionary
280
     1
281
     1
  3
ACAD_XREC_ROUNDTRIP
360
376
  0
DICTIONARY
  5
37D
330
3A
100
AcDbDictionary
280
     1
281
     1
  3
ACAD_XREC_ROUNDTRIP
360
37E
  0
DICTIONARY
  5
371
330
34
100
AcDbDictionary
280
     1
281
     1
  3
ACAD_XREC_ROUNDTRIP
360
372
  0
DICTIONARY
  5
373
330
35
100
AcDbDictionary
280
     1
281
     1
  3
ACAD_XREC_ROUNDTRIP
360
374
  0
DICTIONARY
  5
383
330
3D
100
AcDbDictionary
280
     1
281
     1
  3
ACAD_XREC_ROUNDTRIP
360
384
  0
DICTIONARY
  5
37B
330
39
100
AcDbDictionary
280
     1
281
     1
  3
ACAD_XREC_ROUNDTRIP
360
37C
  0
DICTIONARY
  5
35F
330
2B
100
AcDbDictionary
280
     1
281
     1
  3
ACAD_XREC_ROUNDTRIP
360
360
  0
DICTIONARY
  5
361
330
2C
100
AcDbDictionary
280
     1
281
     1
  3
ACAD_XREC_ROUNDTRIP
360
362
  0
DICTIONARY
  5
363
330
2D
100
AcDbDictionary
280
     1
281
     1
  3
ACAD_XREC_ROUNDTRIP
360
364
  0
DICTIONARY
  5
365
330
2E
100
AcDbDictionary
280
     1
281
     1
  3
ACAD_XREC_ROUNDTRIP
360
366
  0
DICTIONARY
  5
36B
330
31
100
AcDbDictionary
280
     1
281
     1
  3
ACAD_XREC_ROUNDTRIP
360
36C
  0
DICTIONARY
  5
37F
330
3B
100
AcDbDictionary
280
     1
281
     1
  3
ACAD_XREC_ROUNDTRIP
360
380
  0
DICTIONARY
  5
379
330
38
100
AcDbDictionary
280
     1
281
     1
  3
ACAD_XREC_ROUNDTRIP
360
37A
  0
DICTIONARY
  5
381
330
3C
100
AcDbDictionary
280
     1
281
     1
  3
ACAD_XREC_ROUNDTRIP
360
382
  0
DICTIONARY
  5
36F
330
33
100
AcDbDictionary
280
     1
281
     1
  3
ACAD_XREC_ROUNDTRIP
360
370
  0
DICTIONARY
  5
38D
330
42
100
AcDbDictionary
280
     1
281
     1
  3
ACAD_XREC_ROUNDTRIP
360
38E
  0
DICTIONARY
  5
38B
330
41
100
AcDbDictionary
280
     1
281
     1
  3
ACAD_XREC_ROUNDTRIP
360
38C
  0
DICTIONARY
  5
385
330
3E
100
AcDbDictionary
280
     1
281
     1
  3
ACAD_XREC_ROUNDTRIP
360
386
  0
DICTIONARY
  5
387
330
3F
100
AcDbDictionary
280
     1
281
     1
  3
ACAD_XREC_ROUNDTRIP
360
388
  0
DICTIONARY
  5
377
330
37
100
AcDbDictionary
280
     1
281
     1
  3
ACAD_XREC_ROUNDTRIP
360
378
  0
DICTIONARY
  5
369
330
30
100
AcDbDictionary
280
     1
281
     1
  3
ACAD_XREC_ROUNDTRIP
360
36A
  0
DICTIONARY
  5
389
330
40
100
AcDbDictionary
280
     1
281
     1
  3
ACAD_XREC_ROUNDTRIP
360
38A
  0
XRECORD
  5
392
102
{ACAD_REACTORS
330
391
102
}
330
391
100
AcDbXrecord
280
     1
102
ACAD_ROUNDTRIP_2010_MLEADER_STYLE
  0
CELLSTYLEMAP
  5
390
102
{ACAD_REACTORS
330
38F
102
}
330
38F
100
AcDbCellStyleMap
 90
        3
300
CELLSTYLE
  1
TABLEFORMAT_BEGIN
 90
        5
170
     1
 91
        0
 92
    32768
 62
   257
 93
        1
300
CONTENTFORMAT
  1
CONTENTFORMAT_BEGIN
 90
        0
 91
        0
 92
        4
 93
        0
300

 40
0.0
140
1.0
 94
        5
 62
     0
340
11
144
6.0
309
CONTENTFORMAT_END
171
     1
301
MARGIN
  1
CELLMARGIN_BEGIN
 40
1.5
 40
1.5
 40
1.5
 40
1.5
 40
1.5
 40
1.5
309
CELLMARGIN_END
 94
        6
 95
        1
302
GRIDFORMAT
  1
GRIDFORMAT_BEGIN
 90
        0
 91
        1
 62
     0
 92
       -2
340
14
 93
        0
 40
0.045
309
GRIDFORMAT_END
 95
        2
302
GRIDFORMAT
  1
GRIDFORMAT_BEGIN
 90
        0
 91
        1
 62
     0
 92
       -2
340
14
 93
        0
 40
0.045
309
GRIDFORMAT_END
 95
        4
302
GRIDFORMAT
  1
GRIDFORMAT_BEGIN
 90
        0
 91
        1
 62
     0
 92
       -2
340
14
 93
        0
 40
0.045
309
GRIDFORMAT_END
 95
        8
302
GRIDFORMAT
  1
GRIDFORMAT_BEGIN
 90
        0
 91
        1
 62
     0
 92
       -2
340
14
 93
        0
 40
0.045
309
GRIDFORMAT_END
 95
       16
302
GRIDFORMAT
  1
GRIDFORMAT_BEGIN
 90
        0
 91
        1
 62
     0
 92
       -2
340
14
 93
        0
 40
0.045
309
GRIDFORMAT_END
 95
       32
302
GRIDFORMAT
  1
GRIDFORMAT_BEGIN
 90
        0
 91
        1
 62
     0
 92
       -2
340
14
 93
        0
 40
0.045
309
GRIDFORMAT_END
309
TABLEFORMAT_END
  1
CELLSTYLE_BEGIN
 90
        1
 91
        1
300
_TITLE
309
CELLSTYLE_END
300
CELLSTYLE
  1
TABLEFORMAT_BEGIN
 90
        5
170
     1
 91
        0
 92
        0
 62
   257
 93
        1
300
CONTENTFORMAT
  1
CONTENTFORMAT_BEGIN
 90
        0
 91
        0
 92
        4
 93
        0
300

 40
0.0
140
1.0
 94
        5
 62
     0
340
11
144
4.5
309
CONTENTFORMAT_END
171
     1
301
MARGIN
  1
CELLMARGIN_BEGIN
 40
1.5
 40
1.5
 40
1.5
 40
1.5
 40
1.5
 40
1.5
309
CELLMARGIN_END
 94
        6
 95
        1
302
GRIDFORMAT
  1
GRIDFORMAT_BEGIN
 90
        0
 91
        1
 62
     0
 92
       -2
340
14
 93
        0
 40
0.045
309
GRIDFORMAT_END
 95
        2
302
GRIDFORMAT
  1
GRIDFORMAT_BEGIN
 90
        0
 91
        1
 62
     0
 92
       -2
340
14
 93
        0
 40
0.045
309
GRIDFORMAT_END
 95
        4
302
GRIDFORMAT
  1
GRIDFORMAT_BEGIN
 90
        0
 91
        1
 62
     0
 92
       -2
340
14
 93
        0
 40
0.045
309
GRIDFORMAT_END
 95
        8
302
GRIDFORMAT
  1
GRIDFORMAT_BEGIN
 90
        0
 91
        1
 62
     0
 92
       -2
340
14
 93
        0
 40
0.045
309
GRIDFORMAT_END
 95
       16
302
GRIDFORMAT
  1
GRIDFORMAT_BEGIN
 90
        0
 91
        1
 62
     0
 92
       -2
340
14
 93
        0
 40
0.045
309
GRIDFORMAT_END
 95
       32
302
GRIDFORMAT
  1
GRIDFORMAT_BEGIN
 90
        0
 91
        1
 62
     0
 92
       -2
340
14
 93
        0
 40
0.045
309
GRIDFORMAT_END
309
TABLEFORMAT_END
  1
CELLSTYLE_BEGIN
 90
        2
 91
        1
300
_HEADER
309
CELLSTYLE_END
300
CELLSTYLE
  1
TABLEFORMAT_BEGIN
 90
        5
170
     1
 91
        0
 92
        0
 62
   257
 93
        1
300
CONTENTFORMAT
  1
CONTENTFORMAT_BEGIN
 90
        0
 91
        0
 92
        4
 93
        0
300

 40
0.0
140
1.0
 94
        2
 62
     0
340
11
144
4.5
309
CONTENTFORMAT_END
171
     1
301
MARGIN
  1
CELLMARGIN_BEGIN
 40
1.5
 40
1.5
 40
1.5
 40
1.5
 40
1.5
 40
1.5
309
CELLMARGIN_END
 94
        6
 95
        1
302
GRIDFORMAT
  1
GRIDFORMAT_BEGIN
 90
        0
 91
        1
 62
     0
 92
       -2
340
14
 93
        0
 40
0.045
309
GRIDFORMAT_END
 95
        2
302
GRIDFORMAT
  1
GRIDFORMAT_BEGIN
 90
        0
 91
        1
 62
     0
 92
       -2
340
14
 93
        0
 40
0.045
309
GRIDFORMAT_END
 95
        4
302
GRIDFORMAT
  1
GRIDFORMAT_BEGIN
 90
        0
 91
        1
 62
     0
 92
       -2
340
14
 93
        0
 40
0.045
309
GRIDFORMAT_END
 95
        8
302
GRIDFORMAT
  1
GRIDFORMAT_BEGIN
 90
        0
 91
        1
 62
     0
 92
       -2
340
14
 93
        0
 40
0.045
309
GRIDFORMAT_END
 95
       16
302
GRIDFORMAT
  1
GRIDFORMAT_BEGIN
 90
        0
 91
        1
 62
     0
 92
       -2
340
14
 93
        0
 40
0.045
309
GRIDFORMAT_END
 95
       32
302
GRIDFORMAT
  1
GRIDFORMAT_BEGIN
 90
        0
 91
        1
 62
     0
 92
       -2
340
14
 93
        0
 40
0.045
309
GRIDFORMAT_END
309
TABLEFORMAT_END
  1
CELLSTYLE_BEGIN
 90
        3
 91
        2
300
_DATA
309
CELLSTYLE_END
  0
XRECORD
  5
368
102
{ACAD_REACTORS
330
367
102
}
330
367
100
AcDbXrecord
280
     1
102
RTVSPropertyOp0
 70
     1
102
RTVSPropertyOp1
 70
     1
102
RTVSPropertyOp2
 70
     1
102
RTVSPropertyOp3
 70
     1
102
RTVSPropertyOp4
 70
     1
102
RTVSPropertyOp5
 70
     1
102
RTVSPropertyOp6
 70
     1
102
RTVSPropertyOp7
 70
     1
102
RTVSPropertyOp8
 70
     1
102
RTVSPropertyOp9
 70
     1
102
RTVSPropertyOp10
 70
     1
102
RTVSPropertyOp11
 70
     1
102
RTVSPropertyOp12
 70
     1
102
RTVSPropertyOp13
 70
     1
102
RTVSPropertyOp14
 70
     1
102
RTVSPropertyOp15
 70
     1
102
RTVSPropertyOp16
 70
     1
102
RTVSPropertyOp17
 70
     1
102
RTVSPropertyOp18
 70
     1
102
RTVSPropertyOp19
 70
     1
102
RTVSPropertyOp20
 70
     1
102
RTVSPropertyOp21
 70
     1
102
RTVSPropertyOp22
 70
     1
102
RTVSPropertyOp23
 70
     1
102
RTVSPropertyOp24
 70
     1
102
RTVSPropertyOp25
 70
     1
102
RTVSPropertyOp26
 70
     1
102
RTVSPropertyOp27
 70
     1
102
RTVSPropertyOp28
 70
     1
102
RTVSPropertyOp29
 70
     1
102
RTVSPropertyOp30
 70
     1
102
RTVSPropertyOp31
 70
     1
102
RTVSPropertyOp32
 70
     1
102
RTVSPropertyOp33
 70
     1
102
RTVSPropertyOp34
 70
     1
102
RTVSPropertyOp35
 70
     1
102
RTVSPropertyOp36
 70
     1
102
RTVSPropertyOp37
 70
     1
102
RTVSPropertyOp38
 70
     1
102
RTVSPropertyOp39
 70
     1
102
RTVSPropertyOp40
 70
     1
102
RTVSPropertyOp41
 70
     1
102
RTVSPropertyOp42
 70
     1
102
RTVSPropertyOp43
 70
     1
102
RTVSPropertyOp44
 70
     1
102
RTVSPropertyOp45
 70
     1
102
RTVSPropertyOp46
 70
     1
102
RTVSPropertyOp47
 70
     1
102
RTVSPropertyOp48
 70
     1
102
RTVSPropertyOp49
 70
     1
102
RTVSPropertyOp50
 70
     1
102
RTVSPropertyOp51
 70
     0
102
RTVSPropertyOp52
 70
     0
102
RTVSPropertyOp53
 70
     1
102
RTVSPropertyOp54
 70
     1
102
RTVSPropertyOp55
 70
     1
102
RTVSPropertyOp56
 70
     1
102
RTVSPropertyOp57
 70
     1
102
RTVSPost2010Prop28
280
     1
102
RTVSPost2010PropOp28
 70
     1
102
RTVSPost2010Prop29
280
     1
102
RTVSPost2010PropOp29
 70
     1
102
RTVSPost2010Prop30
280
     0
102
RTVSPost2010PropOp30
 70
     1
102
RTVSPost2010Prop31
280
     0
102
RTVSPost2010PropOp31
 70
     1
102
RTVSPost2010Prop32
280
     0
102
RTVSPost2010PropOp32
 70
     1
102
RTVSPost2010Prop33
280
     0
102
RTVSPost2010PropOp33
 70
     1
102
RTVSPost2010Prop34
280
     0
102
RTVSPost2010PropOp34
 70
     1
102
RTVSPost2010Prop35
280
     0
102
RTVSPost2010PropOp35
 70
     1
102
RTVSPost2010Prop36
280
     0
102
RTVSPost2010PropOp36
 70
     1
102
RTVSPost2010Prop37
 90
       50
102
RTVSPost2010PropOp37
 70
     1
102
RTVSPost2010Prop38
140
0.0
102
RTVSPost2010PropOp38
 70
     1
102
RTVSPost2010Prop39
140
1.0
102
RTVSPost2010PropOp39
 70
     1
102
RTVSPost2010Prop40
 90
        0
102
RTVSPost2010PropOp40
 70
     1
102
RTVSPost2010Prop41ColorIndex
 90
       18
102
RTVSPost2010Prop41ColorRGB
 90
        0
102
RTVSPost2010PropOp41
 70
     1
102
RTVSPost2010Prop42
 90
       50
102
RTVSPost2010PropOp42
 70
     1
102
RTVSPost2010Prop43
 90
        3
102
RTVSPost2010PropOp43
 70
     1
102
RTVSPost2010Prop44ColorIndex
 90
        5
102
RTVSPost2010Prop44ColorRGB
 90
      255
102
RTVSPost2010PropOp44
 70
     1
102
RTVSPost2010Prop45
280
     0
102
RTVSPost2010PropOp45
 70
     1
102
RTVSPost2010Prop46
 90
       50
102
RTVSPost2010PropOp46
 70
     1
102
RTVSPost2010Prop47
 90
       50
102
RTVSPost2010PropOp47
 70
     1
102
RTVSPost2010Prop48
 90
       50
102
RTVSPost2010PropOp48
 70
     1
102
RTVSPost2010Prop49
280
     0
102
RTVSPost2010PropOp49
 70
     1
102
RTVSPost2010Prop50
 90
       50
102
RTVSPost2010PropOp50
 70
     1
102
RTVSPost2010Prop51ColorIndex
 90
      256
102
RTVSPost2010Prop51ColorRGB
 90
-16777216
102
RTVSPost2010PropOp51
 70
     0
102
RTVSPost2010Prop52
140
1.0
102
RTVSPost2010PropOp52
 70
     0
102
RTVSPost2010Prop53
 90
        2
102
RTVSPost2010PropOp53
 70
     1
102
RTVSPost2010Prop54
  1
strokes_ogs.tif
102
RTVSPost2010PropOp54
 70
     1
102
RTVSPost2010Prop55
280
     0
102
RTVSPost2010PropOp55
 70
     1
102
RTVSPost2010Prop56
140
1.0
102
RTVSPost2010PropOp56
 70
     1
102
RTVSPost2010Prop57
140
1.0
102
RTVSPost2010PropOp57
 70
     1
  0
XRECORD
  5
36E
102
{ACAD_REACTORS
330
36D
102
}
330
36D
100
AcDbXrecord
280
     1
102
RTVSPropertyOp0
 70
     1
102
RTVSPropertyOp1
 70
     1
102
RTVSPropertyOp2
 70
     1
102
RTVSPropertyOp3
 70
     1
102
RTVSPropertyOp4
 70
     1
102
RTVSPropertyOp5
 70
     1
102
RTVSPropertyOp6
 70
     1
102
RTVSPropertyOp7
 70
     1
102
RTVSPropertyOp8
 70
     1
102
RTVSPropertyOp9
 70
     1
102
RTVSPropertyOp10
 70
     1
102
RTVSPropertyOp11
 70
     1
102
RTVSPropertyOp12
 70
     1
102
RTVSPropertyOp13
 70
     1
102
RTVSPropertyOp14
 70
     1
102
RTVSPropertyOp15
 70
     1
102
RTVSPropertyOp16
 70
     1
102
RTVSPropertyOp17
 70
     1
102
RTVSPropertyOp18
 70
     1
102
RTVSPropertyOp19
 70
     1
102
RTVSPropertyOp20
 70
     1
102
RTVSPropertyOp21
 70
     1
102
RTVSPropertyOp22
 70
     1
102
RTVSPropertyOp23
 70
     1
102
RTVSPropertyOp24
 70
     1
102
RTVSPropertyOp25
 70
     1
102
RTVSPropertyOp26
 70
     1
102
RTVSPropertyOp27
 70
     1
102
RTVSPropertyOp28
 70
     1
102
RTVSPropertyOp29
 70
     1
102
RTVSPropertyOp30
 70
     1
102
RTVSPropertyOp31
 70
     1
102
RTVSPropertyOp32
 70
     1
102
RTVSPropertyOp33
 70
     1
102
RTVSPropertyOp34
 70
     1
102
RTVSPropertyOp35
 70
     1
102
RTVSPropertyOp36
 70
     1
102
RTVSPropertyOp37
 70
     1
102
RTVSPropertyOp38
 70
     1
102
RTVSPropertyOp39
 70
     1
102
RTVSPropertyOp40
 70
     1
102
RTVSPropertyOp41
 70
     1
102
RTVSPropertyOp42
 70
     1
102
RTVSPropertyOp43
 70
     1
102
RTVSPropertyOp44
 70
     1
102
RTVSPropertyOp45
 70
     1
102
RTVSPropertyOp46
 70
     1
102
RTVSPropertyOp47
 70
     1
102
RTVSPropertyOp48
 70
     1
102
RTVSPropertyOp49
 70
     1
102
RTVSPropertyOp50
 70
     1
102
RTVSPropertyOp51
 70
     0
102
RTVSPropertyOp52
 70
     0
102
RTVSPropertyOp53
 70
     1
102
RTVSPropertyOp54
 70
     1
102
RTVSPropertyOp55
 70
     1
102
RTVSPropertyOp56
 70
     1
102
RTVSPropertyOp57
 70
     1
102
RTVSPost2010Prop28
280
     0
102
RTVSPost2010PropOp28
 70
     1
102
RTVSPost2010Prop29
280
     1
102
RTVSPost2010PropOp29
 70
     1
102
RTVSPost2010Prop30
280
     1
102
RTVSPost2010PropOp30
 70
     1
102
RTVSPost2010Prop31
280
     0
102
RTVSPost2010PropOp31
 70
     1
102
RTVSPost2010Prop32
280
     0
102
RTVSPost2010PropOp32
 70
     1
102
RTVSPost2010Prop33
280
     0
102
RTVSPost2010PropOp33
 70
     1
102
RTVSPost2010Prop34
280
     0
102
RTVSPost2010PropOp34
 70
     1
102
RTVSPost2010Prop35
280
     0
102
RTVSPost2010PropOp35
 70
     1
102
RTVSPost2010Prop36
280
     0
102
RTVSPost2010PropOp36
 70
     1
102
RTVSPost2010Prop37
 90
       50
102
RTVSPost2010PropOp37
 70
     1
102
RTVSPost2010Prop38
140
0.0
102
RTVSPost2010PropOp38
 70
     1
102
RTVSPost2010Prop39
140
1.0
102
RTVSPost2010PropOp39
 70
     1
102
RTVSPost2010Prop40
 90
        0
102
RTVSPost2010PropOp40
 70
     1
102
RTVSPost2010Prop41ColorIndex
 90
       18
102
RTVSPost2010Prop41ColorRGB
 90
        0
102
RTVSPost2010PropOp41
 70
     1
102
RTVSPost2010Prop42
 90
       50
102
RTVSPost2010PropOp42
 70
     1
102
RTVSPost2010Prop43
 90
        3
102
RTVSPost2010PropOp43
 70
     1
102
RTVSPost2010Prop44ColorIndex
 90
        5
102
RTVSPost2010Prop44ColorRGB
 90
      255
102
RTVSPost2010PropOp44
 70
     1
102
RTVSPost2010Prop45
280
     0
102
RTVSPost2010PropOp45
 70
     1
102
RTVSPost2010Prop46
 90
       50
102
RTVSPost2010PropOp46
 70
     1
102
RTVSPost2010Prop47
 90
       50
102
RTVSPost2010PropOp47
 70
     1
102
RTVSPost2010Prop48
 90
       50
102
RTVSPost2010PropOp48
 70
     1
102
RTVSPost2010Prop49
280
     0
102
RTVSPost2010PropOp49
 70
     1
102
RTVSPost2010Prop50
 90
       50
102
RTVSPost2010PropOp50
 70
     1
102
RTVSPost2010Prop51ColorIndex
 90
      256
102
RTVSPost2010Prop51ColorRGB
 90
-16777216
102
RTVSPost2010PropOp51
 70
     0
102
RTVSPost2010Prop52
140
1.0
102
RTVSPost2010PropOp52
 70
     0
102
RTVSPost2010Prop53
 90
        2
102
RTVSPost2010PropOp53
 70
     1
102
RTVSPost2010Prop54
  1
strokes_ogs.tif
102
RTVSPost2010PropOp54
 70
     1
102
RTVSPost2010Prop55
280
     0
102
RTVSPost2010PropOp55
 70
     1
102
RTVSPost2010Prop56
140
1.0
102
RTVSPost2010PropOp56
 70
     1
102
RTVSPost2010Prop57
140
1.0
102
RTVSPost2010PropOp57
 70
     1
  0
XRECORD
  5
376
102
{ACAD_REACTORS
330
375
102
}
330
375
100
AcDbXrecord
280
     1
102
RTVSPropertyOp0
 70
     1
102
RTVSPropertyOp1
 70
     1
102
RTVSPropertyOp2
 70
     1
102
RTVSPropertyOp3
 70
     1
102
RTVSPropertyOp4
 70
     1
102
RTVSPropertyOp5
 70
     1
102
RTVSPropertyOp6
 70
     1
102
RTVSPropertyOp7
 70
     1
102
RTVSPropertyOp8
 70
     1
102
RTVSPropertyOp9
 70
     1
102
RTVSPropertyOp10
 70
     1
102
RTVSPropertyOp11
 70
     1
102
RTVSPropertyOp12
 70
     1
102
RTVSPropertyOp13
 70
     1
102
RTVSPropertyOp14
 70
     1
102
RTVSPropertyOp15
 70
     1
102
RTVSPropertyOp16
 70
     1
102
RTVSPropertyOp17
 70
     1
102
RTVSPropertyOp18
 70
     1
102
RTVSPropertyOp19
 70
     1
102
RTVSPropertyOp20
 70
     1
102
RTVSPropertyOp21
 70
     1
102
RTVSPropertyOp22
 70
     1
102
RTVSPropertyOp23
 70
     1
102
RTVSPropertyOp24
 70
     1
102
RTVSPropertyOp25
 70
     1
102
RTVSPropertyOp26
 70
     1
102
RTVSPropertyOp27
 70
     1
102
RTVSPropertyOp28
 70
     1
102
RTVSPropertyOp29
 70
     1
102
RTVSPropertyOp30
 70
     1
102
RTVSPropertyOp31
 70
     1
102
RTVSPropertyOp32
 70
     1
102
RTVSPropertyOp33
 70
     1
102
RTVSPropertyOp34
 70
     1
102
RTVSPropertyOp35
 70
     1
102
RTVSPropertyOp36
 70
     1
102
RTVSPropertyOp37
 70
     1
102
RTVSPropertyOp38
 70
     1
102
RTVSPropertyOp39
 70
     1
102
RTVSPropertyOp40
 70
     1
102
RTVSPropertyOp41
 70
     1
102
RTVSPropertyOp42
 70
     1
102
RTVSPropertyOp43
 70
     1
102
RTVSPropertyOp44
 70
     1
102
RTVSPropertyOp45
 70
     1
102
RTVSPropertyOp46
 70
     1
102
RTVSPropertyOp47
 70
     1
102
RTVSPropertyOp48
 70
     1
102
RTVSPropertyOp49
 70
     1
102
RTVSPropertyOp50
 70
     1
102
RTVSPropertyOp51
 70
     0
102
RTVSPropertyOp52
 70
     0
102
RTVSPropertyOp53
 70
     1
102
RTVSPropertyOp54
 70
     1
102
RTVSPropertyOp55
 70
     1
102
RTVSPropertyOp56
 70
     1
102
RTVSPropertyOp57
 70
     1
102
RTVSPost2010Prop28
280
     0
102
RTVSPost2010PropOp28
 70
     1
102
RTVSPost2010Prop29
280
     1
102
RTVSPost2010PropOp29
 70
     1
102
RTVSPost2010Prop30
280
     1
102
RTVSPost2010PropOp30
 70
     1
102
RTVSPost2010Prop31
280
     0
102
RTVSPost2010PropOp31
 70
     1
102
RTVSPost2010Prop32
280
     0
102
RTVSPost2010PropOp32
 70
     1
102
RTVSPost2010Prop33
280
     0
102
RTVSPost2010PropOp33
 70
     1
102
RTVSPost2010Prop34
280
     0
102
RTVSPost2010PropOp34
 70
     1
102
RTVSPost2010Prop35
280
     0
102
RTVSPost2010PropOp35
 70
     1
102
RTVSPost2010Prop36
280
     0
102
RTVSPost2010PropOp36
 70
     1
102
RTVSPost2010Prop37
 90
       50
102
RTVSPost2010PropOp37
 70
     1
102
RTVSPost2010Prop38
140
0.0
102
RTVSPost2010PropOp38
 70
     1
102
RTVSPost2010Prop39
140
1.0
102
RTVSPost2010PropOp39
 70
     1
102
RTVSPost2010Prop40
 90
        0
102
RTVSPost2010PropOp40
 70
     1
102
RTVSPost2010Prop41ColorIndex
 90
       18
102
RTVSPost2010Prop41ColorRGB
 90
        0
102
RTVSPost2010PropOp41
 70
     1
102
RTVSPost2010Prop42
 90
       50
102
RTVSPost2010PropOp42
 70
     1
102
RTVSPost2010Prop43
 90
        3
102
RTVSPost2010PropOp43
 70
     1
102
RTVSPost2010Prop44ColorIndex
 90
        5
102
RTVSPost2010Prop44ColorRGB
 90
      255
102
RTVSPost2010PropOp44
 70
     1
102
RTVSPost2010Prop45
280
     0
102
RTVSPost2010PropOp45
 70
     1
102
RTVSPost2010Prop46
 90
       50
102
RTVSPost2010PropOp46
 70
     1
102
RTVSPost2010Prop47
 90
       50
102
RTVSPost2010PropOp47
 70
     1
102
RTVSPost2010Prop48
 90
       50
102
RTVSPost2010PropOp48
 70
     1
102
RTVSPost2010Prop49
280
     0
102
RTVSPost2010PropOp49
 70
     1
102
RTVSPost2010Prop50
 90
       50
102
RTVSPost2010PropOp50
 70
     1
102
RTVSPost2010Prop51ColorIndex
 90
      256
102
RTVSPost2010Prop51ColorRGB
 90
-16777216
102
RTVSPost2010PropOp51
 70
     0
102
RTVSPost2010Prop52
140
1.0
102
RTVSPost2010PropOp52
 70
     0
102
RTVSPost2010Prop53
 90
        2
102
RTVSPost2010PropOp53
 70
     1
102
RTVSPost2010Prop54
  1
strokes_ogs.tif
102
RTVSPost2010PropOp54
 70
     1
102
RTVSPost2010Prop55
280
     0
102
RTVSPost2010PropOp55
 70
     1
102
RTVSPost2010Prop56
140
1.0
102
RTVSPost2010PropOp56
 70
     1
102
RTVSPost2010Prop57
140
1.0
102
RTVSPost2010PropOp57
 70
     1
  0
XRECORD
  5
37E
102
{ACAD_REACTORS
330
37D
102
}
330
37D
100
AcDbXrecord
280
     1
102
RTVSPropertyOp0
 70
     1
102
RTVSPropertyOp1
 70
     1
102
RTVSPropertyOp2
 70
     1
102
RTVSPropertyOp3
 70
     1
102
RTVSPropertyOp4
 70
     1
102
RTVSPropertyOp5
 70
     1
102
RTVSPropertyOp6
 70
     1
102
RTVSPropertyOp7
 70
     1
102
RTVSPropertyOp8
 70
     1
102
RTVSPropertyOp9
 70
     1
102
RTVSPropertyOp10
 70
     1
102
RTVSPropertyOp11
 70
     1
102
RTVSPropertyOp12
 70
     1
102
RTVSPropertyOp13
 70
     1
102
RTVSPropertyOp14
 70
     1
102
RTVSPropertyOp15
 70
     1
102
RTVSPropertyOp16
 70
     1
102
RTVSPropertyOp17
 70
     1
102
RTVSPropertyOp18
 70
     1
102
RTVSPropertyOp19
 70
     1
102
RTVSPropertyOp20
 70
     1
102
RTVSPropertyOp21
 70
     1
102
RTVSPropertyOp22
 70
     1
102
RTVSPropertyOp23
 70
     1
102
RTVSPropertyOp24
 70
     1
102
RTVSPropertyOp25
 70
     1
102
RTVSPropertyOp26
 70
     1
102
RTVSPropertyOp27
 70
     1
102
RTVSPropertyOp28
 70
     1
102
RTVSPropertyOp29
 70
     1
102
RTVSPropertyOp30
 70
     1
102
RTVSPropertyOp31
 70
     1
102
RTVSPropertyOp32
 70
     1
102
RTVSPropertyOp33
 70
     1
102
RTVSPropertyOp34
 70
     1
102
RTVSPropertyOp35
 70
     1
102
RTVSPropertyOp36
 70
     1
102
RTVSPropertyOp37
 70
     1
102
RTVSPropertyOp38
 70
     1
102
RTVSPropertyOp39
 70
     1
102
RTVSPropertyOp40
 70
     1
102
RTVSPropertyOp41
 70
     1
102
RTVSPropertyOp42
 70
     1
102
RTVSPropertyOp43
 70
     1
102
RTVSPropertyOp44
 70
     1
102
RTVSPropertyOp45
 70
     1
102
RTVSPropertyOp46
 70
     1
102
RTVSPropertyOp47
 70
     1
102
RTVSPropertyOp48
 70
     1
102
RTVSPropertyOp49
 70
     1
102
RTVSPropertyOp50
 70
     1
102
RTVSPropertyOp51
 70
     0
102
RTVSPropertyOp52
 70
     0
102
RTVSPropertyOp53
 70
     1
102
RTVSPropertyOp54
 70
     1
102
RTVSPropertyOp55
 70
     1
102
RTVSPropertyOp56
 70
     1
102
RTVSPropertyOp57
 70
     1
102
RTVSPost2010Prop28
280
     0
102
RTVSPost2010PropOp28
 70
     1
102
RTVSPost2010Prop29
280
     1
102
RTVSPost2010PropOp29
 70
     1
102
RTVSPost2010Prop30
280
     1
102
RTVSPost2010PropOp30
 70
     1
102
RTVSPost2010Prop31
280
     0
102
RTVSPost2010PropOp31
 70
     1
102
RTVSPost2010Prop32
280
     0
102
RTVSPost2010PropOp32
 70
     1
102
RTVSPost2010Prop33
280
     0
102
RTVSPost2010PropOp33
 70
     1
102
RTVSPost2010Prop34
280
     0
102
RTVSPost2010PropOp34
 70
     1
102
RTVSPost2010Prop35
280
     0
102
RTVSPost2010PropOp35
 70
     1
102
RTVSPost2010Prop36
280
     0
102
RTVSPost2010PropOp36
 70
     1
102
RTVSPost2010Prop37
 90
       50
102
RTVSPost2010PropOp37
 70
     1
102
RTVSPost2010Prop38
140
0.0
102
RTVSPost2010PropOp38
 70
     1
102
RTVSPost2010Prop39
140
1.0
102
RTVSPost2010PropOp39
 70
     1
102
RTVSPost2010Prop40
 90
        0
102
RTVSPost2010PropOp40
 70
     1
102
RTVSPost2010Prop41ColorIndex
 90
       18
102
RTVSPost2010Prop41ColorRGB
 90
        0
102
RTVSPost2010PropOp41
 70
     1
102
RTVSPost2010Prop42
 90
       50
102
RTVSPost2010PropOp42
 70
     1
102
RTVSPost2010Prop43
 90
        3
102
RTVSPost2010PropOp43
 70
     1
102
RTVSPost2010Prop44ColorIndex
 90
        5
102
RTVSPost2010Prop44ColorRGB
 90
      255
102
RTVSPost2010PropOp44
 70
     1
102
RTVSPost2010Prop45
280
     0
102
RTVSPost2010PropOp45
 70
     1
102
RTVSPost2010Prop46
 90
       50
102
RTVSPost2010PropOp46
 70
     1
102
RTVSPost2010Prop47
 90
       50
102
RTVSPost2010PropOp47
 70
     1
102
RTVSPost2010Prop48
 90
       50
102
RTVSPost2010PropOp48
 70
     1
102
RTVSPost2010Prop49
280
     0
102
RTVSPost2010PropOp49
 70
     1
102
RTVSPost2010Prop50
 90
       50
102
RTVSPost2010PropOp50
 70
     1
102
RTVSPost2010Prop51ColorIndex
 90
      256
102
RTVSPost2010Prop51ColorRGB
 90
-16777216
102
RTVSPost2010PropOp51
 70
     0
102
RTVSPost2010Prop52
140
1.0
102
RTVSPost2010PropOp52
 70
     0
102
RTVSPost2010Prop53
 90
        2
102
RTVSPost2010PropOp53
 70
     1
102
RTVSPost2010Prop54
  1
strokes_ogs.tif
102
RTVSPost2010PropOp54
 70
     1
102
RTVSPost2010Prop55
280
     0
102
RTVSPost2010PropOp55
 70
     1
102
RTVSPost2010Prop56
140
1.0
102
RTVSPost2010PropOp56
 70
     1
102
RTVSPost2010Prop57
140
1.0
102
RTVSPost2010PropOp57
 70
     1
  0
XRECORD
  5
372
102
{ACAD_REACTORS
330
371
102
}
330
371
100
AcDbXrecord
280
     1
102
RTVSPropertyOp0
 70
     1
102
RTVSPropertyOp1
 70
     1
102
RTVSPropertyOp2
 70
     1
102
RTVSPropertyOp3
 70
     1
102
RTVSPropertyOp4
 70
     1
102
RTVSPropertyOp5
 70
     1
102
RTVSPropertyOp6
 70
     1
102
RTVSPropertyOp7
 70
     1
102
RTVSPropertyOp8
 70
     1
102
RTVSPropertyOp9
 70
     1
102
RTVSPropertyOp10
 70
     1
102
RTVSPropertyOp11
 70
     1
102
RTVSPropertyOp12
 70
     1
102
RTVSPropertyOp13
 70
     1
102
RTVSPropertyOp14
 70
     1
102
RTVSPropertyOp15
 70
     1
102
RTVSPropertyOp16
 70
     1
102
RTVSPropertyOp17
 70
     1
102
RTVSPropertyOp18
 70
     1
102
RTVSPropertyOp19
 70
     1
102
RTVSPropertyOp20
 70
     1
102
RTVSPropertyOp21
 70
     1
102
RTVSPropertyOp22
 70
     1
102
RTVSPropertyOp23
 70
     1
102
RTVSPropertyOp24
 70
     1
102
RTVSPropertyOp25
 70
     1
102
RTVSPropertyOp26
 70
     1
102
RTVSPropertyOp27
 70
     1
102
RTVSPropertyOp28
 70
     1
102
RTVSPropertyOp29
 70
     1
102
RTVSPropertyOp30
 70
     1
102
RTVSPropertyOp31
 70
     1
102
RTVSPropertyOp32
 70
     1
102
RTVSPropertyOp33
 70
     1
102
RTVSPropertyOp34
 70
     1
102
RTVSPropertyOp35
 70
     1
102
RTVSPropertyOp36
 70
     1
102
RTVSPropertyOp37
 70
     1
102
RTVSPropertyOp38
 70
     1
102
RTVSPropertyOp39
 70
     1
102
RTVSPropertyOp40
 70
     1
102
RTVSPropertyOp41
 70
     1
102
RTVSPropertyOp42
 70
     1
102
RTVSPropertyOp43
 70
     1
102
RTVSPropertyOp44
 70
     1
102
RTVSPropertyOp45
 70
     1
102
RTVSPropertyOp46
 70
     1
102
RTVSPropertyOp47
 70
     1
102
RTVSPropertyOp48
 70
     1
102
RTVSPropertyOp49
 70
     1
102
RTVSPropertyOp50
 70
     1
102
RTVSPropertyOp51
 70
     0
102
RTVSPropertyOp52
 70
     0
102
RTVSPropertyOp53
 70
     1
102
RTVSPropertyOp54
 70
     1
102
RTVSPropertyOp55
 70
     1
102
RTVSPropertyOp56
 70
     1
102
RTVSPropertyOp57
 70
     1
102
RTVSPost2010Prop28
280
     0
102
RTVSPost2010PropOp28
 70
     1
102
RTVSPost2010Prop29
280
     1
102
RTVSPost2010PropOp29
 70
     1
102
RTVSPost2010Prop30
280
     1
102
RTVSPost2010PropOp30
 70
     1
102
RTVSPost2010Prop31
280
     0
102
RTVSPost2010PropOp31
 70
     1
102
RTVSPost2010Prop32
280
     0
102
RTVSPost2010PropOp32
 70
     1
102
RTVSPost2010Prop33
280
     0
102
RTVSPost2010PropOp33
 70
     1
102
RTVSPost2010Prop34
280
     0
102
RTVSPost2010PropOp34
 70
     1
102
RTVSPost2010Prop35
280
     0
102
RTVSPost2010PropOp35
 70
     1
102
RTVSPost2010Prop36
280
     0
102
RTVSPost2010PropOp36
 70
     1
102
RTVSPost2010Prop37
 90
       50
102
RTVSPost2010PropOp37
 70
     1
102
RTVSPost2010Prop38
140
0.0
102
RTVSPost2010PropOp38
 70
     1
102
RTVSPost2010Prop39
140
1.0
102
RTVSPost2010PropOp39
 70
     1
102
RTVSPost2010Prop40
 90
        0
102
RTVSPost2010PropOp40
 70
     1
102
RTVSPost2010Prop41ColorIndex
 90
       18
102
RTVSPost2010Prop41ColorRGB
 90
        0
102
RTVSPost2010PropOp41
 70
     1
102
RTVSPost2010Prop42
 90
       50
102
RTVSPost2010PropOp42
 70
     1
102
RTVSPost2010Prop43
 90
        3
102
RTVSPost2010PropOp43
 70
     1
102
RTVSPost2010Prop44ColorIndex
 90
        5
102
RTVSPost2010Prop44ColorRGB
 90
      255
102
RTVSPost2010PropOp44
 70
     1
102
RTVSPost2010Prop45
280
     0
102
RTVSPost2010PropOp45
 70
     1
102
RTVSPost2010Prop46
 90
       50
102
RTVSPost2010PropOp46
 70
     1
102
RTVSPost2010Prop47
 90
       50
102
RTVSPost2010PropOp47
 70
     1
102
RTVSPost2010Prop48
 90
       50
102
RTVSPost2010PropOp48
 70
     1
102
RTVSPost2010Prop49
280
     0
102
RTVSPost2010PropOp49
 70
     1
102
RTVSPost2010Prop50
 90
       50
102
RTVSPost2010PropOp50
 70
     1
102
RTVSPost2010Prop51ColorIndex
 90
      256
102
RTVSPost2010Prop51ColorRGB
 90
-16777216
102
RTVSPost2010PropOp51
 70
     0
102
RTVSPost2010Prop52
140
1.0
102
RTVSPost2010PropOp52
 70
     0
102
RTVSPost2010Prop53
 90
        2
102
RTVSPost2010PropOp53
 70
     1
102
RTVSPost2010Prop54
  1
strokes_ogs.tif
102
RTVSPost2010PropOp54
 70
     1
102
RTVSPost2010Prop55
280
     0
102
RTVSPost2010PropOp55
 70
     1
102
RTVSPost2010Prop56
140
1.0
102
RTVSPost2010PropOp56
 70
     1
102
RTVSPost2010Prop57
140
1.0
102
RTVSPost2010PropOp57
 70
     1
  0
XRECORD
  5
374
102
{ACAD_REACTORS
330
373
102
}
330
373
100
AcDbXrecord
280
     1
102
RTVSPropertyOp0
 70
     1
102
RTVSPropertyOp1
 70
     1
102
RTVSPropertyOp2
 70
     1
102
RTVSPropertyOp3
 70
     1
102
RTVSPropertyOp4
 70
     1
102
RTVSPropertyOp5
 70
     1
102
RTVSPropertyOp6
 70
     1
102
RTVSPropertyOp7
 70
     1
102
RTVSPropertyOp8
 70
     1
102
RTVSPropertyOp9
 70
     1
102
RTVSPropertyOp10
 70
     1
102
RTVSPropertyOp11
 70
     1
102
RTVSPropertyOp12
 70
     1
102
RTVSPropertyOp13
 70
     1
102
RTVSPropertyOp14
 70
     1
102
RTVSPropertyOp15
 70
     1
102
RTVSPropertyOp16
 70
     1
102
RTVSPropertyOp17
 70
     1
102
RTVSPropertyOp18
 70
     1
102
RTVSPropertyOp19
 70
     1
102
RTVSPropertyOp20
 70
     1
102
RTVSPropertyOp21
 70
     1
102
RTVSPropertyOp22
 70
     1
102
RTVSPropertyOp23
 70
     1
102
RTVSPropertyOp24
 70
     1
102
RTVSPropertyOp25
 70
     1
102
RTVSPropertyOp26
 70
     1
102
RTVSPropertyOp27
 70
     1
102
RTVSPropertyOp28
 70
     1
102
RTVSPropertyOp29
 70
     1
102
RTVSPropertyOp30
 70
     1
102
RTVSPropertyOp31
 70
     1
102
RTVSPropertyOp32
 70
     1
102
RTVSPropertyOp33
 70
     1
102
RTVSPropertyOp34
 70
     1
102
RTVSPropertyOp35
 70
     1
102
RTVSPropertyOp36
 70
     1
102
RTVSPropertyOp37
 70
     1
102
RTVSPropertyOp38
 70
     1
102
RTVSPropertyOp39
 70
     1
102
RTVSPropertyOp40
 70
     1
102
RTVSPropertyOp41
 70
     1
102
RTVSPropertyOp42
 70
     1
102
RTVSPropertyOp43
 70
     1
102
RTVSPropertyOp44
 70
     1
102
RTVSPropertyOp45
 70
     1
102
RTVSPropertyOp46
 70
     1
102
RTVSPropertyOp47
 70
     1
102
RTVSPropertyOp48
 70
     1
102
RTVSPropertyOp49
 70
     1
102
RTVSPropertyOp50
 70
     1
102
RTVSPropertyOp51
 70
     0
102
RTVSPropertyOp52
 70
     0
102
RTVSPropertyOp53
 70
     1
102
RTVSPropertyOp54
 70
     1
102
RTVSPropertyOp55
 70
     1
102
RTVSPropertyOp56
 70
     1
102
RTVSPropertyOp57
 70
     1
102
RTVSPost2010Prop28
280
     0
102
RTVSPost2010PropOp28
 70
     1
102
RTVSPost2010Prop29
280
     1
102
RTVSPost2010PropOp29
 70
     1
102
RTVSPost2010Prop30
280
     1
102
RTVSPost2010PropOp30
 70
     1
102
RTVSPost2010Prop31
280
     0
102
RTVSPost2010PropOp31
 70
     1
102
RTVSPost2010Prop32
280
     0
102
RTVSPost2010PropOp32
 70
     1
102
RTVSPost2010Prop33
280
     0
102
RTVSPost2010PropOp33
 70
     1
102
RTVSPost2010Prop34
280
     0
102
RTVSPost2010PropOp34
 70
     1
102
RTVSPost2010Prop35
280
     0
102
RTVSPost2010PropOp35
 70
     1
102
RTVSPost2010Prop36
280
     0
102
RTVSPost2010PropOp36
 70
     1
102
RTVSPost2010Prop37
 90
       50
102
RTVSPost2010PropOp37
 70
     1
102
RTVSPost2010Prop38
140
0.0
102
RTVSPost2010PropOp38
 70
     1
102
RTVSPost2010Prop39
140
1.0
102
RTVSPost2010PropOp39
 70
     1
102
RTVSPost2010Prop40
 90
        0
102
RTVSPost2010PropOp40
 70
     1
102
RTVSPost2010Prop41ColorIndex
 90
       18
102
RTVSPost2010Prop41ColorRGB
 90
        0
102
RTVSPost2010PropOp41
 70
     1
102
RTVSPost2010Prop42
 90
       50
102
RTVSPost2010PropOp42
 70
     1
102
RTVSPost2010Prop43
 90
        3
102
RTVSPost2010PropOp43
 70
     1
102
RTVSPost2010Prop44ColorIndex
 90
        5
102
RTVSPost2010Prop44ColorRGB
 90
      255
102
RTVSPost2010PropOp44
 70
     1
102
RTVSPost2010Prop45
280
     0
102
RTVSPost2010PropOp45
 70
     1
102
RTVSPost2010Prop46
 90
       50
102
RTVSPost2010PropOp46
 70
     1
102
RTVSPost2010Prop47
 90
       50
102
RTVSPost2010PropOp47
 70
     1
102
RTVSPost2010Prop48
 90
       50
102
RTVSPost2010PropOp48
 70
     1
102
RTVSPost2010Prop49
280
     0
102
RTVSPost2010PropOp49
 70
     1
102
RTVSPost2010Prop50
 90
       50
102
RTVSPost2010PropOp50
 70
     1
102
RTVSPost2010Prop51ColorIndex
 90
      256
102
RTVSPost2010Prop51ColorRGB
 90
-16777216
102
RTVSPost2010PropOp51
 70
     0
102
RTVSPost2010Prop52
140
1.0
102
RTVSPost2010PropOp52
 70
     0
102
RTVSPost2010Prop53
 90
        2
102
RTVSPost2010PropOp53
 70
     1
102
RTVSPost2010Prop54
  1
strokes_ogs.tif
102
RTVSPost2010PropOp54
 70
     1
102
RTVSPost2010Prop55
280
     0
102
RTVSPost2010PropOp55
 70
     1
102
RTVSPost2010Prop56
140
1.0
102
RTVSPost2010PropOp56
 70
     1
102
RTVSPost2010Prop57
140
1.0
102
RTVSPost2010PropOp57
 70
     1
  0
XRECORD
  5
384
102
{ACAD_REACTORS
330
383
102
}
330
383
100
AcDbXrecord
280
     1
102
RTVSPropertyOp0
 70
     0
102
RTVSPropertyOp1
 70
     0
102
RTVSPropertyOp2
 70
     0
102
RTVSPropertyOp3
 70
     0
102
RTVSPropertyOp4
 70
     0
102
RTVSPropertyOp5
 70
     0
102
RTVSPropertyOp6
 70
     0
102
RTVSPropertyOp7
 70
     0
102
RTVSPropertyOp8
 70
     0
102
RTVSPropertyOp9
 70
     0
102
RTVSPropertyOp10
 70
     0
102
RTVSPropertyOp11
 70
     0
102
RTVSPropertyOp12
 70
     0
102
RTVSPropertyOp13
 70
     0
102
RTVSPropertyOp14
 70
     2
102
RTVSPropertyOp15
 70
     0
102
RTVSPropertyOp16
 70
     0
102
RTVSPropertyOp17
 70
     0
102
RTVSPropertyOp18
 70
     0
102
RTVSPropertyOp19
 70
     0
102
RTVSPropertyOp20
 70
     0
102
RTVSPropertyOp21
 70
     0
102
RTVSPropertyOp22
 70
     0
102
RTVSPropertyOp23
 70
     0
102
RTVSPropertyOp24
 70
     0
102
RTVSPropertyOp25
 70
     0
102
RTVSPropertyOp26
 70
     0
102
RTVSPropertyOp27
 70
     0
102
RTVSPropertyOp28
 70
     0
102
RTVSPropertyOp29
 70
     0
102
RTVSPropertyOp30
 70
     0
102
RTVSPropertyOp31
 70
     0
102
RTVSPropertyOp32
 70
     0
102
RTVSPropertyOp33
 70
     0
102
RTVSPropertyOp34
 70
     0
102
RTVSPropertyOp35
 70
     0
102
RTVSPropertyOp36
 70
     0
102
RTVSPropertyOp37
 70
     0
102
RTVSPropertyOp38
 70
     0
102
RTVSPropertyOp39
 70
     0
102
RTVSPropertyOp40
 70
     0
102
RTVSPropertyOp41
 70
     0
102
RTVSPropertyOp42
 70
     0
102
RTVSPropertyOp43
 70
     0
102
RTVSPropertyOp44
 70
     0
102
RTVSPropertyOp45
 70
     0
102
RTVSPropertyOp46
 70
     0
102
RTVSPropertyOp47
 70
     0
102
RTVSPropertyOp48
 70
     0
102
RTVSPropertyOp49
 70
     0
102
RTVSPropertyOp50
 70
     0
102
RTVSPropertyOp51
 70
     0
102
RTVSPropertyOp52
 70
     0
102
RTVSPropertyOp53
 70
     0
102
RTVSPropertyOp54
 70
     0
102
RTVSPropertyOp55
 70
     0
102
RTVSPropertyOp56
 70
     0
102
RTVSPropertyOp57
 70
     0
102
RTVSPost2010Prop28
280
     0
102
RTVSPost2010PropOp28
 70
     0
102
RTVSPost2010Prop29
280
     1
102
RTVSPost2010PropOp29
 70
     0
102
RTVSPost2010Prop30
280
     1
102
RTVSPost2010PropOp30
 70
     0
102
RTVSPost2010Prop31
280
     0
102
RTVSPost2010PropOp31
 70
     0
102
RTVSPost2010Prop32
280
     0
102
RTVSPost2010PropOp32
 70
     0
102
RTVSPost2010Prop33
280
     0
102
RTVSPost2010PropOp33
 70
     0
102
RTVSPost2010Prop34
280
     0
102
RTVSPost2010PropOp34
 70
     0
102
RTVSPost2010Prop35
280
     0
102
RTVSPost2010PropOp35
 70
     0
102
RTVSPost2010Prop36
280
     0
102
RTVSPost2010PropOp36
 70
     0
102
RTVSPost2010Prop37
 90
       50
102
RTVSPost2010PropOp37
 70
     0
102
RTVSPost2010Prop38
140
0.0
102
RTVSPost2010PropOp38
 70
     0
102
RTVSPost2010Prop39
140
1.0
102
RTVSPost2010PropOp39
 70
     0
102
RTVSPost2010Prop40
 90
        0
102
RTVSPost2010PropOp40
 70
     0
102
RTVSPost2010Prop41ColorIndex
 90
       18
102
RTVSPost2010Prop41ColorRGB
 90
        0
102
RTVSPost2010PropOp41
 70
     0
102
RTVSPost2010Prop42
 90
       50
102
RTVSPost2010PropOp42
 70
     0
102
RTVSPost2010Prop43
 90
        3
102
RTVSPost2010PropOp43
 70
     0
102
RTVSPost2010Prop44ColorIndex
 90
        5
102
RTVSPost2010Prop44ColorRGB
 90
      255
102
RTVSPost2010PropOp44
 70
     0
102
RTVSPost2010Prop45
280
     0
102
RTVSPost2010PropOp45
 70
     0
102
RTVSPost2010Prop46
 90
       50
102
RTVSPost2010PropOp46
 70
     0
102
RTVSPost2010Prop47
 90
       50
102
RTVSPost2010PropOp47
 70
     0
102
RTVSPost2010Prop48
 90
       50
102
RTVSPost2010PropOp48
 70
     0
102
RTVSPost2010Prop49
280
     0
102
RTVSPost2010PropOp49
 70
     0
102
RTVSPost2010Prop50
 90
       50
102
RTVSPost2010PropOp50
 70
     0
102
RTVSPost2010Prop51ColorIndex
 90
      256
102
RTVSPost2010Prop51ColorRGB
 90
-16777216
102
RTVSPost2010PropOp51
 70
     0
102
RTVSPost2010Prop52
140
1.0
102
RTVSPost2010PropOp52
 70
     0
102
RTVSPost2010Prop53
 90
        2
102
RTVSPost2010PropOp53
 70
     0
102
RTVSPost2010Prop54
  1
strokes_ogs.tif
102
RTVSPost2010PropOp54
 70
     0
102
RTVSPost2010Prop55
280
     0
102
RTVSPost2010PropOp55
 70
     0
102
RTVSPost2010Prop56
140
1.0
102
RTVSPost2010PropOp56
 70
     0
102
RTVSPost2010Prop57
140
1.0
102
RTVSPost2010PropOp57
 70
     0
  0
XRECORD
  5
37C
102
{ACAD_REACTORS
330
37B
102
}
330
37B
100
AcDbXrecord
280
     1
102
RTVSPropertyOp0
 70
     1
102
RTVSPropertyOp1
 70
     1
102
RTVSPropertyOp2
 70
     1
102
RTVSPropertyOp3
 70
     1
102
RTVSPropertyOp4
 70
     1
102
RTVSPropertyOp5
 70
     1
102
RTVSPropertyOp6
 70
     1
102
RTVSPropertyOp7
 70
     1
102
RTVSPropertyOp8
 70
     1
102
RTVSPropertyOp9
 70
     1
102
RTVSPropertyOp10
 70
     1
102
RTVSPropertyOp11
 70
     1
102
RTVSPropertyOp12
 70
     1
102
RTVSPropertyOp13
 70
     1
102
RTVSPropertyOp14
 70
     1
102
RTVSPropertyOp15
 70
     1
102
RTVSPropertyOp16
 70
     1
102
RTVSPropertyOp17
 70
     1
102
RTVSPropertyOp18
 70
     1
102
RTVSPropertyOp19
 70
     1
102
RTVSPropertyOp20
 70
     1
102
RTVSPropertyOp21
 70
     1
102
RTVSPropertyOp22
 70
     1
102
RTVSPropertyOp23
 70
     1
102
RTVSPropertyOp24
 70
     1
102
RTVSPropertyOp25
 70
     1
102
RTVSPropertyOp26
 70
     1
102
RTVSPropertyOp27
 70
     1
102
RTVSPropertyOp28
 70
     1
102
RTVSPropertyOp29
 70
     1
102
RTVSPropertyOp30
 70
     1
102
RTVSPropertyOp31
 70
     1
102
RTVSPropertyOp32
 70
     1
102
RTVSPropertyOp33
 70
     1
102
RTVSPropertyOp34
 70
     1
102
RTVSPropertyOp35
 70
     1
102
RTVSPropertyOp36
 70
     1
102
RTVSPropertyOp37
 70
     1
102
RTVSPropertyOp38
 70
     1
102
RTVSPropertyOp39
 70
     1
102
RTVSPropertyOp40
 70
     1
102
RTVSPropertyOp41
 70
     1
102
RTVSPropertyOp42
 70
     1
102
RTVSPropertyOp43
 70
     1
102
RTVSPropertyOp44
 70
     1
102
RTVSPropertyOp45
 70
     1
102
RTVSPropertyOp46
 70
     1
102
RTVSPropertyOp47
 70
     1
102
RTVSPropertyOp48
 70
     1
102
RTVSPropertyOp49
 70
     1
102
RTVSPropertyOp50
 70
     1
102
RTVSPropertyOp51
 70
     0
102
RTVSPropertyOp52
 70
     0
102
RTVSPropertyOp53
 70
     1
102
RTVSPropertyOp54
 70
     1
102
RTVSPropertyOp55
 70
     1
102
RTVSPropertyOp56
 70
     1
102
RTVSPropertyOp57
 70
     1
102
RTVSPost2010Prop28
280
     0
102
RTVSPost2010PropOp28
 70
     1
102
RTVSPost2010Prop29
280
     1
102
RTVSPost2010PropOp29
 70
     1
102
RTVSPost2010Prop30
280
     1
102
RTVSPost2010PropOp30
 70
     1
102
RTVSPost2010Prop31
280
     0
102
RTVSPost2010PropOp31
 70
     1
102
RTVSPost2010Prop32
280
     0
102
RTVSPost2010PropOp32
 70
     1
102
RTVSPost2010Prop33
280
     0
102
RTVSPost2010PropOp33
 70
     1
102
RTVSPost2010Prop34
280
     0
102
RTVSPost2010PropOp34
 70
     1
102
RTVSPost2010Prop35
280
     0
102
RTVSPost2010PropOp35
 70
     1
102
RTVSPost2010Prop36
280
     0
102
RTVSPost2010PropOp36
 70
     1
102
RTVSPost2010Prop37
 90
       50
102
RTVSPost2010PropOp37
 70
     1
102
RTVSPost2010Prop38
140
0.0
102
RTVSPost2010PropOp38
 70
     1
102
RTVSPost2010Prop39
140
1.0
102
RTVSPost2010PropOp39
 70
     1
102
RTVSPost2010Prop40
 90
        0
102
RTVSPost2010PropOp40
 70
     1
102
RTVSPost2010Prop41ColorIndex
 90
       18
102
RTVSPost2010Prop41ColorRGB
 90
        0
102
RTVSPost2010PropOp41
 70
     1
102
RTVSPost2010Prop42
 90
       50
102
RTVSPost2010PropOp42
 70
     1
102
RTVSPost2010Prop43
 90
        3
102
RTVSPost2010PropOp43
 70
     1
102
RTVSPost2010Prop44ColorIndex
 90
        5
102
RTVSPost2010Prop44ColorRGB
 90
      255
102
RTVSPost2010PropOp44
 70
     1
102
RTVSPost2010Prop45
280
     0
102
RTVSPost2010PropOp45
 70
     1
102
RTVSPost2010Prop46
 90
       50
102
RTVSPost2010PropOp46
 70
     1
102
RTVSPost2010Prop47
 90
       50
102
RTVSPost2010PropOp47
 70
     1
102
RTVSPost2010Prop48
 90
       50
102
RTVSPost2010PropOp48
 70
     1
102
RTVSPost2010Prop49
280
     0
102
RTVSPost2010PropOp49
 70
     1
102
RTVSPost2010Prop50
 90
       50
102
RTVSPost2010PropOp50
 70
     1
102
RTVSPost2010Prop51ColorIndex
 90
      256
102
RTVSPost2010Prop51ColorRGB
 90
-16777216
102
RTVSPost2010PropOp51
 70
     0
102
RTVSPost2010Prop52
140
1.0
102
RTVSPost2010PropOp52
 70
     0
102
RTVSPost2010Prop53
 90
        2
102
RTVSPost2010PropOp53
 70
     1
102
RTVSPost2010Prop54
  1
strokes_ogs.tif
102
RTVSPost2010PropOp54
 70
     1
102
RTVSPost2010Prop55
280
     0
102
RTVSPost2010PropOp55
 70
     1
102
RTVSPost2010Prop56
140
1.0
102
RTVSPost2010PropOp56
 70
     1
102
RTVSPost2010Prop57
140
1.0
102
RTVSPost2010PropOp57
 70
     1
  0
XRECORD
  5
360
102
{ACAD_REACTORS
330
35F
102
}
330
35F
100
AcDbXrecord
280
     1
102
RTVSPropertyOp0
 70
     1
102
RTVSPropertyOp1
 70
     1
102
RTVSPropertyOp2
 70
     1
102
RTVSPropertyOp3
 70
     1
102
RTVSPropertyOp4
 70
     1
102
RTVSPropertyOp5
 70
     1
102
RTVSPropertyOp6
 70
     1
102
RTVSPropertyOp7
 70
     1
102
RTVSPropertyOp8
 70
     1
102
RTVSPropertyOp9
 70
     1
102
RTVSPropertyOp10
 70
     1
102
RTVSPropertyOp11
 70
     1
102
RTVSPropertyOp12
 70
     1
102
RTVSPropertyOp13
 70
     1
102
RTVSPropertyOp14
 70
     1
102
RTVSPropertyOp15
 70
     1
102
RTVSPropertyOp16
 70
     1
102
RTVSPropertyOp17
 70
     1
102
RTVSPropertyOp18
 70
     1
102
RTVSPropertyOp19
 70
     1
102
RTVSPropertyOp20
 70
     1
102
RTVSPropertyOp21
 70
     1
102
RTVSPropertyOp22
 70
     1
102
RTVSPropertyOp23
 70
     1
102
RTVSPropertyOp24
 70
     1
102
RTVSPropertyOp25
 70
     1
102
RTVSPropertyOp26
 70
     1
102
RTVSPropertyOp27
 70
     1
102
RTVSPropertyOp28
 70
     1
102
RTVSPropertyOp29
 70
     1
102
RTVSPropertyOp30
 70
     1
102
RTVSPropertyOp31
 70
     1
102
RTVSPropertyOp32
 70
     1
102
RTVSPropertyOp33
 70
     1
102
RTVSPropertyOp34
 70
     1
102
RTVSPropertyOp35
 70
     1
102
RTVSPropertyOp36
 70
     1
102
RTVSPropertyOp37
 70
     1
102
RTVSPropertyOp38
 70
     1
102
RTVSPropertyOp39
 70
     1
102
RTVSPropertyOp40
 70
     1
102
RTVSPropertyOp41
 70
     1
102
RTVSPropertyOp42
 70
     1
102
RTVSPropertyOp43
 70
     1
102
RTVSPropertyOp44
 70
     1
102
RTVSPropertyOp45
 70
     1
102
RTVSPropertyOp46
 70
     1
102
RTVSPropertyOp47
 70
     1
102
RTVSPropertyOp48
 70
     1
102
RTVSPropertyOp49
 70
     1
102
RTVSPropertyOp50
 70
     1
102
RTVSPropertyOp51
 70
     0
102
RTVSPropertyOp52
 70
     0
102
RTVSPropertyOp53
 70
     1
102
RTVSPropertyOp54
 70
     1
102
RTVSPropertyOp55
 70
     1
102
RTVSPropertyOp56
 70
     1
102
RTVSPropertyOp57
 70
     1
102
RTVSPost2010Prop28
280
     0
102
RTVSPost2010PropOp28
 70
     1
102
RTVSPost2010Prop29
280
     1
102
RTVSPost2010PropOp29
 70
     1
102
RTVSPost2010Prop30
280
     1
102
RTVSPost2010PropOp30
 70
     1
102
RTVSPost2010Prop31
280
     0
102
RTVSPost2010PropOp31
 70
     1
102
RTVSPost2010Prop32
280
     0
102
RTVSPost2010PropOp32
 70
     1
102
RTVSPost2010Prop33
280
     0
102
RTVSPost2010PropOp33
 70
     1
102
RTVSPost2010Prop34
280
     0
102
RTVSPost2010PropOp34
 70
     1
102
RTVSPost2010Prop35
280
     0
102
RTVSPost2010PropOp35
 70
     1
102
RTVSPost2010Prop36
280
     0
102
RTVSPost2010PropOp36
 70
     1
102
RTVSPost2010Prop37
 90
       50
102
RTVSPost2010PropOp37
 70
     1
102
RTVSPost2010Prop38
140
0.0
102
RTVSPost2010PropOp38
 70
     1
102
RTVSPost2010Prop39
140
1.0
102
RTVSPost2010PropOp39
 70
     1
102
RTVSPost2010Prop40
 90
        0
102
RTVSPost2010PropOp40
 70
     1
102
RTVSPost2010Prop41ColorIndex
 90
       18
102
RTVSPost2010Prop41ColorRGB
 90
        0
102
RTVSPost2010PropOp41
 70
     1
102
RTVSPost2010Prop42
 90
       50
102
RTVSPost2010PropOp42
 70
     1
102
RTVSPost2010Prop43
 90
        3
102
RTVSPost2010PropOp43
 70
     1
102
RTVSPost2010Prop44ColorIndex
 90
        5
102
RTVSPost2010Prop44ColorRGB
 90
      255
102
RTVSPost2010PropOp44
 70
     1
102
RTVSPost2010Prop45
280
     0
102
RTVSPost2010PropOp45
 70
     1
102
RTVSPost2010Prop46
 90
       50
102
RTVSPost2010PropOp46
 70
     1
102
RTVSPost2010Prop47
 90
       50
102
RTVSPost2010PropOp47
 70
     1
102
RTVSPost2010Prop48
 90
       50
102
RTVSPost2010PropOp48
 70
     1
102
RTVSPost2010Prop49
280
     0
102
RTVSPost2010PropOp49
 70
     1
102
RTVSPost2010Prop50
 90
       50
102
RTVSPost2010PropOp50
 70
     1
102
RTVSPost2010Prop51ColorIndex
 90
      256
102
RTVSPost2010Prop51ColorRGB
 90
-16777216
102
RTVSPost2010PropOp51
 70
     0
102
RTVSPost2010Prop52
140
1.0
102
RTVSPost2010PropOp52
 70
     0
102
RTVSPost2010Prop53
 90
        2
102
RTVSPost2010PropOp53
 70
     1
102
RTVSPost2010Prop54
  1
strokes_ogs.tif
102
RTVSPost2010PropOp54
 70
     1
102
RTVSPost2010Prop55
280
     0
102
RTVSPost2010PropOp55
 70
     1
102
RTVSPost2010Prop56
140
1.0
102
RTVSPost2010PropOp56
 70
     1
102
RTVSPost2010Prop57
140
1.0
102
RTVSPost2010PropOp57
 70
     1
  0
XRECORD
  5
362
102
{ACAD_REACTORS
330
361
102
}
330
361
100
AcDbXrecord
280
     1
102
RTVSPropertyOp0
 70
     1
102
RTVSPropertyOp1
 70
     1
102
RTVSPropertyOp2
 70
     1
102
RTVSPropertyOp3
 70
     1
102
RTVSPropertyOp4
 70
     1
102
RTVSPropertyOp5
 70
     1
102
RTVSPropertyOp6
 70
     1
102
RTVSPropertyOp7
 70
     1
102
RTVSPropertyOp8
 70
     1
102
RTVSPropertyOp9
 70
     1
102
RTVSPropertyOp10
 70
     1
102
RTVSPropertyOp11
 70
     1
102
RTVSPropertyOp12
 70
     1
102
RTVSPropertyOp13
 70
     1
102
RTVSPropertyOp14
 70
     1
102
RTVSPropertyOp15
 70
     1
102
RTVSPropertyOp16
 70
     1
102
RTVSPropertyOp17
 70
     1
102
RTVSPropertyOp18
 70
     1
102
RTVSPropertyOp19
 70
     1
102
RTVSPropertyOp20
 70
     1
102
RTVSPropertyOp21
 70
     1
102
RTVSPropertyOp22
 70
     1
102
RTVSPropertyOp23
 70
     1
102
RTVSPropertyOp24
 70
     1
102
RTVSPropertyOp25
 70
     1
102
RTVSPropertyOp26
 70
     1
102
RTVSPropertyOp27
 70
     1
102
RTVSPropertyOp28
 70
     1
102
RTVSPropertyOp29
 70
     1
102
RTVSPropertyOp30
 70
     1
102
RTVSPropertyOp31
 70
     1
102
RTVSPropertyOp32
 70
     1
102
RTVSPropertyOp33
 70
     1
102
RTVSPropertyOp34
 70
     1
102
RTVSPropertyOp35
 70
     1
102
RTVSPropertyOp36
 70
     1
102
RTVSPropertyOp37
 70
     1
102
RTVSPropertyOp38
 70
     1
102
RTVSPropertyOp39
 70
     1
102
RTVSPropertyOp40
 70
     1
102
RTVSPropertyOp41
 70
     1
102
RTVSPropertyOp42
 70
     1
102
RTVSPropertyOp43
 70
     1
102
RTVSPropertyOp44
 70
     1
102
RTVSPropertyOp45
 70
     1
102
RTVSPropertyOp46
 70
     1
102
RTVSPropertyOp47
 70
     1
102
RTVSPropertyOp48
 70
     1
102
RTVSPropertyOp49
 70
     1
102
RTVSPropertyOp50
 70
     1
102
RTVSPropertyOp51
 70
     0
102
RTVSPropertyOp52
 70
     0
102
RTVSPropertyOp53
 70
     1
102
RTVSPropertyOp54
 70
     1
102
RTVSPropertyOp55
 70
     1
102
RTVSPropertyOp56
 70
     1
102
RTVSPropertyOp57
 70
     1
102
RTVSPost2010Prop28
280
     0
102
RTVSPost2010PropOp28
 70
     1
102
RTVSPost2010Prop29
280
     1
102
RTVSPost2010PropOp29
 70
     1
102
RTVSPost2010Prop30
280
     1
102
RTVSPost2010PropOp30
 70
     1
102
RTVSPost2010Prop31
280
     0
102
RTVSPost2010PropOp31
 70
     1
102
RTVSPost2010Prop32
280
     0
102
RTVSPost2010PropOp32
 70
     1
102
RTVSPost2010Prop33
280
     0
102
RTVSPost2010PropOp33
 70
     1
102
RTVSPost2010Prop34
280
     0
102
RTVSPost2010PropOp34
 70
     1
102
RTVSPost2010Prop35
280
     0
102
RTVSPost2010PropOp35
 70
     1
102
RTVSPost2010Prop36
280
     0
102
RTVSPost2010PropOp36
 70
     1
102
RTVSPost2010Prop37
 90
       50
102
RTVSPost2010PropOp37
 70
     1
102
RTVSPost2010Prop38
140
0.0
102
RTVSPost2010PropOp38
 70
     1
102
RTVSPost2010Prop39
140
1.0
102
RTVSPost2010PropOp39
 70
     1
102
RTVSPost2010Prop40
 90
        0
102
RTVSPost2010PropOp40
 70
     1
102
RTVSPost2010Prop41ColorIndex
 90
       18
102
RTVSPost2010Prop41ColorRGB
 90
        0
102
RTVSPost2010PropOp41
 70
     1
102
RTVSPost2010Prop42
 90
       50
102
RTVSPost2010PropOp42
 70
     1
102
RTVSPost2010Prop43
 90
        3
102
RTVSPost2010PropOp43
 70
     1
102
RTVSPost2010Prop44ColorIndex
 90
        5
102
RTVSPost2010Prop44ColorRGB
 90
      255
102
RTVSPost2010PropOp44
 70
     1
102
RTVSPost2010Prop45
280
     0
102
RTVSPost2010PropOp45
 70
     1
102
RTVSPost2010Prop46
 90
       50
102
RTVSPost2010PropOp46
 70
     1
102
RTVSPost2010Prop47
 90
       50
102
RTVSPost2010PropOp47
 70
     1
102
RTVSPost2010Prop48
 90
       50
102
RTVSPost2010PropOp48
 70
     1
102
RTVSPost2010Prop49
280
     0
102
RTVSPost2010PropOp49
 70
     1
102
RTVSPost2010Prop50
 90
       50
102
RTVSPost2010PropOp50
 70
     1
102
RTVSPost2010Prop51ColorIndex
 90
      256
102
RTVSPost2010Prop51ColorRGB
 90
-16777216
102
RTVSPost2010PropOp51
 70
     0
102
RTVSPost2010Prop52
140
1.0
102
RTVSPost2010PropOp52
 70
     0
102
RTVSPost2010Prop53
 90
        2
102
RTVSPost2010PropOp53
 70
     1
102
RTVSPost2010Prop54
  1
strokes_ogs.tif
102
RTVSPost2010PropOp54
 70
     1
102
RTVSPost2010Prop55
280
     0
102
RTVSPost2010PropOp55
 70
     1
102
RTVSPost2010Prop56
140
1.0
102
RTVSPost2010PropOp56
 70
     1
102
RTVSPost2010Prop57
140
1.0
102
RTVSPost2010PropOp57
 70
     1
  0
XRECORD
  5
364
102
{ACAD_REACTORS
330
363
102
}
330
363
100
AcDbXrecord
280
     1
102
RTVSPropertyOp0
 70
     1
102
RTVSPropertyOp1
 70
     1
102
RTVSPropertyOp2
 70
     1
102
RTVSPropertyOp3
 70
     1
102
RTVSPropertyOp4
 70
     1
102
RTVSPropertyOp5
 70
     1
102
RTVSPropertyOp6
 70
     1
102
RTVSPropertyOp7
 70
     1
102
RTVSPropertyOp8
 70
     1
102
RTVSPropertyOp9
 70
     1
102
RTVSPropertyOp10
 70
     1
102
RTVSPropertyOp11
 70
     1
102
RTVSPropertyOp12
 70
     1
102
RTVSPropertyOp13
 70
     1
102
RTVSPropertyOp14
 70
     1
102
RTVSPropertyOp15
 70
     1
102
RTVSPropertyOp16
 70
     1
102
RTVSPropertyOp17
 70
     1
102
RTVSPropertyOp18
 70
     1
102
RTVSPropertyOp19
 70
     1
102
RTVSPropertyOp20
 70
     1
102
RTVSPropertyOp21
 70
     1
102
RTVSPropertyOp22
 70
     1
102
RTVSPropertyOp23
 70
     1
102
RTVSPropertyOp24
 70
     1
102
RTVSPropertyOp25
 70
     1
102
RTVSPropertyOp26
 70
     1
102
RTVSPropertyOp27
 70
     1
102
RTVSPropertyOp28
 70
     1
102
RTVSPropertyOp29
 70
     1
102
RTVSPropertyOp30
 70
     1
102
RTVSPropertyOp31
 70
     1
102
RTVSPropertyOp32
 70
     1
102
RTVSPropertyOp33
 70
     1
102
RTVSPropertyOp34
 70
     1
102
RTVSPropertyOp35
 70
     1
102
RTVSPropertyOp36
 70
     1
102
RTVSPropertyOp37
 70
     1
102
RTVSPropertyOp38
 70
     1
102
RTVSPropertyOp39
 70
     1
102
RTVSPropertyOp40
 70
     1
102
RTVSPropertyOp41
 70
     1
102
RTVSPropertyOp42
 70
     1
102
RTVSPropertyOp43
 70
     1
102
RTVSPropertyOp44
 70
     1
102
RTVSPropertyOp45
 70
     1
102
RTVSPropertyOp46
 70
     1
102
RTVSPropertyOp47
 70
     1
102
RTVSPropertyOp48
 70
     1
102
RTVSPropertyOp49
 70
     1
102
RTVSPropertyOp50
 70
     1
102
RTVSPropertyOp51
 70
     0
102
RTVSPropertyOp52
 70
     0
102
RTVSPropertyOp53
 70
     1
102
RTVSPropertyOp54
 70
     1
102
RTVSPropertyOp55
 70
     1
102
RTVSPropertyOp56
 70
     1
102
RTVSPropertyOp57
 70
     1
102
RTVSPost2010Prop28
280
     0
102
RTVSPost2010PropOp28
 70
     1
102
RTVSPost2010Prop29
280
     1
102
RTVSPost2010PropOp29
 70
     1
102
RTVSPost2010Prop30
280
     1
102
RTVSPost2010PropOp30
 70
     1
102
RTVSPost2010Prop31
280
     0
102
RTVSPost2010PropOp31
 70
     1
102
RTVSPost2010Prop32
280
     0
102
RTVSPost2010PropOp32
 70
     1
102
RTVSPost2010Prop33
280
     0
102
RTVSPost2010PropOp33
 70
     1
102
RTVSPost2010Prop34
280
     0
102
RTVSPost2010PropOp34
 70
     1
102
RTVSPost2010Prop35
280
     0
102
RTVSPost2010PropOp35
 70
     1
102
RTVSPost2010Prop36
280
     0
102
RTVSPost2010PropOp36
 70
     1
102
RTVSPost2010Prop37
 90
       50
102
RTVSPost2010PropOp37
 70
     1
102
RTVSPost2010Prop38
140
0.0
102
RTVSPost2010PropOp38
 70
     1
102
RTVSPost2010Prop39
140
1.0
102
RTVSPost2010PropOp39
 70
     1
102
RTVSPost2010Prop40
 90
        0
102
RTVSPost2010PropOp40
 70
     1
102
RTVSPost2010Prop41ColorIndex
 90
       18
102
RTVSPost2010Prop41ColorRGB
 90
        0
102
RTVSPost2010PropOp41
 70
     1
102
RTVSPost2010Prop42
 90
       50
102
RTVSPost2010PropOp42
 70
     1
102
RTVSPost2010Prop43
 90
        3
102
RTVSPost2010PropOp43
 70
     1
102
RTVSPost2010Prop44ColorIndex
 90
        5
102
RTVSPost2010Prop44ColorRGB
 90
      255
102
RTVSPost2010PropOp44
 70
     1
102
RTVSPost2010Prop45
280
     0
102
RTVSPost2010PropOp45
 70
     1
102
RTVSPost2010Prop46
 90
       50
102
RTVSPost2010PropOp46
 70
     1
102
RTVSPost2010Prop47
 90
       50
102
RTVSPost2010PropOp47
 70
     1
102
RTVSPost2010Prop48
 90
       50
102
RTVSPost2010PropOp48
 70
     1
102
RTVSPost2010Prop49
280
     0
102
RTVSPost2010PropOp49
 70
     1
102
RTVSPost2010Prop50
 90
       50
102
RTVSPost2010PropOp50
 70
     1
102
RTVSPost2010Prop51ColorIndex
 90
      256
102
RTVSPost2010Prop51ColorRGB
 90
-16777216
102
RTVSPost2010PropOp51
 70
     0
102
RTVSPost2010Prop52
140
1.0
102
RTVSPost2010PropOp52
 70
     0
102
RTVSPost2010Prop53
 90
        2
102
RTVSPost2010PropOp53
 70
     1
102
RTVSPost2010Prop54
  1
strokes_ogs.tif
102
RTVSPost2010PropOp54
 70
     1
102
RTVSPost2010Prop55
280
     0
102
RTVSPost2010PropOp55
 70
     1
102
RTVSPost2010Prop56
140
1.0
102
RTVSPost2010PropOp56
 70
     1
102
RTVSPost2010Prop57
140
1.0
102
RTVSPost2010PropOp57
 70
     1
  0
XRECORD
  5
366
102
{ACAD_REACTORS
330
365
102
}
330
365
100
AcDbXrecord
280
     1
102
RTVSPropertyOp0
 70
     1
102
RTVSPropertyOp1
 70
     1
102
RTVSPropertyOp2
 70
     1
102
RTVSPropertyOp3
 70
     1
102
RTVSPropertyOp4
 70
     1
102
RTVSPropertyOp5
 70
     1
102
RTVSPropertyOp6
 70
     1
102
RTVSPropertyOp7
 70
     1
102
RTVSPropertyOp8
 70
     1
102
RTVSPropertyOp9
 70
     1
102
RTVSPropertyOp10
 70
     1
102
RTVSPropertyOp11
 70
     1
102
RTVSPropertyOp12
 70
     1
102
RTVSPropertyOp13
 70
     1
102
RTVSPropertyOp14
 70
     1
102
RTVSPropertyOp15
 70
     1
102
RTVSPropertyOp16
 70
     1
102
RTVSPropertyOp17
 70
     1
102
RTVSPropertyOp18
 70
     1
102
RTVSPropertyOp19
 70
     1
102
RTVSPropertyOp20
 70
     1
102
RTVSPropertyOp21
 70
     1
102
RTVSPropertyOp22
 70
     1
102
RTVSPropertyOp23
 70
     1
102
RTVSPropertyOp24
 70
     1
102
RTVSPropertyOp25
 70
     1
102
RTVSPropertyOp26
 70
     1
102
RTVSPropertyOp27
 70
     1
102
RTVSPropertyOp28
 70
     1
102
RTVSPropertyOp29
 70
     1
102
RTVSPropertyOp30
 70
     1
102
RTVSPropertyOp31
 70
     1
102
RTVSPropertyOp32
 70
     1
102
RTVSPropertyOp33
 70
     1
102
RTVSPropertyOp34
 70
     1
102
RTVSPropertyOp35
 70
     1
102
RTVSPropertyOp36
 70
     1
102
RTVSPropertyOp37
 70
     1
102
RTVSPropertyOp38
 70
     1
102
RTVSPropertyOp39
 70
     1
102
RTVSPropertyOp40
 70
     1
102
RTVSPropertyOp41
 70
     1
102
RTVSPropertyOp42
 70
     1
102
RTVSPropertyOp43
 70
     1
102
RTVSPropertyOp44
 70
     1
102
RTVSPropertyOp45
 70
     1
102
RTVSPropertyOp46
 70
     1
102
RTVSPropertyOp47
 70
     1
102
RTVSPropertyOp48
 70
     1
102
RTVSPropertyOp49
 70
     1
102
RTVSPropertyOp50
 70
     1
102
RTVSPropertyOp51
 70
     0
102
RTVSPropertyOp52
 70
     0
102
RTVSPropertyOp53
 70
     1
102
RTVSPropertyOp54
 70
     1
102
RTVSPropertyOp55
 70
     1
102
RTVSPropertyOp56
 70
     1
102
RTVSPropertyOp57
 70
     1
102
RTVSPost2010Prop28
280
     0
102
RTVSPost2010PropOp28
 70
     1
102
RTVSPost2010Prop29
280
     1
102
RTVSPost2010PropOp29
 70
     1
102
RTVSPost2010Prop30
280
     1
102
RTVSPost2010PropOp30
 70
     1
102
RTVSPost2010Prop31
280
     0
102
RTVSPost2010PropOp31
 70
     1
102
RTVSPost2010Prop32
280
     0
102
RTVSPost2010PropOp32
 70
     1
102
RTVSPost2010Prop33
280
     0
102
RTVSPost2010PropOp33
 70
     1
102
RTVSPost2010Prop34
280
     0
102
RTVSPost2010PropOp34
 70
     1
102
RTVSPost2010Prop35
280
     0
102
RTVSPost2010PropOp35
 70
     1
102
RTVSPost2010Prop36
280
     0
102
RTVSPost2010PropOp36
 70
     1
102
RTVSPost2010Prop37
 90
       50
102
RTVSPost2010PropOp37
 70
     1
102
RTVSPost2010Prop38
140
0.0
102
RTVSPost2010PropOp38
 70
     1
102
RTVSPost2010Prop39
140
1.0
102
RTVSPost2010PropOp39
 70
     1
102
RTVSPost2010Prop40
 90
        0
102
RTVSPost2010PropOp40
 70
     1
102
RTVSPost2010Prop41ColorIndex
 90
       18
102
RTVSPost2010Prop41ColorRGB
 90
        0
102
RTVSPost2010PropOp41
 70
     1
102
RTVSPost2010Prop42
 90
       50
102
RTVSPost2010PropOp42
 70
     1
102
RTVSPost2010Prop43
 90
        3
102
RTVSPost2010PropOp43
 70
     1
102
RTVSPost2010Prop44ColorIndex
 90
        5
102
RTVSPost2010Prop44ColorRGB
 90
      255
102
RTVSPost2010PropOp44
 70
     1
102
RTVSPost2010Prop45
280
     0
102
RTVSPost2010PropOp45
 70
     1
102
RTVSPost2010Prop46
 90
       50
102
RTVSPost2010PropOp46
 70
     1
102
RTVSPost2010Prop47
 90
       50
102
RTVSPost2010PropOp47
 70
     1
102
RTVSPost2010Prop48
 90
       50
102
RTVSPost2010PropOp48
 70
     1
102
RTVSPost2010Prop49
280
     0
102
RTVSPost2010PropOp49
 70
     1
102
RTVSPost2010Prop50
 90
       50
102
RTVSPost2010PropOp50
 70
     1
102
RTVSPost2010Prop51ColorIndex
 90
      256
102
RTVSPost2010Prop51ColorRGB
 90
-16777216
102
RTVSPost2010PropOp51
 70
     0
102
RTVSPost2010Prop52
140
1.0
102
RTVSPost2010PropOp52
 70
     0
102
RTVSPost2010Prop53
 90
        2
102
RTVSPost2010PropOp53
 70
     1
102
RTVSPost2010Prop54
  1
strokes_ogs.tif
102
RTVSPost2010PropOp54
 70
     1
102
RTVSPost2010Prop55
280
     0
102
RTVSPost2010PropOp55
 70
     1
102
RTVSPost2010Prop56
140
1.0
102
RTVSPost2010PropOp56
 70
     1
102
RTVSPost2010Prop57
140
1.0
102
RTVSPost2010PropOp57
 70
     1
  0
XRECORD
  5
36C
102
{ACAD_REACTORS
330
36B
102
}
330
36B
100
AcDbXrecord
280
     1
102
RTVSPropertyOp0
 70
     1
102
RTVSPropertyOp1
 70
     1
102
RTVSPropertyOp2
 70
     1
102
RTVSPropertyOp3
 70
     1
102
RTVSPropertyOp4
 70
     1
102
RTVSPropertyOp5
 70
     1
102
RTVSPropertyOp6
 70
     1
102
RTVSPropertyOp7
 70
     1
102
RTVSPropertyOp8
 70
     1
102
RTVSPropertyOp9
 70
     1
102
RTVSPropertyOp10
 70
     1
102
RTVSPropertyOp11
 70
     1
102
RTVSPropertyOp12
 70
     1
102
RTVSPropertyOp13
 70
     1
102
RTVSPropertyOp14
 70
     1
102
RTVSPropertyOp15
 70
     1
102
RTVSPropertyOp16
 70
     1
102
RTVSPropertyOp17
 70
     1
102
RTVSPropertyOp18
 70
     1
102
RTVSPropertyOp19
 70
     1
102
RTVSPropertyOp20
 70
     1
102
RTVSPropertyOp21
 70
     1
102
RTVSPropertyOp22
 70
     1
102
RTVSPropertyOp23
 70
     1
102
RTVSPropertyOp24
 70
     1
102
RTVSPropertyOp25
 70
     1
102
RTVSPropertyOp26
 70
     1
102
RTVSPropertyOp27
 70
     1
102
RTVSPropertyOp28
 70
     1
102
RTVSPropertyOp29
 70
     1
102
RTVSPropertyOp30
 70
     1
102
RTVSPropertyOp31
 70
     1
102
RTVSPropertyOp32
 70
     1
102
RTVSPropertyOp33
 70
     1
102
RTVSPropertyOp34
 70
     1
102
RTVSPropertyOp35
 70
     1
102
RTVSPropertyOp36
 70
     1
102
RTVSPropertyOp37
 70
     1
102
RTVSPropertyOp38
 70
     1
102
RTVSPropertyOp39
 70
     1
102
RTVSPropertyOp40
 70
     1
102
RTVSPropertyOp41
 70
     1
102
RTVSPropertyOp42
 70
     1
102
RTVSPropertyOp43
 70
     1
102
RTVSPropertyOp44
 70
     1
102
RTVSPropertyOp45
 70
     1
102
RTVSPropertyOp46
 70
     1
102
RTVSPropertyOp47
 70
     1
102
RTVSPropertyOp48
 70
     1
102
RTVSPropertyOp49
 70
     1
102
RTVSPropertyOp50
 70
     1
102
RTVSPropertyOp51
 70
     0
102
RTVSPropertyOp52
 70
     0
102
RTVSPropertyOp53
 70
     1
102
RTVSPropertyOp54
 70
     1
102
RTVSPropertyOp55
 70
     1
102
RTVSPropertyOp56
 70
     1
102
RTVSPropertyOp57
 70
     1
102
RTVSPost2010Prop28
280
     0
102
RTVSPost2010PropOp28
 70
     1
102
RTVSPost2010Prop29
280
     1
102
RTVSPost2010PropOp29
 70
     1
102
RTVSPost2010Prop30
280
     1
102
RTVSPost2010PropOp30
 70
     1
102
RTVSPost2010Prop31
280
     0
102
RTVSPost2010PropOp31
 70
     1
102
RTVSPost2010Prop32
280
     0
102
RTVSPost2010PropOp32
 70
     1
102
RTVSPost2010Prop33
280
     0
102
RTVSPost2010PropOp33
 70
     1
102
RTVSPost2010Prop34
280
     0
102
RTVSPost2010PropOp34
 70
     1
102
RTVSPost2010Prop35
280
     0
102
RTVSPost2010PropOp35
 70
     1
102
RTVSPost2010Prop36
280
     0
102
RTVSPost2010PropOp36
 70
     1
102
RTVSPost2010Prop37
 90
       50
102
RTVSPost2010PropOp37
 70
     1
102
RTVSPost2010Prop38
140
0.0
102
RTVSPost2010PropOp38
 70
     1
102
RTVSPost2010Prop39
140
1.0
102
RTVSPost2010PropOp39
 70
     1
102
RTVSPost2010Prop40
 90
        0
102
RTVSPost2010PropOp40
 70
     1
102
RTVSPost2010Prop41ColorIndex
 90
       18
102
RTVSPost2010Prop41ColorRGB
 90
        0
102
RTVSPost2010PropOp41
 70
     1
102
RTVSPost2010Prop42
 90
       50
102
RTVSPost2010PropOp42
 70
     1
102
RTVSPost2010Prop43
 90
        3
102
RTVSPost2010PropOp43
 70
     1
102
RTVSPost2010Prop44ColorIndex
 90
        5
102
RTVSPost2010Prop44ColorRGB
 90
      255
102
RTVSPost2010PropOp44
 70
     1
102
RTVSPost2010Prop45
280
     0
102
RTVSPost2010PropOp45
 70
     1
102
RTVSPost2010Prop46
 90
       50
102
RTVSPost2010PropOp46
 70
     1
102
RTVSPost2010Prop47
 90
       50
102
RTVSPost2010PropOp47
 70
     1
102
RTVSPost2010Prop48
 90
       50
102
RTVSPost2010PropOp48
 70
     1
102
RTVSPost2010Prop49
280
     0
102
RTVSPost2010PropOp49
 70
     1
102
RTVSPost2010Prop50
 90
       50
102
RTVSPost2010PropOp50
 70
     1
102
RTVSPost2010Prop51ColorIndex
 90
      256
102
RTVSPost2010Prop51ColorRGB
 90
-16777216
102
RTVSPost2010PropOp51
 70
     0
102
RTVSPost2010Prop52
140
1.0
102
RTVSPost2010PropOp52
 70
     0
102
RTVSPost2010Prop53
 90
        2
102
RTVSPost2010PropOp53
 70
     1
102
RTVSPost2010Prop54
  1
strokes_ogs.tif
102
RTVSPost2010PropOp54
 70
     1
102
RTVSPost2010Prop55
280
     0
102
RTVSPost2010PropOp55
 70
     1
102
RTVSPost2010Prop56
140
1.0
102
RTVSPost2010PropOp56
 70
     1
102
RTVSPost2010Prop57
140
1.0
102
RTVSPost2010PropOp57
 70
     1
  0
XRECORD
  5
380
102
{ACAD_REACTORS
330
37F
102
}
330
37F
100
AcDbXrecord
280
     1
102
RTVSPropertyOp0
 70
     0
102
RTVSPropertyOp1
 70
     0
102
RTVSPropertyOp2
 70
     0
102
RTVSPropertyOp3
 70
     0
102
RTVSPropertyOp4
 70
     0
102
RTVSPropertyOp5
 70
     0
102
RTVSPropertyOp6
 70
     0
102
RTVSPropertyOp7
 70
     0
102
RTVSPropertyOp8
 70
     0
102
RTVSPropertyOp9
 70
     0
102
RTVSPropertyOp10
 70
     0
102
RTVSPropertyOp11
 70
     0
102
RTVSPropertyOp12
 70
     0
102
RTVSPropertyOp13
 70
     0
102
RTVSPropertyOp14
 70
     2
102
RTVSPropertyOp15
 70
     0
102
RTVSPropertyOp16
 70
     0
102
RTVSPropertyOp17
 70
     0
102
RTVSPropertyOp18
 70
     0
102
RTVSPropertyOp19
 70
     0
102
RTVSPropertyOp20
 70
     0
102
RTVSPropertyOp21
 70
     0
102
RTVSPropertyOp22
 70
     0
102
RTVSPropertyOp23
 70
     0
102
RTVSPropertyOp24
 70
     0
102
RTVSPropertyOp25
 70
     0
102
RTVSPropertyOp26
 70
     0
102
RTVSPropertyOp27
 70
     0
102
RTVSPropertyOp28
 70
     0
102
RTVSPropertyOp29
 70
     0
102
RTVSPropertyOp30
 70
     0
102
RTVSPropertyOp31
 70
     0
102
RTVSPropertyOp32
 70
     0
102
RTVSPropertyOp33
 70
     0
102
RTVSPropertyOp34
 70
     0
102
RTVSPropertyOp35
 70
     0
102
RTVSPropertyOp36
 70
     0
102
RTVSPropertyOp37
 70
     0
102
RTVSPropertyOp38
 70
     0
102
RTVSPropertyOp39
 70
     0
102
RTVSPropertyOp40
 70
     0
102
RTVSPropertyOp41
 70
     0
102
RTVSPropertyOp42
 70
     0
102
RTVSPropertyOp43
 70
     0
102
RTVSPropertyOp44
 70
     0
102
RTVSPropertyOp45
 70
     0
102
RTVSPropertyOp46
 70
     0
102
RTVSPropertyOp47
 70
     0
102
RTVSPropertyOp48
 70
     0
102
RTVSPropertyOp49
 70
     0
102
RTVSPropertyOp50
 70
     0
102
RTVSPropertyOp51
 70
     0
102
RTVSPropertyOp52
 70
     0
102
RTVSPropertyOp53
 70
     0
102
RTVSPropertyOp54
 70
     0
102
RTVSPropertyOp55
 70
     0
102
RTVSPropertyOp56
 70
     0
102
RTVSPropertyOp57
 70
     0
102
RTVSPost2010Prop28
280
     0
102
RTVSPost2010PropOp28
 70
     0
102
RTVSPost2010Prop29
280
     1
102
RTVSPost2010PropOp29
 70
     0
102
RTVSPost2010Prop30
280
     1
102
RTVSPost2010PropOp30
 70
     0
102
RTVSPost2010Prop31
280
     0
102
RTVSPost2010PropOp31
 70
     0
102
RTVSPost2010Prop32
280
     0
102
RTVSPost2010PropOp32
 70
     0
102
RTVSPost2010Prop33
280
     0
102
RTVSPost2010PropOp33
 70
     0
102
RTVSPost2010Prop34
280
     0
102
RTVSPost2010PropOp34
 70
     0
102
RTVSPost2010Prop35
280
     0
102
RTVSPost2010PropOp35
 70
     0
102
RTVSPost2010Prop36
280
     0
102
RTVSPost2010PropOp36
 70
     0
102
RTVSPost2010Prop37
 90
       50
102
RTVSPost2010PropOp37
 70
     0
102
RTVSPost2010Prop38
140
0.0
102
RTVSPost2010PropOp38
 70
     0
102
RTVSPost2010Prop39
140
1.0
102
RTVSPost2010PropOp39
 70
     0
102
RTVSPost2010Prop40
 90
        0
102
RTVSPost2010PropOp40
 70
     0
102
RTVSPost2010Prop41ColorIndex
 90
       18
102
RTVSPost2010Prop41ColorRGB
 90
        0
102
RTVSPost2010PropOp41
 70
     0
102
RTVSPost2010Prop42
 90
       50
102
RTVSPost2010PropOp42
 70
     0
102
RTVSPost2010Prop43
 90
        3
102
RTVSPost2010PropOp43
 70
     0
102
RTVSPost2010Prop44ColorIndex
 90
        5
102
RTVSPost2010Prop44ColorRGB
 90
      255
102
RTVSPost2010PropOp44
 70
     0
102
RTVSPost2010Prop45
280
     0
102
RTVSPost2010PropOp45
 70
     0
102
RTVSPost2010Prop46
 90
       50
102
RTVSPost2010PropOp46
 70
     0
102
RTVSPost2010Prop47
 90
       50
102
RTVSPost2010PropOp47
 70
     0
102
RTVSPost2010Prop48
 90
       50
102
RTVSPost2010PropOp48
 70
     0
102
RTVSPost2010Prop49
280
     0
102
RTVSPost2010PropOp49
 70
     0
102
RTVSPost2010Prop50
 90
       50
102
RTVSPost2010PropOp50
 70
     0
102
RTVSPost2010Prop51ColorIndex
 90
      256
102
RTVSPost2010Prop51ColorRGB
 90
-16777216
102
RTVSPost2010PropOp51
 70
     0
102
RTVSPost2010Prop52
140
1.0
102
RTVSPost2010PropOp52
 70
     0
102
RTVSPost2010Prop53
 90
        2
102
RTVSPost2010PropOp53
 70
     0
102
RTVSPost2010Prop54
  1
strokes_ogs.tif
102
RTVSPost2010PropOp54
 70
     0
102
RTVSPost2010Prop55
280
     0
102
RTVSPost2010PropOp55
 70
     0
102
RTVSPost2010Prop56
140
1.0
102
RTVSPost2010PropOp56
 70
     0
102
RTVSPost2010Prop57
140
1.0
102
RTVSPost2010PropOp57
 70
     0
  0
XRECORD
  5
37A
102
{ACAD_REACTORS
330
379
102
}
330
379
100
AcDbXrecord
280
     1
102
RTVSPropertyOp0
 70
     1
102
RTVSPropertyOp1
 70
     1
102
RTVSPropertyOp2
 70
     1
102
RTVSPropertyOp3
 70
     1
102
RTVSPropertyOp4
 70
     1
102
RTVSPropertyOp5
 70
     1
102
RTVSPropertyOp6
 70
     1
102
RTVSPropertyOp7
 70
     1
102
RTVSPropertyOp8
 70
     1
102
RTVSPropertyOp9
 70
     1
102
RTVSPropertyOp10
 70
     1
102
RTVSPropertyOp11
 70
     1
102
RTVSPropertyOp12
 70
     1
102
RTVSPropertyOp13
 70
     1
102
RTVSPropertyOp14
 70
     1
102
RTVSPropertyOp15
 70
     1
102
RTVSPropertyOp16
 70
     1
102
RTVSPropertyOp17
 70
     1
102
RTVSPropertyOp18
 70
     1
102
RTVSPropertyOp19
 70
     1
102
RTVSPropertyOp20
 70
     1
102
RTVSPropertyOp21
 70
     1
102
RTVSPropertyOp22
 70
     1
102
RTVSPropertyOp23
 70
     1
102
RTVSPropertyOp24
 70
     1
102
RTVSPropertyOp25
 70
     1
102
RTVSPropertyOp26
 70
     1
102
RTVSPropertyOp27
 70
     1
102
RTVSPropertyOp28
 70
     1
102
RTVSPropertyOp29
 70
     1
102
RTVSPropertyOp30
 70
     1
102
RTVSPropertyOp31
 70
     1
102
RTVSPropertyOp32
 70
     1
102
RTVSPropertyOp33
 70
     1
102
RTVSPropertyOp34
 70
     1
102
RTVSPropertyOp35
 70
     1
102
RTVSPropertyOp36
 70
     1
102
RTVSPropertyOp37
 70
     1
102
RTVSPropertyOp38
 70
     1
102
RTVSPropertyOp39
 70
     1
102
RTVSPropertyOp40
 70
     1
102
RTVSPropertyOp41
 70
     1
102
RTVSPropertyOp42
 70
     1
102
RTVSPropertyOp43
 70
     1
102
RTVSPropertyOp44
 70
     1
102
RTVSPropertyOp45
 70
     1
102
RTVSPropertyOp46
 70
     1
102
RTVSPropertyOp47
 70
     1
102
RTVSPropertyOp48
 70
     1
102
RTVSPropertyOp49
 70
     1
102
RTVSPropertyOp50
 70
     1
102
RTVSPropertyOp51
 70
     0
102
RTVSPropertyOp52
 70
     0
102
RTVSPropertyOp53
 70
     1
102
RTVSPropertyOp54
 70
     1
102
RTVSPropertyOp55
 70
     1
102
RTVSPropertyOp56
 70
     1
102
RTVSPropertyOp57
 70
     1
102
RTVSPost2010Prop28
280
     0
102
RTVSPost2010PropOp28
 70
     1
102
RTVSPost2010Prop29
280
     1
102
RTVSPost2010PropOp29
 70
     1
102
RTVSPost2010Prop30
280
     1
102
RTVSPost2010PropOp30
 70
     1
102
RTVSPost2010Prop31
280
     0
102
RTVSPost2010PropOp31
 70
     1
102
RTVSPost2010Prop32
280
     0
102
RTVSPost2010PropOp32
 70
     1
102
RTVSPost2010Prop33
280
     0
102
RTVSPost2010PropOp33
 70
     1
102
RTVSPost2010Prop34
280
     0
102
RTVSPost2010PropOp34
 70
     1
102
RTVSPost2010Prop35
280
     0
102
RTVSPost2010PropOp35
 70
     1
102
RTVSPost2010Prop36
280
     0
102
RTVSPost2010PropOp36
 70
     1
102
RTVSPost2010Prop37
 90
       50
102
RTVSPost2010PropOp37
 70
     1
102
RTVSPost2010Prop38
140
0.0
102
RTVSPost2010PropOp38
 70
     1
102
RTVSPost2010Prop39
140
1.0
102
RTVSPost2010PropOp39
 70
     1
102
RTVSPost2010Prop40
 90
        0
102
RTVSPost2010PropOp40
 70
     1
102
RTVSPost2010Prop41ColorIndex
 90
       18
102
RTVSPost2010Prop41ColorRGB
 90
        0
102
RTVSPost2010PropOp41
 70
     1
102
RTVSPost2010Prop42
 90
       50
102
RTVSPost2010PropOp42
 70
     1
102
RTVSPost2010Prop43
 90
        3
102
RTVSPost2010PropOp43
 70
     1
102
RTVSPost2010Prop44ColorIndex
 90
        5
102
RTVSPost2010Prop44ColorRGB
 90
      255
102
RTVSPost2010PropOp44
 70
     1
102
RTVSPost2010Prop45
280
     0
102
RTVSPost2010PropOp45
 70
     1
102
RTVSPost2010Prop46
 90
       50
102
RTVSPost2010PropOp46
 70
     1
102
RTVSPost2010Prop47
 90
       50
102
RTVSPost2010PropOp47
 70
     1
102
RTVSPost2010Prop48
 90
       50
102
RTVSPost2010PropOp48
 70
     1
102
RTVSPost2010Prop49
280
     0
102
RTVSPost2010PropOp49
 70
     1
102
RTVSPost2010Prop50
 90
       50
102
RTVSPost2010PropOp50
 70
     1
102
RTVSPost2010Prop51ColorIndex
 90
      256
102
RTVSPost2010Prop51ColorRGB
 90
-16777216
102
RTVSPost2010PropOp51
 70
     0
102
RTVSPost2010Prop52
140
1.0
102
RTVSPost2010PropOp52
 70
     0
102
RTVSPost2010Prop53
 90
        2
102
RTVSPost2010PropOp53
 70
     1
102
RTVSPost2010Prop54
  1
strokes_ogs.tif
102
RTVSPost2010PropOp54
 70
     1
102
RTVSPost2010Prop55
280
     0
102
RTVSPost2010PropOp55
 70
     1
102
RTVSPost2010Prop56
140
1.0
102
RTVSPost2010PropOp56
 70
     1
102
RTVSPost2010Prop57
140
1.0
102
RTVSPost2010PropOp57
 70
     1
  0
XRECORD
  5
382
102
{ACAD_REACTORS
330
381
102
}
330
381
100
AcDbXrecord
280
     1
102
RTVSPropertyOp0
 70
     0
102
RTVSPropertyOp1
 70
     0
102
RTVSPropertyOp2
 70
     0
102
RTVSPropertyOp3
 70
     0
102
RTVSPropertyOp4
 70
     0
102
RTVSPropertyOp5
 70
     0
102
RTVSPropertyOp6
 70
     0
102
RTVSPropertyOp7
 70
     0
102
RTVSPropertyOp8
 70
     0
102
RTVSPropertyOp9
 70
     0
102
RTVSPropertyOp10
 70
     0
102
RTVSPropertyOp11
 70
     0
102
RTVSPropertyOp12
 70
     0
102
RTVSPropertyOp13
 70
     0
102
RTVSPropertyOp14
 70
     2
102
RTVSPropertyOp15
 70
     0
102
RTVSPropertyOp16
 70
     0
102
RTVSPropertyOp17
 70
     0
102
RTVSPropertyOp18
 70
     0
102
RTVSPropertyOp19
 70
     0
102
RTVSPropertyOp20
 70
     0
102
RTVSPropertyOp21
 70
     0
102
RTVSPropertyOp22
 70
     0
102
RTVSPropertyOp23
 70
     0
102
RTVSPropertyOp24
 70
     0
102
RTVSPropertyOp25
 70
     0
102
RTVSPropertyOp26
 70
     0
102
RTVSPropertyOp27
 70
     0
102
RTVSPropertyOp28
 70
     0
102
RTVSPropertyOp29
 70
     0
102
RTVSPropertyOp30
 70
     0
102
RTVSPropertyOp31
 70
     0
102
RTVSPropertyOp32
 70
     0
102
RTVSPropertyOp33
 70
     0
102
RTVSPropertyOp34
 70
     0
102
RTVSPropertyOp35
 70
     0
102
RTVSPropertyOp36
 70
     0
102
RTVSPropertyOp37
 70
     0
102
RTVSPropertyOp38
 70
     0
102
RTVSPropertyOp39
 70
     0
102
RTVSPropertyOp40
 70
     0
102
RTVSPropertyOp41
 70
     0
102
RTVSPropertyOp42
 70
     0
102
RTVSPropertyOp43
 70
     0
102
RTVSPropertyOp44
 70
     0
102
RTVSPropertyOp45
 70
     0
102
RTVSPropertyOp46
 70
     0
102
RTVSPropertyOp47
 70
     0
102
RTVSPropertyOp48
 70
     0
102
RTVSPropertyOp49
 70
     0
102
RTVSPropertyOp50
 70
     0
102
RTVSPropertyOp51
 70
     0
102
RTVSPropertyOp52
 70
     0
102
RTVSPropertyOp53
 70
     0
102
RTVSPropertyOp54
 70
     0
102
RTVSPropertyOp55
 70
     0
102
RTVSPropertyOp56
 70
     0
102
RTVSPropertyOp57
 70
     0
102
RTVSPost2010Prop28
280
     0
102
RTVSPost2010PropOp28
 70
     0
102
RTVSPost2010Prop29
280
     1
102
RTVSPost2010PropOp29
 70
     0
102
RTVSPost2010Prop30
280
     1
102
RTVSPost2010PropOp30
 70
     0
102
RTVSPost2010Prop31
280
     0
102
RTVSPost2010PropOp31
 70
     0
102
RTVSPost2010Prop32
280
     0
102
RTVSPost2010PropOp32
 70
     0
102
RTVSPost2010Prop33
280
     0
102
RTVSPost2010PropOp33
 70
     0
102
RTVSPost2010Prop34
280
     0
102
RTVSPost2010PropOp34
 70
     0
102
RTVSPost2010Prop35
280
     0
102
RTVSPost2010PropOp35
 70
     0
102
RTVSPost2010Prop36
280
     0
102
RTVSPost2010PropOp36
 70
     0
102
RTVSPost2010Prop37
 90
       50
102
RTVSPost2010PropOp37
 70
     0
102
RTVSPost2010Prop38
140
0.0
102
RTVSPost2010PropOp38
 70
     0
102
RTVSPost2010Prop39
140
1.0
102
RTVSPost2010PropOp39
 70
     0
102
RTVSPost2010Prop40
 90
        0
102
RTVSPost2010PropOp40
 70
     0
102
RTVSPost2010Prop41ColorIndex
 90
       18
102
RTVSPost2010Prop41ColorRGB
 90
        0
102
RTVSPost2010PropOp41
 70
     0
102
RTVSPost2010Prop42
 90
       50
102
RTVSPost2010PropOp42
 70
     0
102
RTVSPost2010Prop43
 90
        3
102
RTVSPost2010PropOp43
 70
     0
102
RTVSPost2010Prop44ColorIndex
 90
        5
102
RTVSPost2010Prop44ColorRGB
 90
      255
102
RTVSPost2010PropOp44
 70
     0
102
RTVSPost2010Prop45
280
     0
102
RTVSPost2010PropOp45
 70
     0
102
RTVSPost2010Prop46
 90
       50
102
RTVSPost2010PropOp46
 70
     0
102
RTVSPost2010Prop47
 90
       50
102
RTVSPost2010PropOp47
 70
     0
102
RTVSPost2010Prop48
 90
       50
102
RTVSPost2010PropOp48
 70
     0
102
RTVSPost2010Prop49
280
     0
102
RTVSPost2010PropOp49
 70
     0
102
RTVSPost2010Prop50
 90
       50
102
RTVSPost2010PropOp50
 70
     0
102
RTVSPost2010Prop51ColorIndex
 90
      256
102
RTVSPost2010Prop51ColorRGB
 90
-16777216
102
RTVSPost2010PropOp51
 70
     0
102
RTVSPost2010Prop52
140
1.0
102
RTVSPost2010PropOp52
 70
     0
102
RTVSPost2010Prop53
 90
        2
102
RTVSPost2010PropOp53
 70
     0
102
RTVSPost2010Prop54
  1
strokes_ogs.tif
102
RTVSPost2010PropOp54
 70
     0
102
RTVSPost2010Prop55
280
     0
102
RTVSPost2010PropOp55
 70
     0
102
RTVSPost2010Prop56
140
1.0
102
RTVSPost2010PropOp56
 70
     0
102
RTVSPost2010Prop57
140
1.0
102
RTVSPost2010PropOp57
 70
     0
  0
XRECORD
  5
370
102
{ACAD_REACTORS
330
36F
102
}
330
36F
100
AcDbXrecord
280
     1
102
RTVSPropertyOp0
 70
     1
102
RTVSPropertyOp1
 70
     1
102
RTVSPropertyOp2
 70
     1
102
RTVSPropertyOp3
 70
     1
102
RTVSPropertyOp4
 70
     1
102
RTVSPropertyOp5
 70
     1
102
RTVSPropertyOp6
 70
     1
102
RTVSPropertyOp7
 70
     1
102
RTVSPropertyOp8
 70
     1
102
RTVSPropertyOp9
 70
     1
102
RTVSPropertyOp10
 70
     1
102
RTVSPropertyOp11
 70
     1
102
RTVSPropertyOp12
 70
     1
102
RTVSPropertyOp13
 70
     1
102
RTVSPropertyOp14
 70
     1
102
RTVSPropertyOp15
 70
     1
102
RTVSPropertyOp16
 70
     1
102
RTVSPropertyOp17
 70
     1
102
RTVSPropertyOp18
 70
     1
102
RTVSPropertyOp19
 70
     1
102
RTVSPropertyOp20
 70
     1
102
RTVSPropertyOp21
 70
     1
102
RTVSPropertyOp22
 70
     1
102
RTVSPropertyOp23
 70
     1
102
RTVSPropertyOp24
 70
     1
102
RTVSPropertyOp25
 70
     1
102
RTVSPropertyOp26
 70
     1
102
RTVSPropertyOp27
 70
     1
102
RTVSPropertyOp28
 70
     1
102
RTVSPropertyOp29
 70
     1
102
RTVSPropertyOp30
 70
     1
102
RTVSPropertyOp31
 70
     1
102
RTVSPropertyOp32
 70
     1
102
RTVSPropertyOp33
 70
     1
102
RTVSPropertyOp34
 70
     1
102
RTVSPropertyOp35
 70
     1
102
RTVSPropertyOp36
 70
     1
102
RTVSPropertyOp37
 70
     1
102
RTVSPropertyOp38
 70
     1
102
RTVSPropertyOp39
 70
     1
102
RTVSPropertyOp40
 70
     1
102
RTVSPropertyOp41
 70
     1
102
RTVSPropertyOp42
 70
     1
102
RTVSPropertyOp43
 70
     1
102
RTVSPropertyOp44
 70
     1
102
RTVSPropertyOp45
 70
     1
102
RTVSPropertyOp46
 70
     1
102
RTVSPropertyOp47
 70
     1
102
RTVSPropertyOp48
 70
     1
102
RTVSPropertyOp49
 70
     1
102
RTVSPropertyOp50
 70
     1
102
RTVSPropertyOp51
 70
     0
102
RTVSPropertyOp52
 70
     0
102
RTVSPropertyOp53
 70
     1
102
RTVSPropertyOp54
 70
     1
102
RTVSPropertyOp55
 70
     1
102
RTVSPropertyOp56
 70
     1
102
RTVSPropertyOp57
 70
     1
102
RTVSPost2010Prop28
280
     0
102
RTVSPost2010PropOp28
 70
     1
102
RTVSPost2010Prop29
280
     1
102
RTVSPost2010PropOp29
 70
     1
102
RTVSPost2010Prop30
280
     1
102
RTVSPost2010PropOp30
 70
     1
102
RTVSPost2010Prop31
280
     0
102
RTVSPost2010PropOp31
 70
     1
102
RTVSPost2010Prop32
280
     0
102
RTVSPost2010PropOp32
 70
     1
102
RTVSPost2010Prop33
280
     0
102
RTVSPost2010PropOp33
 70
     1
102
RTVSPost2010Prop34
280
     0
102
RTVSPost2010PropOp34
 70
     1
102
RTVSPost2010Prop35
280
     0
102
RTVSPost2010PropOp35
 70
     1
102
RTVSPost2010Prop36
280
     0
102
RTVSPost2010PropOp36
 70
     1
102
RTVSPost2010Prop37
 90
       50
102
RTVSPost2010PropOp37
 70
     1
102
RTVSPost2010Prop38
140
0.0
102
RTVSPost2010PropOp38
 70
     1
102
RTVSPost2010Prop39
140
1.0
102
RTVSPost2010PropOp39
 70
     1
102
RTVSPost2010Prop40
 90
        0
102
RTVSPost2010PropOp40
 70
     1
102
RTVSPost2010Prop41ColorIndex
 90
       18
102
RTVSPost2010Prop41ColorRGB
 90
        0
102
RTVSPost2010PropOp41
 70
     1
102
RTVSPost2010Prop42
 90
       50
102
RTVSPost2010PropOp42
 70
     1
102
RTVSPost2010Prop43
 90
        3
102
RTVSPost2010PropOp43
 70
     1
102
RTVSPost2010Prop44ColorIndex
 90
        5
102
RTVSPost2010Prop44ColorRGB
 90
      255
102
RTVSPost2010PropOp44
 70
     1
102
RTVSPost2010Prop45
280
     0
102
RTVSPost2010PropOp45
 70
     1
102
RTVSPost2010Prop46
 90
       50
102
RTVSPost2010PropOp46
 70
     1
102
RTVSPost2010Prop47
 90
       50
102
RTVSPost2010PropOp47
 70
     1
102
RTVSPost2010Prop48
 90
       50
102
RTVSPost2010PropOp48
 70
     1
102
RTVSPost2010Prop49
280
     0
102
RTVSPost2010PropOp49
 70
     1
102
RTVSPost2010Prop50
 90
       50
102
RTVSPost2010PropOp50
 70
     1
102
RTVSPost2010Prop51ColorIndex
 90
      256
102
RTVSPost2010Prop51ColorRGB
 90
-16777216
102
RTVSPost2010PropOp51
 70
     0
102
RTVSPost2010Prop52
140
1.0
102
RTVSPost2010PropOp52
 70
     0
102
RTVSPost2010Prop53
 90
        2
102
RTVSPost2010PropOp53
 70
     1
102
RTVSPost2010Prop54
  1
strokes_ogs.tif
102
RTVSPost2010PropOp54
 70
     1
102
RTVSPost2010Prop55
280
     0
102
RTVSPost2010PropOp55
 70
     1
102
RTVSPost2010Prop56
140
1.0
102
RTVSPost2010PropOp56
 70
     1
102
RTVSPost2010Prop57
140
1.0
102
RTVSPost2010PropOp57
 70
     1
  0
XRECORD
  5
38E
102
{ACAD_REACTORS
330
38D
102
}
330
38D
100
AcDbXrecord
280
     1
102
RTVSPropertyOp0
 70
     1
102
RTVSPropertyOp1
 70
     1
102
RTVSPropertyOp2
 70
     1
102
RTVSPropertyOp3
 70
     1
102
RTVSPropertyOp4
 70
     1
102
RTVSPropertyOp5
 70
     1
102
RTVSPropertyOp6
 70
     1
102
RTVSPropertyOp7
 70
     1
102
RTVSPropertyOp8
 70
     1
102
RTVSPropertyOp9
 70
     1
102
RTVSPropertyOp10
 70
     1
102
RTVSPropertyOp11
 70
     1
102
RTVSPropertyOp12
 70
     1
102
RTVSPropertyOp13
 70
     1
102
RTVSPropertyOp14
 70
     1
102
RTVSPropertyOp15
 70
     1
102
RTVSPropertyOp16
 70
     1
102
RTVSPropertyOp17
 70
     1
102
RTVSPropertyOp18
 70
     1
102
RTVSPropertyOp19
 70
     1
102
RTVSPropertyOp20
 70
     1
102
RTVSPropertyOp21
 70
     1
102
RTVSPropertyOp22
 70
     1
102
RTVSPropertyOp23
 70
     1
102
RTVSPropertyOp24
 70
     1
102
RTVSPropertyOp25
 70
     1
102
RTVSPropertyOp26
 70
     1
102
RTVSPropertyOp27
 70
     1
102
RTVSPropertyOp28
 70
     1
102
RTVSPropertyOp29
 70
     1
102
RTVSPropertyOp30
 70
     1
102
RTVSPropertyOp31
 70
     1
102
RTVSPropertyOp32
 70
     1
102
RTVSPropertyOp33
 70
     1
102
RTVSPropertyOp34
 70
     1
102
RTVSPropertyOp35
 70
     1
102
RTVSPropertyOp36
 70
     1
102
RTVSPropertyOp37
 70
     1
102
RTVSPropertyOp38
 70
     1
102
RTVSPropertyOp39
 70
     1
102
RTVSPropertyOp40
 70
     1
102
RTVSPropertyOp41
 70
     1
102
RTVSPropertyOp42
 70
     1
102
RTVSPropertyOp43
 70
     1
102
RTVSPropertyOp44
 70
     1
102
RTVSPropertyOp45
 70
     1
102
RTVSPropertyOp46
 70
     1
102
RTVSPropertyOp47
 70
     1
102
RTVSPropertyOp48
 70
     1
102
RTVSPropertyOp49
 70
     1
102
RTVSPropertyOp50
 70
     1
102
RTVSPropertyOp51
 70
     0
102
RTVSPropertyOp52
 70
     0
102
RTVSPropertyOp53
 70
     1
102
RTVSPropertyOp54
 70
     1
102
RTVSPropertyOp55
 70
     1
102
RTVSPropertyOp56
 70
     1
102
RTVSPropertyOp57
 70
     1
102
RTVSPost2010Prop28
280
     0
102
RTVSPost2010PropOp28
 70
     1
102
RTVSPost2010Prop29
280
     1
102
RTVSPost2010PropOp29
 70
     1
102
RTVSPost2010Prop30
280
     1
102
RTVSPost2010PropOp30
 70
     1
102
RTVSPost2010Prop31
280
     0
102
RTVSPost2010PropOp31
 70
     1
102
RTVSPost2010Prop32
280
     0
102
RTVSPost2010PropOp32
 70
     1
102
RTVSPost2010Prop33
280
     0
102
RTVSPost2010PropOp33
 70
     1
102
RTVSPost2010Prop34
280
     0
102
RTVSPost2010PropOp34
 70
     1
102
RTVSPost2010Prop35
280
     0
102
RTVSPost2010PropOp35
 70
     1
102
RTVSPost2010Prop36
280
     0
102
RTVSPost2010PropOp36
 70
     1
102
RTVSPost2010Prop37
 90
       50
102
RTVSPost2010PropOp37
 70
     1
102
RTVSPost2010Prop38
140
0.0
102
RTVSPost2010PropOp38
 70
     1
102
RTVSPost2010Prop39
140
1.0
102
RTVSPost2010PropOp39
 70
     1
102
RTVSPost2010Prop40
 90
        0
102
RTVSPost2010PropOp40
 70
     1
102
RTVSPost2010Prop41ColorIndex
 90
       18
102
RTVSPost2010Prop41ColorRGB
 90
        0
102
RTVSPost2010PropOp41
 70
     1
102
RTVSPost2010Prop42
 90
       50
102
RTVSPost2010PropOp42
 70
     1
102
RTVSPost2010Prop43
 90
        3
102
RTVSPost2010PropOp43
 70
     1
102
RTVSPost2010Prop44ColorIndex
 90
        5
102
RTVSPost2010Prop44ColorRGB
 90
      255
102
RTVSPost2010PropOp44
 70
     1
102
RTVSPost2010Prop45
280
     0
102
RTVSPost2010PropOp45
 70
     1
102
RTVSPost2010Prop46
 90
       50
102
RTVSPost2010PropOp46
 70
     1
102
RTVSPost2010Prop47
 90
       50
102
RTVSPost2010PropOp47
 70
     1
102
RTVSPost2010Prop48
 90
       50
102
RTVSPost2010PropOp48
 70
     1
102
RTVSPost2010Prop49
280
     0
102
RTVSPost2010PropOp49
 70
     1
102
RTVSPost2010Prop50
 90
       50
102
RTVSPost2010PropOp50
 70
     1
102
RTVSPost2010Prop51ColorIndex
 90
      256
102
RTVSPost2010Prop51ColorRGB
 90
-16777216
102
RTVSPost2010PropOp51
 70
     0
102
RTVSPost2010Prop52
140
1.0
102
RTVSPost2010PropOp52
 70
     0
102
RTVSPost2010Prop53
 90
        2
102
RTVSPost2010PropOp53
 70
     1
102
RTVSPost2010Prop54
  1
strokes_ogs.tif
102
RTVSPost2010PropOp54
 70
     1
102
RTVSPost2010Prop55
280
     0
102
RTVSPost2010PropOp55
 70
     1
102
RTVSPost2010Prop56
140
1.0
102
RTVSPost2010PropOp56
 70
     1
102
RTVSPost2010Prop57
140
1.0
102
RTVSPost2010PropOp57
 70
     1
  0
XRECORD
  5
38C
102
{ACAD_REACTORS
330
38B
102
}
330
38B
100
AcDbXrecord
280
     1
102
RTVSPropertyOp0
 70
     1
102
RTVSPropertyOp1
 70
     1
102
RTVSPropertyOp2
 70
     1
102
RTVSPropertyOp3
 70
     1
102
RTVSPropertyOp4
 70
     1
102
RTVSPropertyOp5
 70
     1
102
RTVSPropertyOp6
 70
     1
102
RTVSPropertyOp7
 70
     1
102
RTVSPropertyOp8
 70
     1
102
RTVSPropertyOp9
 70
     1
102
RTVSPropertyOp10
 70
     1
102
RTVSPropertyOp11
 70
     1
102
RTVSPropertyOp12
 70
     1
102
RTVSPropertyOp13
 70
     1
102
RTVSPropertyOp14
 70
     1
102
RTVSPropertyOp15
 70
     1
102
RTVSPropertyOp16
 70
     1
102
RTVSPropertyOp17
 70
     1
102
RTVSPropertyOp18
 70
     1
102
RTVSPropertyOp19
 70
     1
102
RTVSPropertyOp20
 70
     1
102
RTVSPropertyOp21
 70
     1
102
RTVSPropertyOp22
 70
     1
102
RTVSPropertyOp23
 70
     1
102
RTVSPropertyOp24
 70
     1
102
RTVSPropertyOp25
 70
     1
102
RTVSPropertyOp26
 70
     1
102
RTVSPropertyOp27
 70
     1
102
RTVSPropertyOp28
 70
     1
102
RTVSPropertyOp29
 70
     1
102
RTVSPropertyOp30
 70
     1
102
RTVSPropertyOp31
 70
     1
102
RTVSPropertyOp32
 70
     1
102
RTVSPropertyOp33
 70
     1
102
RTVSPropertyOp34
 70
     1
102
RTVSPropertyOp35
 70
     1
102
RTVSPropertyOp36
 70
     1
102
RTVSPropertyOp37
 70
     1
102
RTVSPropertyOp38
 70
     1
102
RTVSPropertyOp39
 70
     1
102
RTVSPropertyOp40
 70
     1
102
RTVSPropertyOp41
 70
     1
102
RTVSPropertyOp42
 70
     1
102
RTVSPropertyOp43
 70
     1
102
RTVSPropertyOp44
 70
     1
102
RTVSPropertyOp45
 70
     1
102
RTVSPropertyOp46
 70
     1
102
RTVSPropertyOp47
 70
     1
102
RTVSPropertyOp48
 70
     1
102
RTVSPropertyOp49
 70
     1
102
RTVSPropertyOp50
 70
     1
102
RTVSPropertyOp51
 70
     0
102
RTVSPropertyOp52
 70
     0
102
RTVSPropertyOp53
 70
     1
102
RTVSPropertyOp54
 70
     1
102
RTVSPropertyOp55
 70
     1
102
RTVSPropertyOp56
 70
     1
102
RTVSPropertyOp57
 70
     1
102
RTVSPost2010Prop28
280
     0
102
RTVSPost2010PropOp28
 70
     1
102
RTVSPost2010Prop29
280
     1
102
RTVSPost2010PropOp29
 70
     1
102
RTVSPost2010Prop30
280
     1
102
RTVSPost2010PropOp30
 70
     1
102
RTVSPost2010Prop31
280
     0
102
RTVSPost2010PropOp31
 70
     1
102
RTVSPost2010Prop32
280
     0
102
RTVSPost2010PropOp32
 70
     1
102
RTVSPost2010Prop33
280
     0
102
RTVSPost2010PropOp33
 70
     1
102
RTVSPost2010Prop34
280
     0
102
RTVSPost2010PropOp34
 70
     1
102
RTVSPost2010Prop35
280
     0
102
RTVSPost2010PropOp35
 70
     1
102
RTVSPost2010Prop36
280
     0
102
RTVSPost2010PropOp36
 70
     1
102
RTVSPost2010Prop37
 90
       50
102
RTVSPost2010PropOp37
 70
     1
102
RTVSPost2010Prop38
140
0.0
102
RTVSPost2010PropOp38
 70
     1
102
RTVSPost2010Prop39
140
1.0
102
RTVSPost2010PropOp39
 70
     1
102
RTVSPost2010Prop40
 90
        0
102
RTVSPost2010PropOp40
 70
     1
102
RTVSPost2010Prop41ColorIndex
 90
       18
102
RTVSPost2010Prop41ColorRGB
 90
        0
102
RTVSPost2010PropOp41
 70
     1
102
RTVSPost2010Prop42
 90
       50
102
RTVSPost2010PropOp42
 70
     1
102
RTVSPost2010Prop43
 90
        3
102
RTVSPost2010PropOp43
 70
     1
102
RTVSPost2010Prop44ColorIndex
 90
        5
102
RTVSPost2010Prop44ColorRGB
 90
      255
102
RTVSPost2010PropOp44
 70
     1
102
RTVSPost2010Prop45
280
     0
102
RTVSPost2010PropOp45
 70
     1
102
RTVSPost2010Prop46
 90
       50
102
RTVSPost2010PropOp46
 70
     1
102
RTVSPost2010Prop47
 90
       50
102
RTVSPost2010PropOp47
 70
     1
102
RTVSPost2010Prop48
 90
       50
102
RTVSPost2010PropOp48
 70
     1
102
RTVSPost2010Prop49
280
     0
102
RTVSPost2010PropOp49
 70
     1
102
RTVSPost2010Prop50
 90
       50
102
RTVSPost2010PropOp50
 70
     1
102
RTVSPost2010Prop51ColorIndex
 90
      256
102
RTVSPost2010Prop51ColorRGB
 90
-16777216
102
RTVSPost2010PropOp51
 70
     0
102
RTVSPost2010Prop52
140
1.0
102
RTVSPost2010PropOp52
 70
     0
102
RTVSPost2010Prop53
 90
        2
102
RTVSPost2010PropOp53
 70
     1
102
RTVSPost2010Prop54
  1
strokes_ogs.tif
102
RTVSPost2010PropOp54
 70
     1
102
RTVSPost2010Prop55
280
     0
102
RTVSPost2010PropOp55
 70
     1
102
RTVSPost2010Prop56
140
1.0
102
RTVSPost2010PropOp56
 70
     1
102
RTVSPost2010Prop57
140
1.0
102
RTVSPost2010PropOp57
 70
     1
  0
XRECORD
  5
386
102
{ACAD_REACTORS
330
385
102
}
330
385
100
AcDbXrecord
280
     1
102
RTVSPropertyOp0
 70
     1
102
RTVSPropertyOp1
 70
     1
102
RTVSPropertyOp2
 70
     1
102
RTVSPropertyOp3
 70
     1
102
RTVSPropertyOp4
 70
     1
102
RTVSPropertyOp5
 70
     1
102
RTVSPropertyOp6
 70
     1
102
RTVSPropertyOp7
 70
     1
102
RTVSPropertyOp8
 70
     1
102
RTVSPropertyOp9
 70
     1
102
RTVSPropertyOp10
 70
     1
102
RTVSPropertyOp11
 70
     1
102
RTVSPropertyOp12
 70
     1
102
RTVSPropertyOp13
 70
     1
102
RTVSPropertyOp14
 70
     1
102
RTVSPropertyOp15
 70
     1
102
RTVSPropertyOp16
 70
     1
102
RTVSPropertyOp17
 70
     1
102
RTVSPropertyOp18
 70
     1
102
RTVSPropertyOp19
 70
     1
102
RTVSPropertyOp20
 70
     1
102
RTVSPropertyOp21
 70
     1
102
RTVSPropertyOp22
 70
     1
102
RTVSPropertyOp23
 70
     1
102
RTVSPropertyOp24
 70
     1
102
RTVSPropertyOp25
 70
     1
102
RTVSPropertyOp26
 70
     1
102
RTVSPropertyOp27
 70
     1
102
RTVSPropertyOp28
 70
     1
102
RTVSPropertyOp29
 70
     1
102
RTVSPropertyOp30
 70
     1
102
RTVSPropertyOp31
 70
     1
102
RTVSPropertyOp32
 70
     1
102
RTVSPropertyOp33
 70
     1
102
RTVSPropertyOp34
 70
     1
102
RTVSPropertyOp35
 70
     1
102
RTVSPropertyOp36
 70
     1
102
RTVSPropertyOp37
 70
     1
102
RTVSPropertyOp38
 70
     1
102
RTVSPropertyOp39
 70
     1
102
RTVSPropertyOp40
 70
     1
102
RTVSPropertyOp41
 70
     1
102
RTVSPropertyOp42
 70
     1
102
RTVSPropertyOp43
 70
     1
102
RTVSPropertyOp44
 70
     1
102
RTVSPropertyOp45
 70
     1
102
RTVSPropertyOp46
 70
     1
102
RTVSPropertyOp47
 70
     1
102
RTVSPropertyOp48
 70
     1
102
RTVSPropertyOp49
 70
     1
102
RTVSPropertyOp50
 70
     1
102
RTVSPropertyOp51
 70
     0
102
RTVSPropertyOp52
 70
     0
102
RTVSPropertyOp53
 70
     1
102
RTVSPropertyOp54
 70
     1
102
RTVSPropertyOp55
 70
     1
102
RTVSPropertyOp56
 70
     1
102
RTVSPropertyOp57
 70
     1
102
RTVSPost2010Prop28
280
     0
102
RTVSPost2010PropOp28
 70
     1
102
RTVSPost2010Prop29
280
     1
102
RTVSPost2010PropOp29
 70
     1
102
RTVSPost2010Prop30
280
     1
102
RTVSPost2010PropOp30
 70
     1
102
RTVSPost2010Prop31
280
     0
102
RTVSPost2010PropOp31
 70
     1
102
RTVSPost2010Prop32
280
     0
102
RTVSPost2010PropOp32
 70
     1
102
RTVSPost2010Prop33
280
     0
102
RTVSPost2010PropOp33
 70
     1
102
RTVSPost2010Prop34
280
     0
102
RTVSPost2010PropOp34
 70
     1
102
RTVSPost2010Prop35
280
     0
102
RTVSPost2010PropOp35
 70
     1
102
RTVSPost2010Prop36
280
     0
102
RTVSPost2010PropOp36
 70
     1
102
RTVSPost2010Prop37
 90
       50
102
RTVSPost2010PropOp37
 70
     1
102
RTVSPost2010Prop38
140
0.0
102
RTVSPost2010PropOp38
 70
     1
102
RTVSPost2010Prop39
140
1.0
102
RTVSPost2010PropOp39
 70
     1
102
RTVSPost2010Prop40
 90
        0
102
RTVSPost2010PropOp40
 70
     1
102
RTVSPost2010Prop41ColorIndex
 90
       18
102
RTVSPost2010Prop41ColorRGB
 90
        0
102
RTVSPost2010PropOp41
 70
     1
102
RTVSPost2010Prop42
 90
       50
102
RTVSPost2010PropOp42
 70
     1
102
RTVSPost2010Prop43
 90
        3
102
RTVSPost2010PropOp43
 70
     1
102
RTVSPost2010Prop44ColorIndex
 90
        5
102
RTVSPost2010Prop44ColorRGB
 90
      255
102
RTVSPost2010PropOp44
 70
     1
102
RTVSPost2010Prop45
280
     0
102
RTVSPost2010PropOp45
 70
     1
102
RTVSPost2010Prop46
 90
       50
102
RTVSPost2010PropOp46
 70
     1
102
RTVSPost2010Prop47
 90
       50
102
RTVSPost2010PropOp47
 70
     1
102
RTVSPost2010Prop48
 90
       50
102
RTVSPost2010PropOp48
 70
     1
102
RTVSPost2010Prop49
280
     0
102
RTVSPost2010PropOp49
 70
     1
102
RTVSPost2010Prop50
 90
       50
102
RTVSPost2010PropOp50
 70
     1
102
RTVSPost2010Prop51ColorIndex
 90
      256
102
RTVSPost2010Prop51ColorRGB
 90
-16777216
102
RTVSPost2010PropOp51
 70
     0
102
RTVSPost2010Prop52
140
1.0
102
RTVSPost2010PropOp52
 70
     0
102
RTVSPost2010Prop53
 90
        2
102
RTVSPost2010PropOp53
 70
     1
102
RTVSPost2010Prop54
  1
strokes_ogs.tif
102
RTVSPost2010PropOp54
 70
     1
102
RTVSPost2010Prop55
280
     0
102
RTVSPost2010PropOp55
 70
     1
102
RTVSPost2010Prop56
140
1.0
102
RTVSPost2010PropOp56
 70
     1
102
RTVSPost2010Prop57
140
1.0
102
RTVSPost2010PropOp57
 70
     1
  0
XRECORD
  5
388
102
{ACAD_REACTORS
330
387
102
}
330
387
100
AcDbXrecord
280
     1
102
RTVSPropertyOp0
 70
     1
102
RTVSPropertyOp1
 70
     1
102
RTVSPropertyOp2
 70
     1
102
RTVSPropertyOp3
 70
     1
102
RTVSPropertyOp4
 70
     1
102
RTVSPropertyOp5
 70
     1
102
RTVSPropertyOp6
 70
     1
102
RTVSPropertyOp7
 70
     1
102
RTVSPropertyOp8
 70
     1
102
RTVSPropertyOp9
 70
     1
102
RTVSPropertyOp10
 70
     1
102
RTVSPropertyOp11
 70
     1
102
RTVSPropertyOp12
 70
     1
102
RTVSPropertyOp13
 70
     1
102
RTVSPropertyOp14
 70
     1
102
RTVSPropertyOp15
 70
     1
102
RTVSPropertyOp16
 70
     1
102
RTVSPropertyOp17
 70
     1
102
RTVSPropertyOp18
 70
     1
102
RTVSPropertyOp19
 70
     1
102
RTVSPropertyOp20
 70
     1
102
RTVSPropertyOp21
 70
     1
102
RTVSPropertyOp22
 70
     1
102
RTVSPropertyOp23
 70
     1
102
RTVSPropertyOp24
 70
     1
102
RTVSPropertyOp25
 70
     1
102
RTVSPropertyOp26
 70
     1
102
RTVSPropertyOp27
 70
     1
102
RTVSPropertyOp28
 70
     1
102
RTVSPropertyOp29
 70
     1
102
RTVSPropertyOp30
 70
     1
102
RTVSPropertyOp31
 70
     1
102
RTVSPropertyOp32
 70
     1
102
RTVSPropertyOp33
 70
     1
102
RTVSPropertyOp34
 70
     1
102
RTVSPropertyOp35
 70
     1
102
RTVSPropertyOp36
 70
     1
102
RTVSPropertyOp37
 70
     1
102
RTVSPropertyOp38
 70
     1
102
RTVSPropertyOp39
 70
     1
102
RTVSPropertyOp40
 70
     1
102
RTVSPropertyOp41
 70
     1
102
RTVSPropertyOp42
 70
     1
102
RTVSPropertyOp43
 70
     1
102
RTVSPropertyOp44
 70
     1
102
RTVSPropertyOp45
 70
     1
102
RTVSPropertyOp46
 70
     1
102
RTVSPropertyOp47
 70
     1
102
RTVSPropertyOp48
 70
     1
102
RTVSPropertyOp49
 70
     1
102
RTVSPropertyOp50
 70
     1
102
RTVSPropertyOp51
 70
     0
102
RTVSPropertyOp52
 70
     0
102
RTVSPropertyOp53
 70
     1
102
RTVSPropertyOp54
 70
     1
102
RTVSPropertyOp55
 70
     1
102
RTVSPropertyOp56
 70
     1
102
RTVSPropertyOp57
 70
     1
102
RTVSPost2010Prop28
280
     0
102
RTVSPost2010PropOp28
 70
     1
102
RTVSPost2010Prop29
280
     1
102
RTVSPost2010PropOp29
 70
     1
102
RTVSPost2010Prop30
280
     1
102
RTVSPost2010PropOp30
 70
     1
102
RTVSPost2010Prop31
280
     0
102
RTVSPost2010PropOp31
 70
     1
102
RTVSPost2010Prop32
280
     0
102
RTVSPost2010PropOp32
 70
     1
102
RTVSPost2010Prop33
280
     0
102
RTVSPost2010PropOp33
 70
     1
102
RTVSPost2010Prop34
280
     0
102
RTVSPost2010PropOp34
 70
     1
102
RTVSPost2010Prop35
280
     0
102
RTVSPost2010PropOp35
 70
     1
102
RTVSPost2010Prop36
280
     0
102
RTVSPost2010PropOp36
 70
     1
102
RTVSPost2010Prop37
 90
       50
102
RTVSPost2010PropOp37
 70
     1
102
RTVSPost2010Prop38
140
0.0
102
RTVSPost2010PropOp38
 70
     1
102
RTVSPost2010Prop39
140
1.0
102
RTVSPost2010PropOp39
 70
     1
102
RTVSPost2010Prop40
 90
        0
102
RTVSPost2010PropOp40
 70
     1
102
RTVSPost2010Prop41ColorIndex
 90
       18
102
RTVSPost2010Prop41ColorRGB
 90
        0
102
RTVSPost2010PropOp41
 70
     1
102
RTVSPost2010Prop42
 90
       50
102
RTVSPost2010PropOp42
 70
     1
102
RTVSPost2010Prop43
 90
        3
102
RTVSPost2010PropOp43
 70
     1
102
RTVSPost2010Prop44ColorIndex
 90
        5
102
RTVSPost2010Prop44ColorRGB
 90
      255
102
RTVSPost2010PropOp44
 70
     1
102
RTVSPost2010Prop45
280
     0
102
RTVSPost2010PropOp45
 70
     1
102
RTVSPost2010Prop46
 90
       50
102
RTVSPost2010PropOp46
 70
     1
102
RTVSPost2010Prop47
 90
       50
102
RTVSPost2010PropOp47
 70
     1
102
RTVSPost2010Prop48
 90
       50
102
RTVSPost2010PropOp48
 70
     1
102
RTVSPost2010Prop49
280
     0
102
RTVSPost2010PropOp49
 70
     1
102
RTVSPost2010Prop50
 90
       50
102
RTVSPost2010PropOp50
 70
     1
102
RTVSPost2010Prop51ColorIndex
 90
      256
102
RTVSPost2010Prop51ColorRGB
 90
-16777216
102
RTVSPost2010PropOp51
 70
     0
102
RTVSPost2010Prop52
140
1.0
102
RTVSPost2010PropOp52
 70
     0
102
RTVSPost2010Prop53
 90
        2
102
RTVSPost2010PropOp53
 70
     1
102
RTVSPost2010Prop54
  1
strokes_ogs.tif
102
RTVSPost2010PropOp54
 70
     1
102
RTVSPost2010Prop55
280
     0
102
RTVSPost2010PropOp55
 70
     1
102
RTVSPost2010Prop56
140
1.0
102
RTVSPost2010PropOp56
 70
     1
102
RTVSPost2010Prop57
140
1.0
102
RTVSPost2010PropOp57
 70
     1
  0
XRECORD
  5
378
102
{ACAD_REACTORS
330
377
102
}
330
377
100
AcDbXrecord
280
     1
102
RTVSPropertyOp0
 70
     1
102
RTVSPropertyOp1
 70
     1
102
RTVSPropertyOp2
 70
     1
102
RTVSPropertyOp3
 70
     1
102
RTVSPropertyOp4
 70
     1
102
RTVSPropertyOp5
 70
     1
102
RTVSPropertyOp6
 70
     1
102
RTVSPropertyOp7
 70
     1
102
RTVSPropertyOp8
 70
     1
102
RTVSPropertyOp9
 70
     1
102
RTVSPropertyOp10
 70
     1
102
RTVSPropertyOp11
 70
     1
102
RTVSPropertyOp12
 70
     1
102
RTVSPropertyOp13
 70
     1
102
RTVSPropertyOp14
 70
     1
102
RTVSPropertyOp15
 70
     1
102
RTVSPropertyOp16
 70
     1
102
RTVSPropertyOp17
 70
     1
102
RTVSPropertyOp18
 70
     1
102
RTVSPropertyOp19
 70
     1
102
RTVSPropertyOp20
 70
     1
102
RTVSPropertyOp21
 70
     1
102
RTVSPropertyOp22
 70
     1
102
RTVSPropertyOp23
 70
     1
102
RTVSPropertyOp24
 70
     1
102
RTVSPropertyOp25
 70
     1
102
RTVSPropertyOp26
 70
     1
102
RTVSPropertyOp27
 70
     1
102
RTVSPropertyOp28
 70
     1
102
RTVSPropertyOp29
 70
     1
102
RTVSPropertyOp30
 70
     1
102
RTVSPropertyOp31
 70
     1
102
RTVSPropertyOp32
 70
     1
102
RTVSPropertyOp33
 70
     1
102
RTVSPropertyOp34
 70
     1
102
RTVSPropertyOp35
 70
     1
102
RTVSPropertyOp36
 70
     1
102
RTVSPropertyOp37
 70
     1
102
RTVSPropertyOp38
 70
     1
102
RTVSPropertyOp39
 70
     1
102
RTVSPropertyOp40
 70
     1
102
RTVSPropertyOp41
 70
     1
102
RTVSPropertyOp42
 70
     1
102
RTVSPropertyOp43
 70
     1
102
RTVSPropertyOp44
 70
     1
102
RTVSPropertyOp45
 70
     1
102
RTVSPropertyOp46
 70
     1
102
RTVSPropertyOp47
 70
     1
102
RTVSPropertyOp48
 70
     1
102
RTVSPropertyOp49
 70
     1
102
RTVSPropertyOp50
 70
     1
102
RTVSPropertyOp51
 70
     0
102
RTVSPropertyOp52
 70
     0
102
RTVSPropertyOp53
 70
     1
102
RTVSPropertyOp54
 70
     1
102
RTVSPropertyOp55
 70
     1
102
RTVSPropertyOp56
 70
     1
102
RTVSPropertyOp57
 70
     1
102
RTVSPost2010Prop28
280
     0
102
RTVSPost2010PropOp28
 70
     1
102
RTVSPost2010Prop29
280
     1
102
RTVSPost2010PropOp29
 70
     1
102
RTVSPost2010Prop30
280
     1
102
RTVSPost2010PropOp30
 70
     1
102
RTVSPost2010Prop31
280
     0
102
RTVSPost2010PropOp31
 70
     1
102
RTVSPost2010Prop32
280
     0
102
RTVSPost2010PropOp32
 70
     1
102
RTVSPost2010Prop33
280
     0
102
RTVSPost2010PropOp33
 70
     1
102
RTVSPost2010Prop34
280
     0
102
RTVSPost2010PropOp34
 70
     1
102
RTVSPost2010Prop35
280
     0
102
RTVSPost2010PropOp35
 70
     1
102
RTVSPost2010Prop36
280
     0
102
RTVSPost2010PropOp36
 70
     1
102
RTVSPost2010Prop37
 90
       50
102
RTVSPost2010PropOp37
 70
     1
102
RTVSPost2010Prop38
140
0.0
102
RTVSPost2010PropOp38
 70
     1
102
RTVSPost2010Prop39
140
1.0
102
RTVSPost2010PropOp39
 70
     1
102
RTVSPost2010Prop40
 90
        0
102
RTVSPost2010PropOp40
 70
     1
102
RTVSPost2010Prop41ColorIndex
 90
       18
102
RTVSPost2010Prop41ColorRGB
 90
        0
102
RTVSPost2010PropOp41
 70
     1
102
RTVSPost2010Prop42
 90
       50
102
RTVSPost2010PropOp42
 70
     1
102
RTVSPost2010Prop43
 90
        3
102
RTVSPost2010PropOp43
 70
     1
102
RTVSPost2010Prop44ColorIndex
 90
        5
102
RTVSPost2010Prop44ColorRGB
 90
      255
102
RTVSPost2010PropOp44
 70
     1
102
RTVSPost2010Prop45
280
     0
102
RTVSPost2010PropOp45
 70
     1
102
RTVSPost2010Prop46
 90
       50
102
RTVSPost2010PropOp46
 70
     1
102
RTVSPost2010Prop47
 90
       50
102
RTVSPost2010PropOp47
 70
     1
102
RTVSPost2010Prop48
 90
       50
102
RTVSPost2010PropOp48
 70
     1
102
RTVSPost2010Prop49
280
     0
102
RTVSPost2010PropOp49
 70
     1
102
RTVSPost2010Prop50
 90
       50
102
RTVSPost2010PropOp50
 70
     1
102
RTVSPost2010Prop51ColorIndex
 90
      256
102
RTVSPost2010Prop51ColorRGB
 90
-16777216
102
RTVSPost2010PropOp51
 70
     0
102
RTVSPost2010Prop52
140
1.0
102
RTVSPost2010PropOp52
 70
     0
102
RTVSPost2010Prop53
 90
        2
102
RTVSPost2010PropOp53
 70
     1
102
RTVSPost2010Prop54
  1
strokes_ogs.tif
102
RTVSPost2010PropOp54
 70
     1
102
RTVSPost2010Prop55
280
     0
102
RTVSPost2010PropOp55
 70
     1
102
RTVSPost2010Prop56
140
1.0
102
RTVSPost2010PropOp56
 70
     1
102
RTVSPost2010Prop57
140
1.0
102
RTVSPost2010PropOp57
 70
     1
  0
XRECORD
  5
36A
102
{ACAD_REACTORS
330
369
102
}
330
369
100
AcDbXrecord
280
     1
102
RTVSPropertyOp0
 70
     1
102
RTVSPropertyOp1
 70
     1
102
RTVSPropertyOp2
 70
     1
102
RTVSPropertyOp3
 70
     1
102
RTVSPropertyOp4
 70
     1
102
RTVSPropertyOp5
 70
     1
102
RTVSPropertyOp6
 70
     1
102
RTVSPropertyOp7
 70
     1
102
RTVSPropertyOp8
 70
     1
102
RTVSPropertyOp9
 70
     1
102
RTVSPropertyOp10
 70
     1
102
RTVSPropertyOp11
 70
     1
102
RTVSPropertyOp12
 70
     1
102
RTVSPropertyOp13
 70
     1
102
RTVSPropertyOp14
 70
     1
102
RTVSPropertyOp15
 70
     1
102
RTVSPropertyOp16
 70
     1
102
RTVSPropertyOp17
 70
     1
102
RTVSPropertyOp18
 70
     1
102
RTVSPropertyOp19
 70
     1
102
RTVSPropertyOp20
 70
     1
102
RTVSPropertyOp21
 70
     1
102
RTVSPropertyOp22
 70
     1
102
RTVSPropertyOp23
 70
     1
102
RTVSPropertyOp24
 70
     1
102
RTVSPropertyOp25
 70
     1
102
RTVSPropertyOp26
 70
     1
102
RTVSPropertyOp27
 70
     1
102
RTVSPropertyOp28
 70
     1
102
RTVSPropertyOp29
 70
     1
102
RTVSPropertyOp30
 70
     1
102
RTVSPropertyOp31
 70
     1
102
RTVSPropertyOp32
 70
     1
102
RTVSPropertyOp33
 70
     1
102
RTVSPropertyOp34
 70
     1
102
RTVSPropertyOp35
 70
     1
102
RTVSPropertyOp36
 70
     1
102
RTVSPropertyOp37
 70
     1
102
RTVSPropertyOp38
 70
     1
102
RTVSPropertyOp39
 70
     1
102
RTVSPropertyOp40
 70
     1
102
RTVSPropertyOp41
 70
     1
102
RTVSPropertyOp42
 70
     1
102
RTVSPropertyOp43
 70
     1
102
RTVSPropertyOp44
 70
     1
102
RTVSPropertyOp45
 70
     1
102
RTVSPropertyOp46
 70
     1
102
RTVSPropertyOp47
 70
     1
102
RTVSPropertyOp48
 70
     1
102
RTVSPropertyOp49
 70
     1
102
RTVSPropertyOp50
 70
     1
102
RTVSPropertyOp51
 70
     0
102
RTVSPropertyOp52
 70
     0
102
RTVSPropertyOp53
 70
     1
102
RTVSPropertyOp54
 70
     1
102
RTVSPropertyOp55
 70
     1
102
RTVSPropertyOp56
 70
     1
102
RTVSPropertyOp57
 70
     1
102
RTVSPost2010Prop28
280
     0
102
RTVSPost2010PropOp28
 70
     1
102
RTVSPost2010Prop29
280
     1
102
RTVSPost2010PropOp29
 70
     1
102
RTVSPost2010Prop30
280
     1
102
RTVSPost2010PropOp30
 70
     1
102
RTVSPost2010Prop31
280
     0
102
RTVSPost2010PropOp31
 70
     1
102
RTVSPost2010Prop32
280
     0
102
RTVSPost2010PropOp32
 70
     1
102
RTVSPost2010Prop33
280
     0
102
RTVSPost2010PropOp33
 70
     1
102
RTVSPost2010Prop34
280
     0
102
RTVSPost2010PropOp34
 70
     1
102
RTVSPost2010Prop35
280
     0
102
RTVSPost2010PropOp35
 70
     1
102
RTVSPost2010Prop36
280
     0
102
RTVSPost2010PropOp36
 70
     1
102
RTVSPost2010Prop37
 90
       50
102
RTVSPost2010PropOp37
 70
     1
102
RTVSPost2010Prop38
140
0.0
102
RTVSPost2010PropOp38
 70
     1
102
RTVSPost2010Prop39
140
1.0
102
RTVSPost2010PropOp39
 70
     1
102
RTVSPost2010Prop40
 90
        0
102
RTVSPost2010PropOp40
 70
     1
102
RTVSPost2010Prop41ColorIndex
 90
       18
102
RTVSPost2010Prop41ColorRGB
 90
        0
102
RTVSPost2010PropOp41
 70
     1
102
RTVSPost2010Prop42
 90
       50
102
RTVSPost2010PropOp42
 70
     1
102
RTVSPost2010Prop43
 90
        3
102
RTVSPost2010PropOp43
 70
     1
102
RTVSPost2010Prop44ColorIndex
 90
        5
102
RTVSPost2010Prop44ColorRGB
 90
      255
102
RTVSPost2010PropOp44
 70
     1
102
RTVSPost2010Prop45
280
     0
102
RTVSPost2010PropOp45
 70
     1
102
RTVSPost2010Prop46
 90
       50
102
RTVSPost2010PropOp46
 70
     1
102
RTVSPost2010Prop47
 90
       50
102
RTVSPost2010PropOp47
 70
     1
102
RTVSPost2010Prop48
 90
       50
102
RTVSPost2010PropOp48
 70
     1
102
RTVSPost2010Prop49
280
     0
102
RTVSPost2010PropOp49
 70
     1
102
RTVSPost2010Prop50
 90
       50
102
RTVSPost2010PropOp50
 70
     1
102
RTVSPost2010Prop51ColorIndex
 90
      256
102
RTVSPost2010Prop51ColorRGB
 90
-16777216
102
RTVSPost2010PropOp51
 70
     0
102
RTVSPost2010Prop52
140
1.0
102
RTVSPost2010PropOp52
 70
     0
102
RTVSPost2010Prop53
 90
        2
102
RTVSPost2010PropOp53
 70
     1
102
RTVSPost2010Prop54
  1
strokes_ogs.tif
102
RTVSPost2010PropOp54
 70
     1
102
RTVSPost2010Prop55
280
     0
102
RTVSPost2010PropOp55
 70
     1
102
RTVSPost2010Prop56
140
1.0
102
RTVSPost2010PropOp56
 70
     1
102
RTVSPost2010Prop57
140
1.0
102
RTVSPost2010PropOp57
 70
     1
  0
XRECORD
  5
38A
102
{ACAD_REACTORS
330
389
102
}
330
389
100
AcDbXrecord
280
     1
102
RTVSPropertyOp0
 70
     1
102
RTVSPropertyOp1
 70
     1
102
RTVSPropertyOp2
 70
     1
102
RTVSPropertyOp3
 70
     1
102
RTVSPropertyOp4
 70
     1
102
RTVSPropertyOp5
 70
     1
102
RTVSPropertyOp6
 70
     1
102
RTVSPropertyOp7
 70
     1
102
RTVSPropertyOp8
 70
     1
102
RTVSPropertyOp9
 70
     1
102
RTVSPropertyOp10
 70
     1
102
RTVSPropertyOp11
 70
     1
102
RTVSPropertyOp12
 70
     1
102
RTVSPropertyOp13
 70
     1
102
RTVSPropertyOp14
 70
     1
102
RTVSPropertyOp15
 70
     1
102
RTVSPropertyOp16
 70
     1
102
RTVSPropertyOp17
 70
     1
102
RTVSPropertyOp18
 70
     1
102
RTVSPropertyOp19
 70
     1
102
RTVSPropertyOp20
 70
     1
102
RTVSPropertyOp21
 70
     1
102
RTVSPropertyOp22
 70
     1
102
RTVSPropertyOp23
 70
     1
102
RTVSPropertyOp24
 70
     1
102
RTVSPropertyOp25
 70
     1
102
RTVSPropertyOp26
 70
     1
102
RTVSPropertyOp27
 70
     1
102
RTVSPropertyOp28
 70
     1
102
RTVSPropertyOp29
 70
     1
102
RTVSPropertyOp30
 70
     1
102
RTVSPropertyOp31
 70
     1
102
RTVSPropertyOp32
 70
     1
102
RTVSPropertyOp33
 70
     1
102
RTVSPropertyOp34
 70
     1
102
RTVSPropertyOp35
 70
     1
102
RTVSPropertyOp36
 70
     1
102
RTVSPropertyOp37
 70
     1
102
RTVSPropertyOp38
 70
     1
102
RTVSPropertyOp39
 70
     1
102
RTVSPropertyOp40
 70
     1
102
RTVSPropertyOp41
 70
     1
102
RTVSPropertyOp42
 70
     1
102
RTVSPropertyOp43
 70
     1
102
RTVSPropertyOp44
 70
     1
102
RTVSPropertyOp45
 70
     1
102
RTVSPropertyOp46
 70
     1
102
RTVSPropertyOp47
 70
     1
102
RTVSPropertyOp48
 70
     1
102
RTVSPropertyOp49
 70
     1
102
RTVSPropertyOp50
 70
     1
102
RTVSPropertyOp51
 70
     0
102
RTVSPropertyOp52
 70
     0
102
RTVSPropertyOp53
 70
     1
102
RTVSPropertyOp54
 70
     1
102
RTVSPropertyOp55
 70
     1
102
RTVSPropertyOp56
 70
     1
102
RTVSPropertyOp57
 70
     1
102
RTVSPost2010Prop28
280
     0
102
RTVSPost2010PropOp28
 70
     1
102
RTVSPost2010Prop29
280
     1
102
RTVSPost2010PropOp29
 70
     1
102
RTVSPost2010Prop30
280
     1
102
RTVSPost2010PropOp30
 70
     1
102
RTVSPost2010Prop31
280
     0
102
RTVSPost2010PropOp31
 70
     1
102
RTVSPost2010Prop32
280
     0
102
RTVSPost2010PropOp32
 70
     1
102
RTVSPost2010Prop33
280
     0
102
RTVSPost2010PropOp33
 70
     1
102
RTVSPost2010Prop34
280
     0
102
RTVSPost2010PropOp34
 70
     1
102
RTVSPost2010Prop35
280
     0
102
RTVSPost2010PropOp35
 70
     1
102
RTVSPost2010Prop36
280
     0
102
RTVSPost2010PropOp36
 70
     1
102
RTVSPost2010Prop37
 90
       50
102
RTVSPost2010PropOp37
 70
     1
102
RTVSPost2010Prop38
140
0.0
102
RTVSPost2010PropOp38
 70
     1
102
RTVSPost2010Prop39
140
1.0
102
RTVSPost2010PropOp39
 70
     1
102
RTVSPost2010Prop40
 90
        0
102
RTVSPost2010PropOp40
 70
     1
102
RTVSPost2010Prop41ColorIndex
 90
       18
102
RTVSPost2010Prop41ColorRGB
 90
        0
102
RTVSPost2010PropOp41
 70
     1
102
RTVSPost2010Prop42
 90
       50
102
RTVSPost2010PropOp42
 70
     1
102
RTVSPost2010Prop43
 90
        3
102
RTVSPost2010PropOp43
 70
     1
102
RTVSPost2010Prop44ColorIndex
 90
        5
102
RTVSPost2010Prop44ColorRGB
 90
      255
102
RTVSPost2010PropOp44
 70
     1
102
RTVSPost2010Prop45
280
     0
102
RTVSPost2010PropOp45
 70
     1
102
RTVSPost2010Prop46
 90
       50
102
RTVSPost2010PropOp46
 70
     1
102
RTVSPost2010Prop47
 90
       50
102
RTVSPost2010PropOp47
 70
     1
102
RTVSPost2010Prop48
 90
       50
102
RTVSPost2010PropOp48
 70
     1
102
RTVSPost2010Prop49
280
     0
102
RTVSPost2010PropOp49
 70
     1
102
RTVSPost2010Prop50
 90
       50
102
RTVSPost2010PropOp50
 70
     1
102
RTVSPost2010Prop51ColorIndex
 90
      256
102
RTVSPost2010Prop51ColorRGB
 90
-16777216
102
RTVSPost2010PropOp51
 70
     0
102
RTVSPost2010Prop52
140
1.0
102
RTVSPost2010PropOp52
 70
     0
102
RTVSPost2010Prop53
 90
        2
102
RTVSPost2010PropOp53
 70
     1
102
RTVSPost2010Prop54
  1
strokes_ogs.tif
102
RTVSPost2010PropOp54
 70
     1
102
RTVSPost2010Prop55
280
     0
102
RTVSPost2010PropOp55
 70
     1
102
RTVSPost2010Prop56
140
1.0
102
RTVSPost2010PropOp56
 70
     1
102
RTVSPost2010Prop57
140
1.0
102
RTVSPost2010PropOp57
 70
     1
  0
ENDSEC
  0
EOF
