  0
SECTION
  2
HEADER
  9
$ACADVER
  1
AC1015
  9
$ACADMAINTVER
 70
     6
  9
$DWGCODEPAGE
  3
ANSI_1252
  9
$INSBASE
 10
0.0
 20
0.0
 30
0.0
  9
$EXTMIN
 10
42.93137970099476
 20
-44.13160733467885
 30
-0.0015258207003583
  9
$EXTMAX
 10
73.41948222804916
 20
-2.058780931988508
 30
0.0000000349246037
  9
$LIMMIN
 10
0.0
 20
0.0
  9
$LIMMAX
 10
12.0
 20
9.0
  9
$ORTHOMODE
 70
     0
  9
$REGENMODE
 70
     1
  9
$FILLMODE
 70
     1
  9
$QTEXTMODE
 70
     0
  9
$MIRRTEXT
 70
     1
  9
$LTSCALE
 40
1.0
  9
$ATTMODE
 70
     1
  9
$TEXTSIZE
 40
0.2
  9
$TRACEWID
 40
0.05
  9
$TEXTSTYLE
  7
Standard
  9
$CLAYER
  8
0
  9
$CELTYPE
  6
ByLayer
  9
$CECOLOR
 62
   256
  9
$CELTSCALE
 40
1.0
  9
$DISPSILH
 70
     0
  9
$DIMSCALE
 40
1.0
  9
$DIMASZ
 40
0.18
  9
$DIMEXO
 40
0.0625
  9
$DIMDLI
 40
0.38
  9
$DIMRND
 40
0.0
  9
$DIMDLE
 40
0.0
  9
$DIMEXE
 40
0.18
  9
$DIMTP
 40
0.0
  9
$DIMTM
 40
0.0
  9
$DIMTXT
 40
0.18
  9
$DIMCEN
 40
0.09
  9
$DIMTSZ
 40
0.0
  9
$DIMTOL
 70
     0
  9
$DIMLIM
 70
     0
  9
$DIMTIH
 70
     1
  9
$DIMTOH
 70
     1
  9
$DIMSE1
 70
     0
  9
$DIMSE2
 70
     0
  9
$DIMTAD
 70
     0
  9
$DIMZIN
 70
     0
  9
$DIMBLK
  1

  9
$DIMASO
 70
     1
  9
$DIMSHO
 70
     1
  9
$DIMPOST
  1

  9
$DIMAPOST
  1

  9
$DIMALT
 70
     0
  9
$DIMALTD
 70
     2
  9
$DIMALTF
 40
25.4
  9
$DIMLFAC
 40
1.0
  9
$DIMTOFL
 70
     0
  9
$DIMTVP
 40
0.0
  9
$DIMTIX
 70
     0
  9
$DIMSOXD
 70
     0
  9
$DIMSAH
 70
     0
  9
$DIMBLK1
  1

  9
$DIMBLK2
  1

  9
$DIMSTYLE
  2
Standard
  9
$DIMCLRD
 70
     0
  9
$DIMCLRE
 70
     0
  9
$DIMCLRT
 70
     0
  9
$DIMTFAC
 40
1.0
  9
$DIMGAP
 40
0.09
  9
$DIMJUST
 70
     0
  9
$DIMSD1
 70
     0
  9
$DIMSD2
 70
     0
  9
$DIMTOLJ
 70
     1
  9
$DIMTZIN
 70
     0
  9
$DIMALTZ
 70
     0
  9
$DIMALTTZ
 70
     0
  9
$DIMUPT
 70
     0
  9
$DIMDEC
 70
     4
  9
$DIMTDEC
 70
     4
  9
$DIMALTU
 70
     2
  9
$DIMALTTD
 70
     2
  9
$DIMTXSTY
  7
Standard
  9
$DIMAUNIT
 70
     0
  9
$DIMADEC
 70
     0
  9
$DIMALTRND
 40
0.0
  9
$DIMAZIN
 70
     0
  9
$DIMDSEP
 70
    46
  9
$DIMATFIT
 70
     3
  9
$DIMFRAC
 70
     0
  9
$DIMLDRBLK
  1

  9
$DIMLUNIT
 70
     2
  9
$DIMLWD
 70
    -2
  9
$DIMLWE
 70
    -2
  9
$DIMTMOVE
 70
     0
  9
$LUNITS
 70
     2
  9
$LUPREC
 70
     4
  9
$SKETCHINC
 40
0.1
  9
$FILLETRAD
 40
0.5
  9
$AUNITS
 70
     0
  9
$AUPREC
 70
     0
  9
$MENU
  1
.
  9
$ELEVATION
 40
0.0
  9
$PELEVATION
 40
0.0
  9
$THICKNESS
 40
0.0
  9
$LIMCHECK
 70
     0
  9
$CHAMFERA
 40
0.5
  9
$CHAMFERB
 40
0.5
  9
$CHAMFERC
 40
1.0
  9
$CHAMFERD
 40
0.0
  9
$SKPOLY
 70
     0
  9
$TDCREATE
 40
2453591.541621991
  9
$TDUCREATE
 40
2453591.833288657
  9
$TDUPDATE
 40
2453592.691504988
  9
$TDUUPDATE
 40
2453592.983171655
  9
$TDINDWG
 40
0.0331150579
  9
$TDUSRTIMER
 40
0.0331150579
  9
$USRTIMER
 70
     1
  9
$ANGBASE
 50
0.0
  9
$ANGDIR
 70
     0
  9
$PDMODE
 70
     0
  9
$PDSIZE
 40
0.0
  9
$PLINEWID
 40
0.0
  9
$SPLFRAME
 70
     0
  9
$SPLINETYPE
 70
     6
  9
$SPLINESEGS
 70
     8
  9
$HANDSEED
  5
10E
  9
$SURFTAB1
 70
     6
  9
$SURFTAB2
 70
     6
  9
$SURFTYPE
 70
     6
  9
$SURFU
 70
     6
  9
$SURFV
 70
     6
  9
$UCSBASE
  2

  9
$UCSNAME
  2

  9
$UCSORG
 10
0.0
 20
0.0
 30
0.0
  9
$UCSXDIR
 10
1.0
 20
0.0
 30
0.0
  9
$UCSYDIR
 10
0.0
 20
1.0
 30
0.0
  9
$UCSORTHOREF
  2

  9
$UCSORTHOVIEW
 70
     0
  9
$UCSORGTOP
 10
0.0
 20
0.0
 30
0.0
  9
$UCSORGBOTTOM
 10
0.0
 20
0.0
 30
0.0
  9
$UCSORGLEFT
 10
0.0
 20
0.0
 30
0.0
  9
$UCSORGRIGHT
 10
0.0
 20
0.0
 30
0.0
  9
$UCSORGFRONT
 10
0.0
 20
0.0
 30
0.0
  9
$UCSORGBACK
 10
0.0
 20
0.0
 30
0.0
  9
$PUCSBASE
  2

  9
$PUCSNAME
  2

  9
$PUCSORG
 10
0.0
 20
0.0
 30
0.0
  9
$PUCSXDIR
 10
1.0
 20
0.0
 30
0.0
  9
$PUCSYDIR
 10
0.0
 20
1.0
 30
0.0
  9
$PUCSORTHOREF
  2

  9
$PUCSORTHOVIEW
 70
     0
  9
$PUCSORGTOP
 10
0.0
 20
0.0
 30
0.0
  9
$PUCSORGBOTTOM
 10
0.0
 20
0.0
 30
0.0
  9
$PUCSORGLEFT
 10
0.0
 20
0.0
 30
0.0
  9
$PUCSORGRIGHT
 10
0.0
 20
0.0
 30
0.0
  9
$PUCSORGFRONT
 10
0.0
 20
0.0
 30
0.0
  9
$PUCSORGBACK
 10
0.0
 20
0.0
 30
0.0
  9
$USERI1
 70
     0
  9
$USERI2
 70
     0
  9
$USERI3
 70
     0
  9
$USERI4
 70
     0
  9
$USERI5
 70
     0
  9
$USERR1
 40
0.0
  9
$USERR2
 40
0.0
  9
$USERR3
 40
0.0
  9
$USERR4
 40
0.0
  9
$USERR5
 40
0.0
  9
$WORLDVIEW
 70
     1
  9
$SHADEDGE
 70
     3
  9
$SHADEDIF
 70
    70
  9
$TILEMODE
 70
     1
  9
$MAXACTVP
 70
    64
  9
$PINSBASE
 10
0.0
 20
0.0
 30
0.0
  9
$PLIMCHECK
 70
     0
  9
$PEXTMIN
 10
1.000000000000000E+20
 20
1.000000000000000E+20
 30
1.000000000000000E+20
  9
$PEXTMAX
 10
-1.000000000000000E+20
 20
-1.000000000000000E+20
 30
-1.000000000000000E+20
  9
$PLIMMIN
 10
0.0
 20
0.0
  9
$PLIMMAX
 10
12.0
 20
9.0
  9
$UNITMODE
 70
     0
  9
$VISRETAIN
 70
     1
  9
$PLINEGEN
 70
     0
  9
$PSLTSCALE
 70
     1
  9
$TREEDEPTH
 70
  3020
  9
$CMLSTYLE
  2
Standard
  9
$CMLJUST
 70
     0
  9
$CMLSCALE
 40
1.0
  9
$PROXYGRAPHICS
 70
     1
  9
$MEASUREMENT
 70
     0
  9
$CELWEIGHT
370
    -1
  9
$ENDCAPS
280
     0
  9
$JOINSTYLE
280
     0
  9
$LWDISPLAY
290
     0
  9
$INSUNITS
 70
     1
  9
$HYPERLINKBASE
  1

  9
$STYLESHEET
  1

  9
$XEDIT
290
     1
  9
$CEPSNTYPE
380
     0
  9
$PSTYLEMODE
290
     1
  9
$FINGERPRINTGUID
  2
{A4AB65D5-2F98-4562-9974-889355F65E83}
  9
$VERSIONGUID
  2
{25EE0653-0D11-430D-B465-47250834E8D2}
  9
$EXTNAMES
290
     1
  9
$PSVPSCALE
 40
0.0
  9
$OLESTARTUP
290
     0
  0
ENDSEC
  0
SECTION
  2
CLASSES
  0
CLASS
  1
ACDBDICTIONARYWDFLT
  2
AcDbDictionaryWithDefault
  3
AutoCAD 2000
 90
        0
280
     0
281
     0
  0
CLASS
  1
ACDBPLACEHOLDER
  2
AcDbPlaceHolder
  3
AutoCAD 2000
 90
        0
280
     0
281
     0
  0
CLASS
  1
LAYOUT
  2
AcDbLayout
  3
AutoCAD 2000
 90
        0
280
     0
281
     0
  0
ENDSEC
  0
SECTION
  2
TABLES
  0
TABLE
  2
VPORT
  5
8
330
0
100
AcDbSymbolTable
 70
     3
  0
VPORT
  5
10D
330
8
100
AcDbSymbolTableRecord
100
AcDbViewportTableRecord
  2
*Active
 70
     0
 10
0.0
 20
0.0
 11
1.0
 21
1.0
 12
62.2644669558571
 22
-21.05359330205652
 13
0.0
 23
0.0
 14
0.5
 24
0.5
 15
0.5
 25
0.5
 16
0.0
 26
0.0
 36
1.0
 17
0.0
 27
0.0
 37
0.0
 40
43.6696054771873
 41
1.550724637681159
 42
50.0
 43
0.0
 44
0.0
 50
0.0
 51
0.0
 71
     0
 72
   100
 73
     1
 74
     2
 75
     0
 76
     0
 77
     0
 78
     0
281
     0
 65
     1
110
0.0
120
0.0
130
0.0
111
1.0
121
0.0
131
0.0
112
0.0
122
1.0
132
0.0
 79
     0
146
0.0
  0
ENDTAB
  0
TABLE
  2
LTYPE
  5
5
330
0
100
AcDbSymbolTable
 70
     1
  0
LTYPE
  5
14
330
5
100
AcDbSymbolTableRecord
100
AcDbLinetypeTableRecord
  2
ByBlock
 70
     0
  3

 72
    65
 73
     0
 40
0.0
  0
LTYPE
  5
15
330
5
100
AcDbSymbolTableRecord
100
AcDbLinetypeTableRecord
  2
ByLayer
 70
     0
  3

 72
    65
 73
     0
 40
0.0
  0
LTYPE
  5
16
330
5
100
AcDbSymbolTableRecord
100
AcDbLinetypeTableRecord
  2
Continuous
 70
     0
  3
Solid line
 72
    65
 73
     0
 40
0.0
  0
ENDTAB
  0
TABLE
  2
LAYER
  5
2
330
0
100
AcDbSymbolTable
 70
     2
  0
LAYER
  5
10
330
2
100
AcDbSymbolTableRecord
100
AcDbLayerTableRecord
  2
0
 70
     0
 62
     7
  6
Continuous
370
    -3
390
F
  0
LAYER
  5
40
330
2
100
AcDbSymbolTableRecord
100
AcDbLayerTableRecord
  2
Defpoints
 70
     0
 62
     7
  6
Continuous
290
     0
370
    -3
390
F
  0
ENDTAB
  0
TABLE
  2
STYLE
  5
3
330
0
100
AcDbSymbolTable
 70
     1
  0
STYLE
  5
11
330
3
100
AcDbSymbolTableRecord
100
AcDbTextStyleTableRecord
  2
Standard
 70
     0
 40
0.0
 41
1.0
 50
0.0
 71
     0
 42
0.2
  3
txt
  4

  0
ENDTAB
  0
TABLE
  2
VIEW
  5
6
330
0
100
AcDbSymbolTable
 70
     0
  0
ENDTAB
  0
TABLE
  2
UCS
  5
7
330
0
100
AcDbSymbolTable
 70
     0
  0
ENDTAB
  0
TABLE
  2
APPID
  5
9
330
0
100
AcDbSymbolTable
 70
     1
  0
APPID
  5
12
330
9
100
AcDbSymbolTableRecord
100
AcDbRegAppTableRecord
  2
ACAD
 70
     0
  0
ENDTAB
  0
TABLE
  2
DIMSTYLE
  5
A
330
0
100
AcDbSymbolTable
 70
     1
100
AcDbDimStyleTable
 71
     1
340
27
  0
DIMSTYLE
105
27
102
{ACAD_REACTORS
330
A2
330
B0
330
BE
330
E0
330
EE
330
FE
102
}
330
A
100
AcDbSymbolTableRecord
100
AcDbDimStyleTableRecord
  2
Standard
 70
     0
340
11
  0
ENDTAB
  0
TABLE
  2
BLOCK_RECORD
  5
1
330
0
100
AcDbSymbolTable
 70
    12
  0
BLOCK_RECORD
  5
1F
330
1
100
AcDbSymbolTableRecord
100
AcDbBlockTableRecord
  2
*Model_Space
340
22
  0
BLOCK_RECORD
  5
1B
330
1
100
AcDbSymbolTableRecord
100
AcDbBlockTableRecord
  2
*Paper_Space
340
1E
  0
BLOCK_RECORD
  5
23
330
1
100
AcDbSymbolTableRecord
100
AcDbBlockTableRecord
  2
*Paper_Space0
340
26
  0
BLOCK_RECORD
  5
A3
330
1
100
AcDbSymbolTableRecord
100
AcDbBlockTableRecord
  2
*D4
340
0
  0
BLOCK_RECORD
  5
B1
330
1
100
AcDbSymbolTableRecord
100
AcDbBlockTableRecord
  2
*D5
340
0
  0
BLOCK_RECORD
  5
BF
330
1
100
AcDbSymbolTableRecord
100
AcDbBlockTableRecord
  2
*D6
340
0
  0
BLOCK_RECORD
  5
E1
330
1
100
AcDbSymbolTableRecord
100
AcDbBlockTableRecord
  2
*D9
340
0
  0
BLOCK_RECORD
  5
EF
330
1
100
AcDbSymbolTableRecord
100
AcDbBlockTableRecord
  2
*D10
340
0
  0
BLOCK_RECORD
  5
FF
330
1
100
AcDbSymbolTableRecord
100
AcDbBlockTableRecord
  2
*D11
340
0
  0
ENDTAB
  0
ENDSEC
  0
SECTION
  2
BLOCKS
  0
BLOCK
  5
20
330
1F
100
AcDbEntity
  8
0
100
AcDbBlockBegin
  2
*Model_Space
 70
     0
 10
0.0
 20
0.0
 30
0.0
  3
*Model_Space
  1

  0
ENDBLK
  5
21
330
1F
100
AcDbEntity
  8
0
100
AcDbBlockEnd
  0
BLOCK
  5
1C
330
1B
100
AcDbEntity
 67
     1
  8
0
100
AcDbBlockBegin
  2
*Paper_Space
 70
     0
 10
0.0
 20
0.0
 30
0.0
  3
*Paper_Space
  1

  0
ENDBLK
  5
1D
330
1B
100
AcDbEntity
 67
     1
  8
0
100
AcDbBlockEnd
  0
BLOCK
  5
24
330
23
100
AcDbEntity
  8
0
100
AcDbBlockBegin
  2
*Paper_Space0
 70
     0
 10
0.0
 20
0.0
 30
0.0
  3
*Paper_Space0
  1

  0
ENDBLK
  5
25
330
23
100
AcDbEntity
  8
0
100
AcDbBlockEnd
  0
BLOCK
  5
AE
330
A3
100
AcDbEntity
  8
0
100
AcDbBlockBegin
  2
*D4
 70
     1
 10
0.0
 20
0.0
 30
0.0
  3
*D4
  1

  0
LINE
  5
A4
330
A3
100
AcDbEntity
  8
0
 62
     0
370
    -2
100
AcDbLine
 10
48.14198461179637
 20
-6.272220677731912
 30
0.0
 11
50.20481045042327
 21
-4.209394839105019
 31
0.0
  0
LINE
  5
A5
330
A3
100
AcDbEntity
  8
0
 62
     0
370
    -2
100
AcDbLine
 10
70.77029758872803
 20
-28.90053365466359
 30
0.0
 11
72.83312342735493
 21
-26.83770781603668
 31
0.0
  0
LINE
  5
A6
330
A3
100
AcDbEntity
  8
0
 62
     0
370
    -2
100
AcDbLine
 10
50.20481045042327
 20
-4.463953280332177
 30
0.0
 11
61.21168771827552
 21
-15.47083054818443
 31
0.0
  0
LINE
  5
A7
330
A3
100
AcDbEntity
  8
0
 62
     0
370
    -2
100
AcDbLine
 10
72.57856498612778
 20
-26.83770781603668
 30
0.0
 11
61.57168771827551
 21
-15.83083054818443
 31
0.0
  0
SOLID
  5
A8
330
A3
100
AcDbEntity
  8
0
 62
     0
100
AcDbTrace
 10
50.22602365385886
 20
-4.44274007689658
 30
0.0
 11
50.18359724698767
 21
-4.485166483767777
 31
0.0
 12
50.07753122980968
 22
-4.336674059718596
 32
0.0
 13
50.07753122980968
 23
-4.336674059718596
 33
0.0
  0
SOLID
  5
A9
330
A3
100
AcDbEntity
  8
0
 62
     0
100
AcDbTrace
 10
72.59977818956336
 20
-26.81649461260108
 30
0.0
 11
72.55735178269216
 21
-26.85892101947228
 31
0.0
 12
72.70584420674135
 22
-26.96498703665026
 32
0.0
 13
72.70584420674135
 23
-26.96498703665026
 33
0.0
  0
MTEXT
  5
AA
330
A3
100
AcDbEntity
  8
0
 62
     0
100
AcDbMText
 10
61.39168771827551
 20
-15.65083054818441
 30
0.0
 40
0.18
 41
0.0
 71
     5
 72
     1
  1
\A1;32.0013
 73
     1
 44
1.0
  0
POINT
  5
AB
330
A3
100
AcDbEntity
  8
Defpoints
 62
     0
100
AcDbPoint
 10
48.0977904379722
 20
-6.316414851556071
 30
0.0
  0
POINT
  5
AC
330
A3
100
AcDbEntity
  8
Defpoints
 62
     0
100
AcDbPoint
 10
70.72610341490386
 20
-28.94472782848774
 30
0.0
  0
POINT
  5
AD
330
A3
100
AcDbEntity
  8
Defpoints
 62
     0
100
AcDbPoint
 10
72.70584420674135
 20
-26.96498703665026
 30
0.0
  0
ENDBLK
  5
AF
330
A3
100
AcDbEntity
  8
0
100
AcDbBlockEnd
  0
BLOCK
  5
BC
330
B1
100
AcDbEntity
  8
0
100
AcDbBlockBegin
  2
*D5
 70
     1
 10
0.0
 20
0.0
 30
0.0
  3
*D5
  1

  0
LINE
  5
B2
330
B1
100
AcDbEntity
  8
0
 62
     0
370
    -2
100
AcDbLine
 10
47.43487783060982
 20
-5.565113896545369
 30
0.0
 11
49.49770366923672
 21
-3.502288057918477
 31
0.0
  0
LINE
  5
B3
330
B1
100
AcDbEntity
  8
0
 62
     0
370
    -2
100
AcDbLine
 10
48.14198461179637
 20
-6.272220677731915
 30
0.0
 11
50.20481045042327
 21
-4.209394839105023
 31
0.0
  0
LINE
  5
B4
330
B1
100
AcDbEntity
  8
0
 62
     0
370
    -2
100
AcDbLine
 10
49.24314522800956
 20
-3.502288057918477
 30
0.0
 11
49.11586600739598
 21
-3.3750088373049
 31
0.0
  0
LINE
  5
B5
330
B1
100
AcDbEntity
  8
0
 62
     0
370
    -2
100
AcDbLine
 10
50.20481045042327
 20
-4.463953280332184
 30
0.0
 11
50.33208967103684
 21
-4.591232500945761
 31
0.0
  0
SOLID
  5
B6
330
B1
100
AcDbEntity
  8
0
 62
     0
100
AcDbTrace
 10
49.26435843144516
 20
-3.48107485448288
 30
0.0
 11
49.22193202457396
 21
-3.523501261354073
 31
0.0
 12
49.37042444862314
 22
-3.629567278532057
 32
0.0
 13
49.37042444862314
 23
-3.629567278532057
 33
0.0
  0
SOLID
  5
B7
330
B1
100
AcDbEntity
  8
0
 62
     0
100
AcDbTrace
 10
50.22602365385886
 20
-4.442740076896587
 30
0.0
 11
50.18359724698767
 21
-4.48516648376778
 31
0.0
 12
50.07753122980968
 22
-4.336674059718603
 32
0.0
 13
50.07753122980968
 23
-4.336674059718603
 33
0.0
  0
MTEXT
  5
B8
330
B1
100
AcDbEntity
  8
0
 62
     0
100
AcDbMText
 10
49.72397783921642
 20
-3.98312066912533
 30
0.0
 40
0.18
 41
0.0
 71
     5
 72
     1
  1
\A1;1.0000
 73
     1
 44
1.0
  0
POINT
  5
B9
330
B1
100
AcDbEntity
  8
Defpoints
 62
     0
100
AcDbPoint
 10
47.39068365678567
 20
-5.609308070369529
 30
0.0
  0
POINT
  5
BA
330
B1
100
AcDbEntity
  8
Defpoints
 62
     0
100
AcDbPoint
 10
48.0977904379722
 20
-6.316414851556075
 30
0.0
  0
POINT
  5
BB
330
B1
100
AcDbEntity
  8
Defpoints
 62
     0
100
AcDbPoint
 10
50.07753122980968
 20
-4.336674059718603
 30
0.0
  0
ENDBLK
  5
BD
330
B1
100
AcDbEntity
  8
0
100
AcDbBlockEnd
  0
BLOCK
  5
CA
330
BF
100
AcDbEntity
  8
0
100
AcDbBlockBegin
  2
*D6
 70
     1
 10
0.0
 20
0.0
 30
0.0
  3
*D6
  1

  0
LINE
  5
C0
330
BF
100
AcDbEntity
  8
0
 62
     0
370
    -2
100
AcDbLine
 10
70.77029758872803
 20
-28.90053365466358
 30
0.0
 11
72.39635614769707
 21
-27.27447509569451
 31
0.0
  0
LINE
  5
C1
330
BF
100
AcDbEntity
  8
0
 62
     0
370
    -2
100
AcDbLine
 10
71.47740436991458
 20
-29.60764043585013
 30
0.0
 11
73.10346292888363
 21
-27.98158187688105
 31
0.0
  0
LINE
  5
C2
330
BF
100
AcDbEntity
  8
0
 62
     0
370
    -2
100
AcDbLine
 10
72.14179770646992
 20
-27.27447509569451
 30
0.0
 11
72.01451848585634
 21
-27.14719587508093
 31
0.0
  0
LINE
  5
C3
330
BF
100
AcDbEntity
  8
0
 62
     0
370
    -2
100
AcDbLine
 10
73.10346292888365
 20
-28.23614031810821
 30
0.0
 11
73.23074214949722
 21
-28.36341953872178
 31
0.0
  0
SOLID
  5
C4
330
BF
100
AcDbEntity
  8
0
 62
     0
100
AcDbTrace
 10
72.16301090990551
 20
-27.25326189225891
 30
0.0
 11
72.1205845030343
 21
-27.2956882991301
 31
0.0
 12
72.2690769270835
 22
-27.40175431630809
 32
0.0
 13
72.2690769270835
 23
-27.40175431630809
 33
0.0
  0
SOLID
  5
C5
330
BF
100
AcDbEntity
  8
0
 62
     0
100
AcDbTrace
 10
73.12467613231923
 20
-28.21492711467262
 30
0.0
 11
73.08224972544803
 21
-28.25735352154381
 31
0.0
 12
72.97618370827006
 22
-28.10886109749463
 32
0.0
 13
72.97618370827006
 23
-28.10886109749463
 33
0.0
  0
MTEXT
  5
C6
330
BF
100
AcDbEntity
  8
0
 62
     0
100
AcDbMText
 10
72.62263031767678
 20
-27.75530770690136
 30
0.0
 40
0.18
 41
0.0
 71
     5
 72
     1
  1
\A1;1.0000
 73
     1
 44
1.0
  0
POINT
  5
C7
330
BF
100
AcDbEntity
  8
Defpoints
 62
     0
100
AcDbPoint
 10
70.72610341490388
 20
-28.94472782848774
 30
0.0
  0
POINT
  5
C8
330
BF
100
AcDbEntity
  8
Defpoints
 62
     0
100
AcDbPoint
 10
71.43321019609043
 20
-29.65183460967429
 30
0.0
  0
POINT
  5
C9
330
BF
100
AcDbEntity
  8
Defpoints
 62
     0
100
AcDbPoint
 10
72.97618370827006
 20
-28.10886109749463
 30
0.0
  0
ENDBLK
  5
CB
330
BF
100
AcDbEntity
  8
0
100
AcDbBlockEnd
  0
BLOCK
  5
EC
330
E1
100
AcDbEntity
  8
0
100
AcDbBlockBegin
  2
*D9
 70
     1
 10
0.0
 20
0.0
 30
0.0
  3
*D9
  1

  0
LINE
  5
E2
330
E1
100
AcDbEntity
  8
0
 62
     0
370
    -2
100
AcDbLine
 10
43.90990976122277
 20
-39.9847094185475
 30
0.0
 11
43.17172523430254
 21
-38.20257432212272
 31
0.0
  0
LINE
  5
E3
330
E1
100
AcDbEntity
  8
0
 62
     0
370
    -2
100
AcDbLine
 10
70.70218570038107
 20
-28.88698535770579
 30
0.0
 11
69.96400117346084
 21
-27.10485026128102
 31
0.0
  0
LINE
  5
E4
330
E1
100
AcDbEntity
  8
0
 62
     0
370
    -2
100
AcDbLine
 10
43.4069065679803
 20
-38.29998962014904
 30
0.0
 11
56.20218778048026
 21
-33.0000106075539
 31
0.0
  0
LINE
  5
E5
330
E1
100
AcDbEntity
  8
0
 62
     0
370
    -2
100
AcDbLine
 10
69.86658587543452
 20
-27.34003159495876
 30
0.0
 11
57.07130466293458
 21
-32.6400106075539
 31
0.0
  0
SOLID
  5
E6
330
E1
100
AcDbEntity
  8
0
 62
     0
100
AcDbTrace
 10
43.39542606500934
 20
-38.2722732341737
 30
0.0
 11
43.41838707095125
 21
-38.32770600612438
 31
0.0
 12
43.24060825212827
 22
-38.36887263797476
 32
0.0
 13
43.24060825212827
 23
-38.36887263797476
 33
0.0
  0
SOLID
  5
E7
330
E1
100
AcDbEntity
  8
0
 62
     0
100
AcDbTrace
 10
69.85510537246357
 20
-27.31231520898342
 30
0.0
 11
69.87806637840548
 21
-27.3677479809341
 31
0.0
 12
70.03288419128655
 22
-27.27114857713305
 32
0.0
 13
70.03288419128655
 23
-27.27114857713305
 33
0.0
  0
MTEXT
  5
E8
330
E1
100
AcDbEntity
  8
0
 62
     0
100
AcDbMText
 10
56.63674622170741
 20
-32.8200106075539
 30
0.0
 40
0.18
 41
0.0
 71
     5
 72
     1
  1
\A1;28.9998
 73
     1
 44
1.0
  0
POINT
  5
E9
330
E1
100
AcDbEntity
  8
Defpoints
 62
     0
100
AcDbPoint
 10
43.93382747574558
 20
-40.04245188932945
 30
0.0
  0
POINT
  5
EA
330
E1
100
AcDbEntity
  8
Defpoints
 62
     0
100
AcDbPoint
 10
70.72610341490388
 20
-28.94472782848774
 30
0.0
  0
POINT
  5
EB
330
E1
100
AcDbEntity
  8
Defpoints
 62
     0
100
AcDbPoint
 10
70.03288419128655
 20
-27.27114857713305
 30
0.0
  0
ENDBLK
  5
ED
330
E1
100
AcDbEntity
  8
0
100
AcDbBlockEnd
  0
BLOCK
  5
F8
330
EF
100
AcDbEntity
  8
0
100
AcDbBlockBegin
  2
*D10
 70
     1
 10
0.0
 20
0.0
 30
0.0
  3
*D10
  1

  0
LINE
  5
F0
330
EF
100
AcDbEntity
  8
0
 62
     0
370
    -2
100
AcDbLine
 10
47.40644364166913
 20
-10.01073530659585
 30
0.0
 11
47.22644364166912
 21
-10.01073530659584
 31
0.0
  0
LINE
  5
F1
330
EF
100
AcDbEntity
  8
0
 62
     0
370
    -2
100
AcDbLine
 10
47.22644364166912
 20
-10.01073530659584
 30
0.0
 11
46.2790764070569
 21
-7.74971250446587
 31
0.0
  0
MTEXT
  5
F2
330
EF
100
AcDbEntity
  8
0
 62
     0
100
AcDbMText
 10
48.03644364166912
 20
-10.01073530659585
 30
0.0
 40
0.18
 41
0.0
 71
     5
 72
     1
  1
\A1;R5.8887
 73
     1
 44
1.0
  0
SOLID
  5
F3
330
EF
100
AcDbEntity
  8
0
 62
     0
100
AcDbTrace
 10
46.30674574452422
 20
-7.738119068214251
 30
0.0
 11
46.2514070695896
 21
-7.761305940717491
 31
0.0
 12
46.20951578954719
 22
-7.583696479662036
 32
0.0
 13
46.20951578954719
 23
-7.583696479662036
 33
0.0
  0
LINE
  5
F4
330
EF
100
AcDbEntity
  8
0
 62
     0
370
    -2
100
AcDbLine
 10
43.84382747574568
 20
-2.152451889329459
 30
0.0
 11
44.02382747574569
 21
-2.152451889329459
 31
0.0
  0
LINE
  5
F5
330
EF
100
AcDbEntity
  8
0
 62
     0
370
    -2
100
AcDbLine
 10
43.93382747574569
 20
-2.24245188932946
 30
0.0
 11
43.93382747574569
 21
-2.062451889329459
 31
0.0
  0
POINT
  5
F6
330
EF
100
AcDbEntity
  8
Defpoints
 62
     0
100
AcDbPoint
 10
46.20951578954719
 20
-7.583696479662036
 30
0.0
  0
POINT
  5
F7
330
EF
100
AcDbEntity
  8
Defpoints
 62
     0
100
AcDbPoint
 10
43.93382747574569
 20
-2.152451889329457
 30
0.0
  0
ENDBLK
  5
F9
330
EF
100
AcDbEntity
  8
0
100
AcDbBlockEnd
  0
BLOCK
  5
10A
330
FF
100
AcDbEntity
  8
0
100
AcDbBlockBegin
  2
*D11
 70
     1
 10
0.0
 20
0.0
 30
0.0
  3
*D11
  1

  0
ARC
  5
100
330
FF
100
AcDbEntity
  8
0
 62
     0
370
    -2
100
AcDbCircle
 10
43.93382747574561
 20
-2.152451889329467
 30
0.0
 40
19.07775621252038
100
AcDbArc
 50
270.5405917997707
 51
291.5281504045968
  0
ARC
  5
101
330
FF
100
AcDbEntity
  8
0
 62
     0
370
    -2
100
AcDbCircle
 10
43.93382747574561
 20
-2.152451889329467
 30
0.0
 40
19.07775621252038
100
AcDbArc
 50
293.4787270154277
 51
314.4594082002292
  0
SOLID
  5
102
330
FF
100
AcDbEntity
  8
0
 62
     0
100
AcDbTrace
 10
44.11396699884869
 20
-21.25935861155715
 30
0.0
 11
44.11368394669413
 21
-21.19935927921522
 31
0.0
 12
43.93382747574562
 22
-21.23020810184984
 32
0.0
 13
43.93382747574562
 23
-21.23020810184984
 33
0.0
  0
SOLID
  5
103
330
FF
100
AcDbEntity
  8
0
 62
     0
100
AcDbTrace
 10
57.27484712151801
 20
-15.74782699559782
 30
0.0
 11
57.31707290818574
 21
-15.79045307846139
 31
0.0
 12
57.42383826344256
 22
-15.64246267702641
 32
0.0
 13
57.42383826344256
 23
-15.64246267702641
 33
0.0
  0
MTEXT
  5
104
330
FF
100
AcDbEntity
  8
0
 62
     0
100
AcDbMText
 10
51.23456870497733
 20
-19.77800038031708
 30
0.0
 40
0.18
 41
0.0
 71
     5
 72
     1
  1
\A1;45°
 73
     1
 44
1.0
  0
POINT
  5
105
330
FF
100
AcDbEntity
  8
Defpoints
 62
     0
100
AcDbPoint
 10
48.87151412136881
 20
-20.58014932264963
 30
0.0
  0
POINT
  5
106
330
FF
100
AcDbEntity
  8
Defpoints
 62
     0
100
AcDbPoint
 10
43.93382747574561
 20
-7.041184783729585
 30
0.0
  0
POINT
  5
107
330
FF
100
AcDbEntity
  8
Defpoints
 62
     0
100
AcDbPoint
 10
47.39068365678567
 20
-5.609308070369525
 30
0.0
  0
POINT
  5
108
330
FF
100
AcDbEntity
  8
Defpoints
 62
     0
100
AcDbPoint
 10
71.43321019609044
 20
-29.65183460967429
 30
0.0
  0
POINT
  5
109
330
FF
100
AcDbEntity
  8
Defpoints
 62
     0
100
AcDbPoint
 10
43.9338274757456
 20
-41.04245188932946
 30
0.0
  0
ENDBLK
  5
10B
330
FF
100
AcDbEntity
  8
0
100
AcDbBlockEnd
  0
ENDSEC
  0
SECTION
  2
ENTITIES
  0
ARC
  5
93
330
1F
100
AcDbEntity
  8
0
100
AcDbCircle
 10
43.9338274757456
 20
-2.152451889329455
 30
0.0
 40
36.89
100
AcDbArc
 50
268.4466576612536
 51
316.5533423387463
  0
ARC
  5
94
330
1F
100
AcDbEntity
  8
0
100
AcDbCircle
 10
43.9338274757456
 20
-2.152451889329455
 30
0.0
 40
38.89
100
AcDbArc
 50
268.5265596487431
 51
316.4734403512568
  0
ARC
  5
95
330
1F
100
AcDbEntity
  8
0
100
AcDbCircle
 10
43.9338274757456
 20
-2.152451889329455
 30
0.0
 40
4.888732894400127
100
AcDbArc
 50
258.1967262718069
 51
326.803273728193
  0
LWPOLYLINE
  5
98
330
1F
100
AcDbEntity
  8
0
100
AcDbPolyline
 90
        2
 70
     0
 43
0.0
 10
47.39068365678567
 20
-5.609308070369523
 10
71.43321019609043
 20
-29.65183460967429
  0
ARC
  5
99
330
1F
100
AcDbEntity
  8
0
100
AcDbCircle
 10
43.9338274757456
 20
-2.152451889329455
 30
0.0
 40
37.89
100
AcDbArc
 50
268.4876634167774
 51
316.5123365832225
  0
ARC
  5
9A
330
1F
100
AcDbEntity
  8
0
100
AcDbCircle
 10
43.9338274757456
 20
-2.152451889329455
 30
0.0
 40
5.888732894400127
100
AcDbArc
 50
260.2228894328289
 51
324.777110567171
  0
LWPOLYLINE
  5
9F
330
1F
100
AcDbEntity
  8
0
100
AcDbPolyline
 90
        2
 70
     0
 43
0.0
 10
43.9338274757456
 20
-7.041184783729582
 10
43.93382747574559
 20
-41.04245188932945
  0
LWPOLYLINE
  5
A0
330
1F
100
AcDbEntity
  8
0
100
AcDbPolyline
 90
        2
 70
     0
 43
0.0
 10
42.9338274757456
 20
-6.937815962499839
 10
42.93382747574559
 20
-41.02959298792362
  0
LWPOLYLINE
  5
A1
330
1F
100
AcDbEntity
  8
0
100
AcDbPolyline
 90
        2
 70
     0
 43
0.0
 10
48.02469764351741
 20
-4.829108494728165
 10
72.13122436089431
 20
-28.93563521210506
  0
DIMENSION
  5
A2
330
1F
100
AcDbEntity
  8
0
100
AcDbDimension
  2
*D4
 10
72.70584420674135
 20
-26.96498703665026
 30
0.0
 11
61.39168771827551
 21
-15.65083054818441
 31
0.0
 70
    33
 71
     5
 42
32.00126710559986
  3
Standard
100
AcDbAlignedDimension
 13
48.09779043797221
 23
-6.316414851556076
 33
0.0
 14
70.72610341490388
 24
-28.94472782848774
 34
0.0
  0
DIMENSION
  5
B0
330
1F
100
AcDbEntity
  8
0
100
AcDbDimension
  2
*D5
 10
50.07753122980968
 20
-4.336674059718603
 30
0.0
 11
49.72397783921642
 21
-3.98312066912533
 31
0.0
 70
    33
 71
     5
  3
Standard
100
AcDbAlignedDimension
 13
47.39068365678567
 23
-5.609308070369529
 33
0.0
 14
48.09779043797221
 24
-6.316414851556076
 34
0.0
  0
DIMENSION
  5
BE
330
1F
100
AcDbEntity
  8
0
100
AcDbDimension
  2
*D6
 10
72.97618370827006
 20
-28.10886109749463
 30
0.0
 11
72.62263031767678
 21
-27.75530770690136
 31
0.0
 70
    33
 71
     5
  3
Standard
100
AcDbAlignedDimension
 13
70.72610341490388
 23
-28.94472782848774
 33
0.0
 14
71.43321019609043
 24
-29.65183460967429
 34
0.0
  0
DIMENSION
  5
E0
330
1F
100
AcDbEntity
  8
0
100
AcDbDimension
  2
*D9
 10
70.03288419128655
 20
-27.27114857713305
 30
0.0
 11
56.63674622170741
 21
-32.8200106075539
 31
0.0
 70
    33
 71
     5
 42
28.9997505046265
  3
Standard
100
AcDbAlignedDimension
 13
43.93382747574559
 23
-40.04245188932945
 33
0.0
 14
70.72610341490388
 24
-28.94472782848774
 34
0.0
  0
DIMENSION
  5
EE
330
1F
100
AcDbEntity
  8
0
100
AcDbDimension
  2
*D10
 10
43.93382747574569
 20
-2.152451889329457
 30
0.0
 11
48.03644364166912
 21
-10.01073530659585
 31
0.0
 70
   164
 71
     5
 42
5.888732894400089
  3
Standard
100
AcDbRadialDimension
 15
46.20951578954719
 25
-7.583696479662036
 35
0.0
 40
0.0
1001
ACAD
1000
DSTYLE
1002
{
1070
   288
1070
     1
1002
}
  0
DIMENSION
  5
FE
330
1F
100
AcDbEntity
  8
0
100
AcDbDimension
  2
*D11
 10
43.93382747574559
 20
-41.04245188932945
 30
0.0
 11
51.23456870497733
 21
-19.77800038031708
 31
0.0
 70
    34
 71
     5
 42
0.7853981633974483
  3
Standard
100
AcDb2LineAngularDimension
 13
47.39068365678567
 23
-5.609308070369523
 33
0.0
 14
71.43321019609043
 24
-29.65183460967429
 34
0.0
 15
43.9338274757456
 25
-7.041184783729582
 35
0.0
 16
48.87151412136881
 26
-20.58014932264963
 36
0.0
  0
ENDSEC
  0
SECTION
  2
OBJECTS
  0
DICTIONARY
  5
C
330
0
100
AcDbDictionary
281
     1
  3
ACAD_GROUP
350
D
  3
ACAD_LAYOUT
350
1A
  3
ACAD_MLINESTYLE
350
17
  3
ACAD_PLOTSETTINGS
350
19
  3
ACAD_PLOTSTYLENAME
350
E
  0
DICTIONARY
  5
D
102
{ACAD_REACTORS
330
C
102
}
330
C
100
AcDbDictionary
281
     1
  0
DICTIONARY
  5
1A
102
{ACAD_REACTORS
330
C
102
}
330
C
100
AcDbDictionary
281
     1
  3
Layout1
350
1E
  3
Layout2
350
26
  3
Model
350
22
  0
DICTIONARY
  5
17
102
{ACAD_REACTORS
330
C
102
}
330
C
100
AcDbDictionary
281
     1
  3
Standard
350
18
  0
DICTIONARY
  5
19
102
{ACAD_REACTORS
330
C
102
}
330
C
100
AcDbDictionary
281
     1
  0
ACDBDICTIONARYWDFLT
  5
E
102
{ACAD_REACTORS
330
C
102
}
330
C
100
AcDbDictionary
281
     1
  3
Normal
350
F
100
AcDbDictionaryWithDefault
340
F
  0
LAYOUT
  5
1E
102
{ACAD_REACTORS
330
1A
102
}
330
1A
100
AcDbPlotSettings
  1

  2
HP LaserJet 4050
  4

  6

 40
0.0
 41
0.0
 42
0.0
 43
0.0
 44
0.0
 45
0.0
 46
0.0
 47
0.0
 48
0.0
 49
0.0
140
0.0
141
0.0
142
1.0
143
1.0
 70
   688
 72
     0
 73
     0
 74
     5
  7

 75
    16
147
1.0
148
0.0
149
0.0
100
AcDbLayout
  1
Layout1
 70
     1
 71
     1
 10
0.0
 20
0.0
 11
12.0
 21
9.0
 12
0.0
 22
0.0
 32
0.0
 14
1.000000000000000E+20
 24
1.000000000000000E+20
 34
1.000000000000000E+20
 15
-1.000000000000000E+20
 25
-1.000000000000000E+20
 35
-1.000000000000000E+20
146
0.0
 13
0.0
 23
0.0
 33
0.0
 16
1.0
 26
0.0
 36
0.0
 17
0.0
 27
1.0
 37
0.0
 76
     0
330
1B
  0
LAYOUT
  5
26
102
{ACAD_REACTORS
330
1A
102
}
330
1A
100
AcDbPlotSettings
  1

  2
HP LaserJet 4050
  4

  6

 40
0.0
 41
0.0
 42
0.0
 43
0.0
 44
0.0
 45
0.0
 46
0.0
 47
0.0
 48
0.0
 49
0.0
140
0.0
141
0.0
142
1.0
143
1.0
 70
   688
 72
     0
 73
     0
 74
     5
  7

 75
    16
147
1.0
148
0.0
149
0.0
100
AcDbLayout
  1
Layout2
 70
     1
 71
     2
 10
0.0
 20
0.0
 11
12.0
 21
9.0
 12
0.0
 22
0.0
 32
0.0
 14
0.0
 24
0.0
 34
0.0
 15
0.0
 25
0.0
 35
0.0
146
0.0
 13
0.0
 23
0.0
 33
0.0
 16
1.0
 26
0.0
 36
0.0
 17
0.0
 27
1.0
 37
0.0
 76
     0
330
23
  0
LAYOUT
  5
22
102
{ACAD_REACTORS
330
1A
102
}
330
1A
100
AcDbPlotSettings
  1

  2
HP LaserJet 4050
  4
Letter
  6

 40
5.027083396911621
 41
5.027072429656982
 42
5.365753173828125
 43
5.365753173828125
 44
215.8999938964843
 45
279.3999938964843
 46
0.0
 47
0.0
 48
0.0
 49
0.0
140
0.0
141
0.0
142
1.0
143
6.471327431304668
 70
 11952
 72
     0
 73
     1
 74
     0
  7

 75
     0
147
0.1545278013846987
148
-835.1670247991458
149
1139.36600234607
100
AcDbLayout
  1
Model
 70
     1
 71
     0
 10
0.0
 20
0.0
 11
12.0
 21
9.0
 12
0.0
 22
0.0
 32
0.0
 14
0.0
 24
0.0
 34
0.0
 15
0.0
 25
0.0
 35
0.0
146
0.0
 13
0.0
 23
0.0
 33
0.0
 16
1.0
 26
0.0
 36
0.0
 17
0.0
 27
1.0
 37
0.0
 76
     0
330
1F
  0
MLINESTYLE
  5
18
102
{ACAD_REACTORS
330
17
102
}
330
17
100
AcDbMlineStyle
  2
STANDARD
 70
     0
  3

 62
   256
 51
90.0
 52
90.0
 71
     2
 49
0.5
 62
   256
  6
BYLAYER
 49
-0.5
 62
   256
  6
BYLAYER
  0
ACDBPLACEHOLDER
  5
F
102
{ACAD_REACTORS
330
E
102
}
330
E
  0
ENDSEC
  0
EOF
