  0
SECTION
  2
HEADER
  9
$ACADVER
  1
AC1015
  9
$ACADMAINTVER
 70
     6
  9
$DWGCODEPAGE
  3
ANSI_1252
  9
$INSBASE
 10
0.0
 20
0.0
 30
0.0
  9
$EXTMIN
 10
0.0
 20
0.0
 30
0.0
  9
$EXTMAX
 10
297.0
 20
210.0
 30
0.0
  9
$LIMMIN
 10
0.0
 20
0.0
  9
$LIMMAX
 10
297.0
 20
210.0
  9
$ORTHOMODE
 70
     0
  9
$REGENMODE
 70
     1
  9
$FILLMODE
 70
     1
  9
$QTEXTMODE
 70
     0
  9
$MIRRTEXT
 70
     1
  9
$LTSCALE
 40
1.0
  9
$ATTMODE
 70
     1
  9
$TEXTSIZE
 40
0.2
  9
$TRACEWID
 40
0.05
  9
$TEXTSTYLE
  7
Standard
  9
$CLAYER
  8
0
  9
$CELTYPE
  6
ByLayer
  9
$CECOLOR
 62
   256
  9
$CELTSCALE
 40
25.4
  9
$DISPSILH
 70
     0
  9
$DIMSCALE
 40
1.0
  9
$DIMASZ
 40
0.18
  9
$DIMEXO
 40
0.0625
  9
$DIMDLI
 40
0.38
  9
$DIMRND
 40
0.0
  9
$DIMDLE
 40
0.0
  9
$DIMEXE
 40
0.18
  9
$DIMTP
 40
0.0
  9
$DIMTM
 40
0.0
  9
$DIMTXT
 40
0.18
  9
$DIMCEN
 40
0.09
  9
$DIMTSZ
 40
0.0
  9
$DIMTOL
 70
     0
  9
$DIMLIM
 70
     0
  9
$DIMTIH
 70
     1
  9
$DIMTOH
 70
     1
  9
$DIMSE1
 70
     0
  9
$DIMSE2
 70
     0
  9
$DIMTAD
 70
     0
  9
$DIMZIN
 70
     0
  9
$DIMBLK
  1

  9
$DIMASO
 70
     1
  9
$DIMSHO
 70
     1
  9
$DIMPOST
  1

  9
$DIMAPOST
  1

  9
$DIMALT
 70
     0
  9
$DIMALTD
 70
     2
  9
$DIMALTF
 40
25.4
  9
$DIMLFAC
 40
1.0
  9
$DIMTOFL
 70
     0
  9
$DIMTVP
 40
0.0
  9
$DIMTIX
 70
     0
  9
$DIMSOXD
 70
     0
  9
$DIMSAH
 70
     0
  9
$DIMBLK1
  1

  9
$DIMBLK2
  1

  9
$DIMSTYLE
  2
Standard
  9
$DIMCLRD
 70
     0
  9
$DIMCLRE
 70
     0
  9
$DIMCLRT
 70
     0
  9
$DIMTFAC
 40
1.0
  9
$DIMGAP
 40
0.09
  9
$DIMJUST
 70
     0
  9
$DIMSD1
 70
     0
  9
$DIMSD2
 70
     0
  9
$DIMTOLJ
 70
     1
  9
$DIMTZIN
 70
     0
  9
$DIMALTZ
 70
     0
  9
$DIMALTTZ
 70
     0
  9
$DIMUPT
 70
     0
  9
$DIMDEC
 70
     4
  9
$DIMTDEC
 70
     4
  9
$DIMALTU
 70
     2
  9
$DIMALTTD
 70
     2
  9
$DIMTXSTY
  7
Standard
  9
$DIMAUNIT
 70
     0
  9
$DIMADEC
 70
     0
  9
$DIMALTRND
 40
0.0
  9
$DIMAZIN
 70
     0
  9
$DIMDSEP
 70
    46
  9
$DIMATFIT
 70
     3
  9
$DIMFRAC
 70
     0
  9
$DIMLDRBLK
  1

  9
$DIMLUNIT
 70
     2
  9
$DIMLWD
 70
    -2
  9
$DIMLWE
 70
    -2
  9
$DIMTMOVE
 70
     0
  9
$LUNITS
 70
     2
  9
$LUPREC
 70
     4
  9
$SKETCHINC
 40
0.1
  9
$FILLETRAD
 40
0.5
  9
$AUNITS
 70
     0
  9
$AUPREC
 70
     0
  9
$MENU
  1
.
  9
$ELEVATION
 40
0.0
  9
$PELEVATION
 40
0.0
  9
$THICKNESS
 40
0.0
  9
$LIMCHECK
 70
     0
  9
$CHAMFERA
 40
0.5
  9
$CHAMFERB
 40
0.5
  9
$CHAMFERC
 40
1.0
  9
$CHAMFERD
 40
0.0
  9
$SKPOLY
 70
     0
  9
$TDCREATE
 40
2458203.976744629
  9
$TDUCREATE
 40
2458203.747577963
  9
$TDUPDATE
 40
2458203.976744641
  9
$TDUUPDATE
 40
2458203.747577975
  9
$TDINDWG
 40
0.0000000116
  9
$TDUSRTIMER
 40
0.0000000116
  9
$USRTIMER
 70
     1
  9
$ANGBASE
 50
0.0
  9
$ANGDIR
 70
     0
  9
$PDMODE
 70
     0
  9
$PDSIZE
 40
0.0
  9
$PLINEWID
 40
0.0
  9
$SPLFRAME
 70
     0
  9
$SPLINETYPE
 70
     6
  9
$SPLINESEGS
 70
     8
  9
$HANDSEED
  5
E3
  9
$SURFTAB1
 70
     6
  9
$SURFTAB2
 70
     6
  9
$SURFTYPE
 70
     6
  9
$SURFU
 70
     6
  9
$SURFV
 70
     6
  9
$UCSBASE
  2

  9
$UCSNAME
  2

  9
$UCSORG
 10
0.0
 20
0.0
 30
0.0
  9
$UCSXDIR
 10
1.0
 20
0.0
 30
0.0
  9
$UCSYDIR
 10
0.0
 20
1.0
 30
0.0
  9
$UCSORTHOREF
  2

  9
$UCSORTHOVIEW
 70
     0
  9
$UCSORGTOP
 10
0.0
 20
0.0
 30
0.0
  9
$UCSORGBOTTOM
 10
0.0
 20
0.0
 30
0.0
  9
$UCSORGLEFT
 10
0.0
 20
0.0
 30
0.0
  9
$UCSORGRIGHT
 10
0.0
 20
0.0
 30
0.0
  9
$UCSORGFRONT
 10
0.0
 20
0.0
 30
0.0
  9
$UCSORGBACK
 10
0.0
 20
0.0
 30
0.0
  9
$PUCSBASE
  2

  9
$PUCSNAME
  2

  9
$PUCSORG
 10
0.0
 20
0.0
 30
0.0
  9
$PUCSXDIR
 10
1.0
 20
0.0
 30
0.0
  9
$PUCSYDIR
 10
0.0
 20
1.0
 30
0.0
  9
$PUCSORTHOREF
  2

  9
$PUCSORTHOVIEW
 70
     0
  9
$PUCSORGTOP
 10
0.0
 20
0.0
 30
0.0
  9
$PUCSORGBOTTOM
 10
0.0
 20
0.0
 30
0.0
  9
$PUCSORGLEFT
 10
0.0
 20
0.0
 30
0.0
  9
$PUCSORGRIGHT
 10
0.0
 20
0.0
 30
0.0
  9
$PUCSORGFRONT
 10
0.0
 20
0.0
 30
0.0
  9
$PUCSORGBACK
 10
0.0
 20
0.0
 30
0.0
  9
$USERI1
 70
     0
  9
$USERI2
 70
     0
  9
$USERI3
 70
     0
  9
$USERI4
 70
     0
  9
$USERI5
 70
     0
  9
$USERR1
 40
0.0
  9
$USERR2
 40
0.0
  9
$USERR3
 40
0.0
  9
$USERR4
 40
0.0
  9
$USERR5
 40
0.0
  9
$WORLDVIEW
 70
     1
  9
$SHADEDGE
 70
     3
  9
$SHADEDIF
 70
    70
  9
$TILEMODE
 70
     1
  9
$MAXACTVP
 70
    64
  9
$PINSBASE
 10
0.0
 20
0.0
 30
0.0
  9
$PLIMCHECK
 70
     0
  9
$PEXTMIN
 10
0.0
 20
0.0
 30
0.0
  9
$PEXTMAX
 10
297.0
 20
210.0
 30
0.0
  9
$PLIMMIN
 10
0.0
 20
0.0
  9
$PLIMMAX
 10
297.0
 20
210.0
  9
$UNITMODE
 70
     0
  9
$VISRETAIN
 70
     1
  9
$PLINEGEN
 70
     0
  9
$PSLTSCALE
 70
     1
  9
$TREEDEPTH
 70
  3020
  9
$CMLSTYLE
  2
Standard
  9
$CMLJUST
 70
     0
  9
$CMLSCALE
 40
1.0
  9
$PROXYGRAPHICS
 70
     1
  9
$MEASUREMENT
 70
     1
  9
$CELWEIGHT
370
    -1
  9
$ENDCAPS
280
     0
  9
$JOINSTYLE
280
     0
  9
$LWDISPLAY
290
     0
  9
$INSUNITS
 70
     1
  9
$HYPERLINKBASE
  1

  9
$STYLESHEET
  1

  9
$XEDIT
290
     1
  9
$CEPSNTYPE
380
     0
  9
$PSTYLEMODE
290
     1
  9
$FINGERPRINTGUID
  2
{F3A0B940-9B44-4979-AACF-EE3DF71C3E9D}
  9
$VERSIONGUID
  2
{FAEB1C32-E019-11D5-929B-00C0DF256EC4}
  9
$EXTNAMES
290
     1
  9
$PSVPSCALE
 40
0.0
  9
$OLESTARTUP
290
     0
  0
ENDSEC
  0
SECTION
  2
CLASSES
  0
CLASS
  1
ACDBDICTIONARYWDFLT
  2
AcDbDictionaryWithDefault
  3
ObjectDBX Classes
 90
        0
280
     0
281
     0
  0
CLASS
  1
ACDBPLACEHOLDER
  2
AcDbPlaceHolder
  3
ObjectDBX Classes
 90
        0
280
     0
281
     0
  0
CLASS
  1
LAYOUT
  2
AcDbLayout
  3
ObjectDBX Classes
 90
        0
280
     0
281
     0
  0
ENDSEC
  0
SECTION
  2
TABLES
  0
TABLE
  2
VPORT
  5
8
330
0
100
AcDbSymbolTable
 70
     1
  0
VPORT
  5
29
330
8
100
AcDbSymbolTableRecord
100
AcDbViewportTableRecord
  2
*Active
 70
     0
 10
0.0
 20
0.0
 11
1.0
 21
1.0
 12
10.4299065421
 22
4.5
 13
0.0
 23
0.0
 14
0.5
 24
0.5
 15
0.5
 25
0.5
 16
0.0
 26
0.0
 36
1.0
 17
0.0
 27
0.0
 37
0.0
 40
9.0
 41
1.9729729729
 42
50.0
 43
0.0
 44
0.0
 50
0.0
 51
0.0
 71
     0
 72
   100
 73
     1
 74
     3
 75
     0
 76
     0
 77
     0
 78
     0
281
     0
 65
     1
110
0.0
120
0.0
130
0.0
111
1.0
121
0.0
131
0.0
112
0.0
122
1.0
132
0.0
 79
     0
146
0.0
  0
ENDTAB
  0
TABLE
  2
LTYPE
  5
5
330
0
100
AcDbSymbolTable
 70
     1
  0
LTYPE
  5
14
330
5
100
AcDbSymbolTableRecord
100
AcDbLinetypeTableRecord
  2
ByBlock
 70
     0
  3

 72
    65
 73
     0
 40
0.0
  0
LTYPE
  5
15
330
5
100
AcDbSymbolTableRecord
100
AcDbLinetypeTableRecord
  2
ByLayer
 70
     0
  3

 72
    65
 73
     0
 40
0.0
  0
LTYPE
  5
16
330
5
100
AcDbSymbolTableRecord
100
AcDbLinetypeTableRecord
  2
Continuous
 70
     0
  3
Solid line
 72
    65
 73
     0
 40
0.0
  0
ENDTAB
  0
TABLE
  2
LAYER
  5
2
330
0
100
AcDbSymbolTable
 70
     2
  0
LAYER
  5
10
330
2
100
AcDbSymbolTableRecord
100
AcDbLayerTableRecord
  2
0
 70
     0
 62
     7
  6
Continuous
370
    -3
390
F
  0
LAYER
  5
2A
330
2
100
AcDbSymbolTableRecord
100
AcDbLayerTableRecord
  2
Default
 70
     0
 62
     7
  6
Continuous
370
    -3
390
F
  0
ENDTAB
  0
TABLE
  2
STYLE
  5
3
330
0
100
AcDbSymbolTable
 70
     3
  0
STYLE
  5
11
330
3
100
AcDbSymbolTableRecord
100
AcDbTextStyleTableRecord
  2
Standard
 70
     0
 40
0.0
 41
1.0
 50
0.0
 71
     0
 42
0.2
  3
txt
  4

  0
STYLE
  5
56
330
3
100
AcDbSymbolTableRecord
100
AcDbTextStyleTableRecord
  2
SEACAD_seiso_ttf
 70
     0
 40
3.5
 41
1.0
 50
0.0
 71
     0
 42
0.2
  3
seiso.ttf
  4

  0
STYLE
  5
59
330
3
100
AcDbSymbolTableRecord
100
AcDbTextStyleTableRecord
  2
SEACAD_semeci1_ttf
 70
     0
 40
0.2
 41
1.0
 50
0.0
 71
     0
 42
0.2
  3
semeci1.ttf
  4

  0
ENDTAB
  0
TABLE
  2
VIEW
  5
6
330
0
100
AcDbSymbolTable
 70
     0
  0
ENDTAB
  0
TABLE
  2
UCS
  5
7
330
0
100
AcDbSymbolTable
 70
     0
  0
ENDTAB
  0
TABLE
  2
APPID
  5
9
330
0
100
AcDbSymbolTable
 70
     1
  0
APPID
  5
12
330
9
100
AcDbSymbolTableRecord
100
AcDbRegAppTableRecord
  2
ACAD
 70
     0
  0
ENDTAB
  0
TABLE
  2
DIMSTYLE
  5
A
330
0
100
AcDbSymbolTable
 70
     2
100
AcDbDimStyleTable
  0
DIMSTYLE
105
27
330
A
100
AcDbSymbolTableRecord
100
AcDbDimStyleTableRecord
  2
Standard
 70
     0
340
11
  0
DIMSTYLE
105
57
102
{ACAD_REACTORS
330
58
330
66
330
73
330
80
330
8D
330
99
330
A5
330
B1
330
BD
330
C9
330
D6
102
}
330
A
100
AcDbSymbolTableRecord
100
AcDbDimStyleTableRecord
  2
ISO
 70
     0
 41
3.5
 42
0.0
 44
1.75
 78
     8
140
3.5
141
1.75
147
1.75
172
     1
173
     1
176
     7
177
     7
178
     7
271
     2
272
     2
278
    44
284
     8
340
56
343
51
344
51
  0
ENDTAB
  0
TABLE
  2
BLOCK_RECORD
  5
1
330
0
100
AcDbSymbolTable
 70
    13
  0
BLOCK_RECORD
  5
1F
330
1
100
AcDbSymbolTableRecord
100
AcDbBlockTableRecord
  2
*Model_Space
340
22
  0
BLOCK_RECORD
  5
1B
330
1
100
AcDbSymbolTableRecord
100
AcDbBlockTableRecord
  2
*Paper_Space
340
1E
  0
BLOCK_RECORD
  5
51
330
1
100
AcDbSymbolTableRecord
100
AcDbBlockTableRecord
  2
_SE_FILLED
340
0
  0
BLOCK_RECORD
  5
5A
330
1
100
AcDbSymbolTableRecord
100
AcDbBlockTableRecord
  2
DMBLK1
340
0
  0
BLOCK_RECORD
  5
67
330
1
100
AcDbSymbolTableRecord
100
AcDbBlockTableRecord
  2
DMBLK2
340
0
  0
BLOCK_RECORD
  5
74
330
1
100
AcDbSymbolTableRecord
100
AcDbBlockTableRecord
  2
DMBLK3
340
0
  0
BLOCK_RECORD
  5
81
330
1
100
AcDbSymbolTableRecord
100
AcDbBlockTableRecord
  2
DMBLK4
340
0
  0
BLOCK_RECORD
  5
8E
330
1
100
AcDbSymbolTableRecord
100
AcDbBlockTableRecord
  2
DMBLK5
340
0
  0
BLOCK_RECORD
  5
9A
330
1
100
AcDbSymbolTableRecord
100
AcDbBlockTableRecord
  2
DMBLK6
340
0
  0
BLOCK_RECORD
  5
A6
330
1
100
AcDbSymbolTableRecord
100
AcDbBlockTableRecord
  2
DMBLK7
340
0
  0
BLOCK_RECORD
  5
B2
330
1
100
AcDbSymbolTableRecord
100
AcDbBlockTableRecord
  2
DMBLK8
340
0
  0
BLOCK_RECORD
  5
BE
330
1
100
AcDbSymbolTableRecord
100
AcDbBlockTableRecord
  2
DMBLK9
340
0
  0
BLOCK_RECORD
  5
CA
330
1
100
AcDbSymbolTableRecord
100
AcDbBlockTableRecord
  2
DMBLK10
340
0
  0
BLOCK_RECORD
  5
D7
330
1
100
AcDbSymbolTableRecord
100
AcDbBlockTableRecord
  2
DMBLK11
340
0
  0
ENDTAB
  0
ENDSEC
  0
SECTION
  2
BLOCKS
  0
BLOCK
  5
20
330
1F
100
AcDbEntity
  8
0
100
AcDbBlockBegin
  2
*Model_Space
 70
     0
 71
     0
 10
0.0
 20
0.0
 30
0.0
  3
*Model_Space
  1

  0
ENDBLK
  5
21
330
1F
100
AcDbEntity
  8
0
100
AcDbBlockEnd
  0
BLOCK
  5
1C
330
1B
100
AcDbEntity
 67
     1
  8
0
100
AcDbBlockBegin
  2
*Paper_Space
 70
     0
 71
     0
 10
0.0
 20
0.0
 30
0.0
  3
*Paper_Space
  1

  0
ENDBLK
  5
1D
330
1B
100
AcDbEntity
 67
     1
  8
0
100
AcDbBlockEnd
  0
BLOCK
  5
54
330
51
100
AcDbEntity
  8
0
100
AcDbBlockBegin
  2
_SE_FILLED
 70
     0
 71
     0
 10
0.0
 20
0.0
 30
0.0
  3
_SE_FILLED
  1

  0
SOLID
  5
52
330
51
100
AcDbEntity
  8
0
100
AcDbTrace
 10
0.0
 20
0.0
 30
0.0
 11
-1.0
 21
-0.1665
 31
0.0
 12
-1.0
 22
0.1665
 32
0.0
 13
0.0
 23
0.0
 33
0.0
  0
LINE
  5
53
330
51
100
AcDbEntity
  8
0
100
AcDbLine
 10
0.0
 20
0.0
 30
0.0
 11
-1.0
 21
0.0
 31
0.0
  0
ENDBLK
  5
55
330
51
100
AcDbEntity
  8
0
100
AcDbBlockEnd
  0
BLOCK
  5
64
330
5A
100
AcDbEntity
  8
0
100
AcDbBlockBegin
  2
DMBLK1
 70
     0
 71
     0
 10
0.0
 20
0.0
 30
0.0
  3
DMBLK1
  1

  0
HATCH
  5
5B
330
5A
100
AcDbEntity
  8
Default
  6
Continuous
 62
   136
 48
25.4
100
AcDbHatch
 10
0.0
 20
0.0
 30
0.0
210
0.0
220
0.0
230
1.0
  2
SOLID
 70
     1
 71
     0
 91
        1
 92
        1
 93
        3
 72
     1
 10
136.6725405690712
 20
90.3961895263889
 11
135.5058738663934
 21
90.3961895263889
 72
     1
 10
135.5058738663934
 20
90.3961895263889
 11
136.0892072177323
 21
86.89618941835548
 72
     1
 10
136.0892072177323
 20
86.89618941835548
 11
136.6725405690712
 21
90.3961895263889
 97
        0
 75
     0
 76
     1
 98
        0
  0
LWPOLYLINE
  5
5C
330
5A
100
AcDbEntity
  8
Default
  6
Continuous
 62
   136
 48
25.4
370
    20
100
AcDbPolyline
 90
        4
 70
     1
 43
0.00025
 10
136.6725405691
 20
90.3961895264
 10
136.0892072177
 20
86.8961894184
 10
135.5058738664
 20
90.3961895264
 10
136.6725405691
 20
90.3961895264
  0
HATCH
  5
5D
330
5A
100
AcDbEntity
  8
Default
  6
Continuous
 62
   136
 48
25.4
100
AcDbHatch
 10
0.0
 20
0.0
 30
0.0
210
0.0
220
0.0
230
1.0
  2
SOLID
 70
     1
 71
     0
 91
        1
 92
        1
 93
        3
 72
     1
 10
136.6725405690712
 20
113.3961886397698
 11
136.0892072177323
 21
116.8961887478032
 72
     1
 10
136.0892072177323
 20
116.8961887478032
 11
135.5058738663934
 21
113.3961886397698
 72
     1
 10
135.5058738663934
 20
113.3961886397698
 11
136.6725405690712
 21
113.3961886397698
 97
        0
 75
     0
 76
     1
 98
        0
  0
LWPOLYLINE
  5
5E
330
5A
100
AcDbEntity
  8
Default
  6
Continuous
 62
   136
 48
25.4
370
    20
100
AcDbPolyline
 90
        4
 70
     1
 43
0.00025
 10
136.6725405691
 20
113.3961886398
 10
136.0892072177
 20
116.8961887478
 10
135.5058738664
 20
113.3961886398
 10
136.6725405691
 20
113.3961886398
  0
LINE
  5
5F
330
5A
100
AcDbEntity
  8
Default
  6
Continuous
 62
     7
 48
25.4
100
AcDbLine
 10
81.9190084792
 20
86.8961894184
 30
0.0
 11
137.8392072717
 21
86.8961894184
 31
0.0
  0
LINE
  5
60
330
5A
100
AcDbEntity
  8
Default
  6
Continuous
 62
     7
 48
25.4
100
AcDbLine
 10
81.9190084792
 20
116.8961894184
 30
0.0
 11
137.8392072717
 21
116.8961894184
 31
0.0
  0
LINE
  5
61
330
5A
100
AcDbEntity
  8
Default
  6
Continuous
 62
     7
 48
25.4
100
AcDbLine
 10
136.0892072177
 20
86.8961894184
 30
0.0
 11
136.0892072177
 21
116.8961887478
 31
0.0
  0
TEXT
  5
62
330
5A
100
AcDbEntity
  8
Default
  6
Continuous
 62
     7
 48
25.4
100
AcDbText
 10
135.2142072177
 20
96.9486354904
 30
0.0
 40
3.5
  1
O
 50
90.0
  7
SEACAD_semeci1_ttf
 11
131.7142072177
 21
96.9486354904
 31
0.0
100
AcDbText
 73
     3
  0
TEXT
  5
63
330
5A
100
AcDbEntity
  8
Default
  6
Continuous
 62
     7
 48
25.4
100
AcDbText
 10
135.2142072177
 20
102.946015403
 30
0.0
 40
3.5
  1
30
 50
90.0
  7
SEACAD_seiso_ttf
 11
131.7142072177
 21
102.946015403
 31
0.0
100
AcDbText
 73
     3
  0
ENDBLK
  5
65
330
5A
100
AcDbEntity
  8
0
100
AcDbBlockEnd
  0
BLOCK
  5
71
330
67
100
AcDbEntity
  8
0
100
AcDbBlockBegin
  2
DMBLK2
 70
     0
 71
     0
 10
0.0
 20
0.0
 30
0.0
  3
DMBLK2
  1

  0
HATCH
  5
68
330
67
100
AcDbEntity
  8
Default
  6
Continuous
 62
   136
 48
25.4
100
AcDbHatch
 10
0.0
 20
0.0
 30
0.0
210
0.0
220
0.0
230
1.0
  2
SOLID
 70
     1
 71
     0
 91
        1
 92
        1
 93
        3
 72
     1
 10
144.4804137585205
 20
85.39618952638891
 11
143.3137470558427
 21
85.39618952638891
 72
     1
 10
143.3137470558427
 20
85.39618952638891
 11
143.8970804071816
 21
81.89618941835549
 72
     1
 10
143.8970804071816
 20
81.89618941835549
 11
144.4804137585205
 21
85.39618952638891
 97
        0
 75
     0
 76
     1
 98
        0
  0
LWPOLYLINE
  5
69
330
67
100
AcDbEntity
  8
Default
  6
Continuous
 62
   136
 48
25.4
370
    20
100
AcDbPolyline
 90
        4
 70
     1
 43
0.00025
 10
144.4804137585
 20
85.3961895264
 10
143.8970804072
 20
81.8961894184
 10
143.3137470558
 20
85.3961895264
 10
144.4804137585
 20
85.3961895264
  0
HATCH
  5
6A
330
67
100
AcDbEntity
  8
Default
  6
Continuous
 62
   136
 48
25.4
100
AcDbHatch
 10
0.0
 20
0.0
 30
0.0
210
0.0
220
0.0
230
1.0
  2
SOLID
 70
     1
 71
     0
 91
        1
 92
        1
 93
        3
 72
     1
 10
144.4804137585205
 20
118.3961884162524
 11
143.8970804071816
 21
121.8961885242858
 72
     1
 10
143.8970804071816
 20
121.8961885242858
 11
143.3137470558427
 21
118.3961884162524
 72
     1
 10
143.3137470558427
 20
118.3961884162524
 11
144.4804137585205
 21
118.3961884162524
 97
        0
 75
     0
 76
     1
 98
        0
  0
LWPOLYLINE
  5
6B
330
67
100
AcDbEntity
  8
Default
  6
Continuous
 62
   136
 48
25.4
370
    20
100
AcDbPolyline
 90
        4
 70
     1
 43
0.00025
 10
144.4804137585
 20
118.3961884163
 10
143.8970804072
 20
121.8961885243
 10
143.3137470558
 20
118.3961884163
 10
144.4804137585
 20
118.3961884163
  0
LINE
  5
6C
330
67
100
AcDbEntity
  8
Default
  6
Continuous
 62
     7
 48
25.4
100
AcDbLine
 10
81.9190084792
 20
81.8961894184
 30
0.0
 11
145.6470804612
 21
81.8961894184
 31
0.0
  0
LINE
  5
6D
330
67
100
AcDbEntity
  8
Default
  6
Continuous
 62
     7
 48
25.4
100
AcDbLine
 10
81.9190084792
 20
121.8961894184
 30
0.0
 11
145.6470804612
 21
121.8961894184
 31
0.0
  0
LINE
  5
6E
330
67
100
AcDbEntity
  8
Default
  6
Continuous
 62
     7
 48
25.4
100
AcDbLine
 10
143.8970804072
 20
81.8961894184
 30
0.0
 11
143.8970804072
 21
121.8961885243
 31
0.0
  0
TEXT
  5
6F
330
67
100
AcDbEntity
  8
Default
  6
Continuous
 62
     7
 48
25.4
100
AcDbText
 10
143.0220804072
 20
96.8293171968
 30
0.0
 40
3.5
  1
O
 50
90.0
  7
SEACAD_semeci1_ttf
 11
139.5220804072
 21
96.8293171968
 31
0.0
100
AcDbText
 73
     3
  0
TEXT
  5
70
330
67
100
AcDbEntity
  8
Default
  6
Continuous
 62
     7
 48
25.4
100
AcDbText
 10
143.0220804072
 20
102.8266971095
 30
0.0
 40
3.5
  1
40
 50
90.0
  7
SEACAD_seiso_ttf
 11
139.5220804072
 21
102.8266971095
 31
0.0
100
AcDbText
 73
     3
  0
ENDBLK
  5
72
330
67
100
AcDbEntity
  8
0
100
AcDbBlockEnd
  0
BLOCK
  5
7E
330
74
100
AcDbEntity
  8
0
100
AcDbBlockBegin
  2
DMBLK3
 70
     0
 71
     0
 10
0.0
 20
0.0
 30
0.0
  3
DMBLK3
  1

  0
HATCH
  5
75
330
74
100
AcDbEntity
  8
Default
  6
Continuous
 62
   136
 48
25.4
100
AcDbHatch
 10
0.0
 20
0.0
 30
0.0
210
0.0
220
0.0
230
1.0
  2
SOLID
 70
     1
 71
     0
 91
        1
 92
        1
 93
        3
 72
     1
 10
152.7344500658554
 20
80.39618952638891
 11
151.5677833631776
 21
80.39618952638891
 72
     1
 10
151.5677833631776
 20
80.39618952638891
 11
152.1511167145165
 21
76.89618941835549
 72
     1
 10
152.1511167145165
 20
76.89618941835549
 11
152.7344500658554
 21
80.39618952638891
 97
        0
 75
     0
 76
     1
 98
        0
  0
LWPOLYLINE
  5
76
330
74
100
AcDbEntity
  8
Default
  6
Continuous
 62
   136
 48
25.4
370
    20
100
AcDbPolyline
 90
        4
 70
     1
 43
0.00025
 10
152.7344500659
 20
80.3961895264
 10
152.1511167145
 20
76.8961894184
 10
151.5677833632
 20
80.3961895264
 10
152.7344500659
 20
80.3961895264
  0
HATCH
  5
77
330
74
100
AcDbEntity
  8
Default
  6
Continuous
 62
   136
 48
25.4
100
AcDbHatch
 10
0.0
 20
0.0
 30
0.0
210
0.0
220
0.0
230
1.0
  2
SOLID
 70
     1
 71
     0
 91
        1
 92
        1
 93
        3
 72
     1
 10
152.7344500658554
 20
123.3961900553801
 11
152.1511167145165
 21
126.8961901634136
 72
     1
 10
152.1511167145165
 20
126.8961901634136
 11
151.5677833631776
 21
123.3961900553801
 72
     1
 10
151.5677833631776
 20
123.3961900553801
 11
152.7344500658554
 21
123.3961900553801
 97
        0
 75
     0
 76
     1
 98
        0
  0
LWPOLYLINE
  5
78
330
74
100
AcDbEntity
  8
Default
  6
Continuous
 62
   136
 48
25.4
370
    20
100
AcDbPolyline
 90
        4
 70
     1
 43
0.00025
 10
152.7344500659
 20
123.3961900554
 10
152.1511167145
 20
126.8961901634
 10
151.5677833632
 20
123.3961900554
 10
152.7344500659
 20
123.3961900554
  0
LINE
  5
79
330
74
100
AcDbEntity
  8
Default
  6
Continuous
 62
     7
 48
25.4
100
AcDbLine
 10
81.9190084792
 20
76.8961894184
 30
0.0
 11
153.9011167685
 21
76.8961894184
 31
0.0
  0
LINE
  5
7A
330
74
100
AcDbEntity
  8
Default
  6
Continuous
 62
     7
 48
25.4
100
AcDbLine
 10
81.9190084792
 20
126.8961894184
 30
0.0
 11
153.9011167685
 21
126.8961894184
 31
0.0
  0
LINE
  5
7B
330
74
100
AcDbEntity
  8
Default
  6
Continuous
 62
     7
 48
25.4
100
AcDbLine
 10
152.1511167145
 20
76.8961894184
 30
0.0
 11
152.1511167145
 21
126.8961901634
 31
0.0
  0
TEXT
  5
7C
330
74
100
AcDbEntity
  8
Default
  6
Continuous
 62
     7
 48
25.4
100
AcDbText
 10
151.2761167145
 20
96.8690907436
 30
0.0
 40
3.5
  1
O
 50
90.0
  7
SEACAD_semeci1_ttf
 11
147.7761167145
 21
96.8690907436
 31
0.0
100
AcDbText
 73
     3
  0
TEXT
  5
7D
330
74
100
AcDbEntity
  8
Default
  6
Continuous
 62
     7
 48
25.4
100
AcDbText
 10
151.2761167145
 20
102.8664706563
 30
0.0
 40
3.5
  1
50
 50
90.0
  7
SEACAD_seiso_ttf
 11
147.7761167145
 21
102.8664706563
 31
0.0
100
AcDbText
 73
     3
  0
ENDBLK
  5
7F
330
74
100
AcDbEntity
  8
0
100
AcDbBlockEnd
  0
BLOCK
  5
8B
330
81
100
AcDbEntity
  8
0
100
AcDbBlockBegin
  2
DMBLK4
 70
     0
 71
     0
 10
0.0
 20
0.0
 30
0.0
  3
DMBLK4
  1

  0
HATCH
  5
82
330
81
100
AcDbEntity
  8
Default
  6
Continuous
 62
   136
 48
25.4
100
AcDbHatch
 10
0.0
 20
0.0
 30
0.0
210
0.0
220
0.0
230
1.0
  2
SOLID
 70
     1
 71
     0
 91
        1
 92
        1
 93
        3
 72
     1
 10
160.0961601374191
 20
75.39618952638891
 11
158.9294934347413
 21
75.39618952638891
 72
     1
 10
158.9294934347413
 20
75.39618952638891
 11
159.5128267860802
 21
71.89618941835549
 72
     1
 10
159.5128267860802
 20
71.89618941835549
 11
160.0961601374191
 21
75.39618952638891
 97
        0
 75
     0
 76
     1
 98
        0
  0
LWPOLYLINE
  5
83
330
81
100
AcDbEntity
  8
Default
  6
Continuous
 62
   136
 48
25.4
370
    20
100
AcDbPolyline
 90
        4
 70
     1
 43
0.00025
 10
160.0961601374
 20
75.3961895264
 10
159.5128267861
 20
71.8961894184
 10
158.9294934347
 20
75.3961895264
 10
160.0961601374
 20
75.3961895264
  0
HATCH
  5
84
330
81
100
AcDbEntity
  8
Default
  6
Continuous
 62
   136
 48
25.4
100
AcDbHatch
 10
0.0
 20
0.0
 30
0.0
210
0.0
220
0.0
230
1.0
  2
SOLID
 70
     1
 71
     0
 91
        1
 92
        1
 93
        3
 72
     1
 10
160.0961601374191
 20
128.3961879692176
 11
159.5128267860802
 21
131.896188077251
 72
     1
 10
159.5128267860802
 20
131.896188077251
 11
158.9294934347413
 21
128.3961879692176
 72
     1
 10
158.9294934347413
 20
128.3961879692176
 11
160.0961601374191
 21
128.3961879692176
 97
        0
 75
     0
 76
     1
 98
        0
  0
LWPOLYLINE
  5
85
330
81
100
AcDbEntity
  8
Default
  6
Continuous
 62
   136
 48
25.4
370
    20
100
AcDbPolyline
 90
        4
 70
     1
 43
0.00025
 10
160.0961601374
 20
128.3961879692
 10
159.5128267861
 20
131.8961880773
 10
158.9294934347
 20
128.3961879692
 10
160.0961601374
 20
128.3961879692
  0
LINE
  5
86
330
81
100
AcDbEntity
  8
Default
  6
Continuous
 62
     7
 48
25.4
100
AcDbLine
 10
81.9190084792
 20
71.8961894184
 30
0.0
 11
161.2628268401
 21
71.8961894184
 31
0.0
  0
LINE
  5
87
330
81
100
AcDbEntity
  8
Default
  6
Continuous
 62
     7
 48
25.4
100
AcDbLine
 10
81.9190084792
 20
131.8961894184
 30
0.0
 11
161.2628268401
 21
131.8961894184
 31
0.0
  0
LINE
  5
88
330
81
100
AcDbEntity
  8
Default
  6
Continuous
 62
     7
 48
25.4
100
AcDbLine
 10
159.5128267861
 20
71.8961894184
 30
0.0
 11
159.5128267861
 21
131.8961880773
 31
0.0
  0
TEXT
  5
89
330
81
100
AcDbEntity
  8
Default
  6
Continuous
 62
     7
 48
25.4
100
AcDbText
 10
158.6378267861
 20
96.789544246
 30
0.0
 40
3.5
  1
O
 50
90.0
  7
SEACAD_semeci1_ttf
 11
155.1378267861
 21
96.789544246
 31
0.0
100
AcDbText
 73
     3
  0
TEXT
  5
8A
330
81
100
AcDbEntity
  8
Default
  6
Continuous
 62
     7
 48
25.4
100
AcDbText
 10
158.6378267861
 20
102.7869241587
 30
0.0
 40
3.5
  1
60
 50
90.0
  7
SEACAD_seiso_ttf
 11
155.1378267861
 21
102.7869241587
 31
0.0
100
AcDbText
 73
     3
  0
ENDBLK
  5
8C
330
81
100
AcDbEntity
  8
0
100
AcDbBlockEnd
  0
BLOCK
  5
97
330
8E
100
AcDbEntity
  8
0
100
AcDbBlockBegin
  2
DMBLK5
 70
     0
 71
     0
 10
0.0
 20
0.0
 30
0.0
  3
DMBLK5
  1

  0
HATCH
  5
8F
330
8E
100
AcDbEntity
  8
Default
  6
Continuous
 62
   136
 48
25.4
100
AcDbHatch
 10
0.0
 20
0.0
 30
0.0
210
0.0
220
0.0
230
1.0
  2
SOLID
 70
     1
 71
     0
 91
        1
 92
        1
 93
        3
 72
     1
 10
33.78043026478516
 20
79.41542741285575
 11
34.36376361612406
 21
75.91542730482233
 72
     1
 10
34.36376361612406
 20
75.91542730482233
 11
34.94709696746296
 21
79.41542741285575
 72
     1
 10
34.94709696746296
 20
79.41542741285575
 11
33.78043026478516
 21
79.41542741285575
 97
        0
 75
     0
 76
     1
 98
        0
  0
LWPOLYLINE
  5
90
330
8E
100
AcDbEntity
  8
Default
  6
Continuous
 62
   136
 48
25.4
370
    20
100
AcDbPolyline
 90
        4
 70
     1
 43
0.00025
 10
33.7804302648
 20
79.4154274129
 10
34.3637636161
 20
75.9154273048
 10
34.9470969675
 20
79.4154274129
 10
33.7804302648
 20
79.4154274129
  0
HATCH
  5
91
330
8E
100
AcDbEntity
  8
Default
  6
Continuous
 62
   136
 48
25.4
100
AcDbHatch
 10
0.0
 20
0.0
 30
0.0
210
0.0
220
0.0
230
1.0
  2
SOLID
 70
     1
 71
     0
 91
        1
 92
        1
 93
        3
 72
     1
 10
33.78043026478516
 20
98.39618847148431
 11
34.94709696746296
 21
98.39618847148431
 72
     1
 10
34.94709696746296
 20
98.39618847148431
 11
34.36376361612406
 21
101.8961885795177
 72
     1
 10
34.36376361612406
 20
101.8961885795177
 11
33.78043026478516
 21
98.39618847148431
 97
        0
 75
     0
 76
     1
 98
        0
  0
LWPOLYLINE
  5
92
330
8E
100
AcDbEntity
  8
Default
  6
Continuous
 62
   136
 48
25.4
370
    20
100
AcDbPolyline
 90
        4
 70
     1
 43
0.00025
 10
33.7804302648
 20
98.3961884715
 10
34.3637636161
 20
101.8961885795
 10
34.9470969675
 20
98.3961884715
 10
33.7804302648
 20
98.3961884715
  0
LINE
  5
93
330
8E
100
AcDbEntity
  8
Default
  6
Continuous
 62
     7
 48
25.4
100
AcDbLine
 10
66.9190084792
 20
75.9154273048
 30
0.0
 11
32.6137635621
 21
75.9154273048
 31
0.0
  0
LINE
  5
94
330
8E
100
AcDbEntity
  8
Default
  6
Continuous
 62
     7
 48
25.4
100
AcDbLine
 10
111.9190084792
 20
101.8961894184
 30
0.0
 11
32.6137635621
 21
101.8961894184
 31
0.0
  0
LINE
  5
95
330
8E
100
AcDbEntity
  8
Default
  6
Continuous
 62
     7
 48
25.4
100
AcDbLine
 10
34.3637636161
 20
75.9154273048
 30
0.0
 11
34.3637636161
 21
101.8961885795
 31
0.0
  0
TEXT
  5
96
330
8E
100
AcDbEntity
  8
Default
  6
Continuous
 62
     7
 48
25.4
100
AcDbText
 10
33.4887636161
 20
84.3319443058
 30
0.0
 40
3.5
  1
25,98
 50
90.0
  7
SEACAD_seiso_ttf
 11
29.9887636161
 21
84.3319443058
 31
0.0
100
AcDbText
 73
     3
  0
ENDBLK
  5
98
330
8E
100
AcDbEntity
  8
0
100
AcDbBlockEnd
  0
BLOCK
  5
A3
330
9A
100
AcDbEntity
  8
0
100
AcDbBlockBegin
  2
DMBLK6
 70
     0
 71
     0
 10
0.0
 20
0.0
 30
0.0
  3
DMBLK6
  1

  0
HATCH
  5
9B
330
9A
100
AcDbEntity
  8
Default
  6
Continuous
 62
   136
 48
25.4
100
AcDbHatch
 10
0.0
 20
0.0
 30
0.0
210
0.0
220
0.0
230
1.0
  2
SOLID
 70
     1
 71
     0
 91
        1
 92
        1
 93
        3
 72
     1
 10
85.41900858719076
 20
156.2687807729292
 11
81.91900847915734
 21
155.6854474215903
 72
     1
 10
81.91900847915734
 20
155.6854474215903
 11
85.41900858719076
 21
155.1021140702514
 72
     1
 10
85.41900858719076
 20
155.1021140702514
 11
85.41900858719076
 21
156.2687807729292
 97
        0
 75
     0
 76
     1
 98
        0
  0
LWPOLYLINE
  5
9C
330
9A
100
AcDbEntity
  8
Default
  6
Continuous
 62
   136
 48
25.4
370
    20
100
AcDbPolyline
 90
        4
 70
     1
 43
0.00025
 10
85.4190085872
 20
156.2687807729
 10
81.9190084792
 20
155.6854474216
 10
85.4190085872
 20
155.1021140703
 10
85.4190085872
 20
156.2687807729
  0
HATCH
  5
9D
330
9A
100
AcDbEntity
  8
Default
  6
Continuous
 62
   136
 48
25.4
100
AcDbHatch
 10
0.0
 20
0.0
 30
0.0
210
0.0
220
0.0
230
1.0
  2
SOLID
 70
     1
 71
     0
 91
        1
 92
        1
 93
        3
 72
     1
 10
108.4190077005717
 20
156.2687807729292
 11
108.4190077005717
 21
155.1021140702514
 72
     1
 10
108.4190077005717
 20
155.1021140702514
 11
111.9190078086051
 21
155.6854474215903
 72
     1
 10
111.9190078086051
 20
155.6854474215903
 11
108.4190077005717
 21
156.2687807729292
 97
        0
 75
     0
 76
     1
 98
        0
  0
LWPOLYLINE
  5
9E
330
9A
100
AcDbEntity
  8
Default
  6
Continuous
 62
   136
 48
25.4
370
    20
100
AcDbPolyline
 90
        4
 70
     1
 43
0.00025
 10
108.4190077006
 20
156.2687807729
 10
111.9190078086
 20
155.6854474216
 10
108.4190077006
 20
155.1021140703
 10
108.4190077006
 20
156.2687807729
  0
LINE
  5
9F
330
9A
100
AcDbEntity
  8
Default
  6
Continuous
 62
     7
 48
25.4
100
AcDbLine
 10
81.9190084792
 20
101.8961894184
 30
0.0
 11
81.9190084792
 21
157.4354474756
 31
0.0
  0
LINE
  5
A0
330
9A
100
AcDbEntity
  8
Default
  6
Continuous
 62
     7
 48
25.4
100
AcDbLine
 10
111.9190084792
 20
101.8961894184
 30
0.0
 11
111.9190084792
 21
157.4354474756
 31
0.0
  0
LINE
  5
A1
330
9A
100
AcDbEntity
  8
Default
  6
Continuous
 62
     7
 48
25.4
100
AcDbLine
 10
81.9190084792
 20
155.6854474216
 30
0.0
 11
111.9190078086
 21
155.6854474216
 31
0.0
  0
TEXT
  5
A2
330
9A
100
AcDbEntity
  8
Default
  6
Continuous
 62
     7
 48
25.4
100
AcDbText
 10
94.9701445075
 20
156.5604474216
 30
0.0
 40
3.5
  1
30
  7
SEACAD_seiso_ttf
 11
94.9701445075
 21
160.0604474216
 31
0.0
100
AcDbText
 73
     3
  0
ENDBLK
  5
A4
330
9A
100
AcDbEntity
  8
0
100
AcDbBlockEnd
  0
BLOCK
  5
AF
330
A6
100
AcDbEntity
  8
0
100
AcDbBlockBegin
  2
DMBLK7
 70
     0
 71
     0
 10
0.0
 20
0.0
 30
0.0
  3
DMBLK7
  1

  0
HATCH
  5
A7
330
A6
100
AcDbEntity
  8
Default
  6
Continuous
 62
   136
 48
25.4
100
AcDbHatch
 10
0.0
 20
0.0
 30
0.0
210
0.0
220
0.0
230
1.0
  2
SOLID
 70
     1
 71
     0
 91
        1
 92
        1
 93
        3
 72
     1
 10
70.41900858719077
 20
156.7149428670075
 11
66.91900847915736
 21
156.1316095156686
 72
     1
 10
66.91900847915736
 20
156.1316095156686
 11
70.41900858719077
 21
155.5482761643297
 72
     1
 10
70.41900858719077
 20
155.5482761643297
 11
70.41900858719077
 21
156.7149428670075
 97
        0
 75
     0
 76
     1
 98
        0
  0
LWPOLYLINE
  5
A8
330
A6
100
AcDbEntity
  8
Default
  6
Continuous
 62
   136
 48
25.4
370
    20
100
AcDbPolyline
 90
        4
 70
     1
 43
0.00025
 10
70.4190085872
 20
156.714942867
 10
66.9190084792
 20
156.1316095157
 10
70.4190085872
 20
155.5482761643
 10
70.4190085872
 20
156.714942867
  0
HATCH
  5
A9
330
A6
100
AcDbEntity
  8
Default
  6
Continuous
 62
   136
 48
25.4
100
AcDbHatch
 10
0.0
 20
0.0
 30
0.0
210
0.0
220
0.0
230
1.0
  2
SOLID
 70
     1
 71
     0
 91
        1
 92
        1
 93
        3
 72
     1
 10
78.41900803584781
 20
156.7149428670075
 11
78.41900803584781
 21
155.5482761643297
 72
     1
 10
78.41900803584781
 20
155.5482761643297
 11
81.91900814388123
 21
156.1316095156686
 72
     1
 10
81.91900814388123
 20
156.1316095156686
 11
78.41900803584781
 21
156.7149428670075
 97
        0
 75
     0
 76
     1
 98
        0
  0
LWPOLYLINE
  5
AA
330
A6
100
AcDbEntity
  8
Default
  6
Continuous
 62
   136
 48
25.4
370
    20
100
AcDbPolyline
 90
        4
 70
     1
 43
0.00025
 10
78.4190080358
 20
156.714942867
 10
81.9190081439
 20
156.1316095157
 10
78.4190080358
 20
155.5482761643
 10
78.4190080358
 20
156.714942867
  0
LINE
  5
AB
330
A6
100
AcDbEntity
  8
Default
  6
Continuous
 62
     7
 48
25.4
100
AcDbLine
 10
66.9190084792
 20
127.8769515319
 30
0.0
 11
66.9190084792
 21
157.8816095697
 31
0.0
  0
LINE
  5
AC
330
A6
100
AcDbEntity
  8
Default
  6
Continuous
 62
     7
 48
25.4
100
AcDbLine
 10
81.9190084792
 20
142.2400222145
 30
0.0
 11
81.9190084792
 21
157.8816095697
 31
0.0
  0
LINE
  5
AD
330
A6
100
AcDbEntity
  8
Default
  6
Continuous
 62
     7
 48
25.4
100
AcDbLine
 10
66.9190084792
 20
156.1316095157
 30
0.0
 11
81.9190081439
 21
156.1316095157
 31
0.0
  0
TEXT
  5
AE
330
A6
100
AcDbEntity
  8
Default
  6
Continuous
 62
     7
 48
25.4
100
AcDbText
 10
72.7087810388
 20
157.0066095157
 30
0.0
 40
3.5
  1
15
  7
SEACAD_seiso_ttf
 11
72.7087810388
 21
160.5066095157
 31
0.0
100
AcDbText
 73
     3
  0
ENDBLK
  5
B0
330
A6
100
AcDbEntity
  8
0
100
AcDbBlockEnd
  0
BLOCK
  5
BB
330
B2
100
AcDbEntity
  8
0
100
AcDbBlockBegin
  2
DMBLK8
 70
     0
 71
     0
 10
0.0
 20
0.0
 30
0.0
  3
DMBLK8
  1

  0
HATCH
  5
B3
330
B2
100
AcDbEntity
  8
Default
  6
Continuous
 62
   136
 48
25.4
100
AcDbHatch
 10
0.0
 20
0.0
 30
0.0
210
0.0
220
0.0
230
1.0
  2
SOLID
 70
     1
 71
     0
 91
        1
 92
        1
 93
        3
 72
     1
 10
33.78043026478516
 20
124.3769514238552
 11
34.94709696746296
 21
124.3769514238552
 72
     1
 10
34.94709696746296
 20
124.3769514238552
 11
34.36376361612406
 21
127.8769515318887
 72
     1
 10
34.36376361612406
 20
127.8769515318887
 11
33.78043026478516
 21
124.3769514238552
 97
        0
 75
     0
 76
     1
 98
        0
  0
LWPOLYLINE
  5
B4
330
B2
100
AcDbEntity
  8
Default
  6
Continuous
 62
   136
 48
25.4
370
    20
100
AcDbPolyline
 90
        4
 70
     1
 43
0.00025
 10
33.7804302648
 20
124.3769514239
 10
34.3637636161
 20
127.8769515319
 10
34.9470969675
 20
124.3769514239
 10
33.7804302648
 20
124.3769514239
  0
HATCH
  5
B5
330
B2
100
AcDbEntity
  8
Default
  6
Continuous
 62
   136
 48
25.4
100
AcDbHatch
 10
0.0
 20
0.0
 30
0.0
210
0.0
220
0.0
230
1.0
  2
SOLID
 70
     1
 71
     0
 91
        1
 92
        1
 93
        3
 72
     1
 10
33.78043026478516
 20
105.3961903652267
 11
34.36376361612406
 21
101.8961902571933
 72
     1
 10
34.36376361612406
 20
101.8961902571933
 11
34.94709696746296
 21
105.3961903652267
 72
     1
 10
34.94709696746296
 20
105.3961903652267
 11
33.78043026478516
 21
105.3961903652267
 97
        0
 75
     0
 76
     1
 98
        0
  0
LWPOLYLINE
  5
B6
330
B2
100
AcDbEntity
  8
Default
  6
Continuous
 62
   136
 48
25.4
370
    20
100
AcDbPolyline
 90
        4
 70
     1
 43
0.00025
 10
33.7804302648
 20
105.3961903652
 10
34.3637636161
 20
101.8961902572
 10
34.9470969675
 20
105.3961903652
 10
33.7804302648
 20
105.3961903652
  0
LINE
  5
B7
330
B2
100
AcDbEntity
  8
Default
  6
Continuous
 62
     7
 48
25.4
100
AcDbLine
 10
66.9190084792
 20
127.8769515319
 30
0.0
 11
32.6137635621
 21
127.8769515319
 31
0.0
  0
LINE
  5
B8
330
B2
100
AcDbEntity
  8
Default
  6
Continuous
 62
     7
 48
25.4
100
AcDbLine
 10
41.7558571035
 20
101.8961894184
 30
0.0
 11
32.6137635621
 21
101.8961894184
 31
0.0
  0
LINE
  5
B9
330
B2
100
AcDbEntity
  8
Default
  6
Continuous
 62
     7
 48
25.4
100
AcDbLine
 10
34.3637636161
 20
127.8769515319
 30
0.0
 11
34.3637636161
 21
101.8961902572
 31
0.0
  0
TEXT
  5
BA
330
B2
100
AcDbEntity
  8
Default
  6
Continuous
 62
     7
 48
25.4
100
AcDbText
 10
33.4887636161
 20
110.3127072582
 30
0.0
 40
3.5
  1
25,98
 50
90.0
  7
SEACAD_seiso_ttf
 11
29.9887636161
 21
110.3127072582
 31
0.0
100
AcDbText
 73
     3
  0
ENDBLK
  5
BC
330
B2
100
AcDbEntity
  8
0
100
AcDbBlockEnd
  0
BLOCK
  5
C7
330
BE
100
AcDbEntity
  8
0
100
AcDbBlockBegin
  2
DMBLK9
 70
     0
 71
     0
 10
0.0
 20
0.0
 30
0.0
  3
DMBLK9
  1

  0
HATCH
  5
BF
330
BE
100
AcDbEntity
  8
Default
  6
Continuous
 62
   136
 48
25.4
100
AcDbHatch
 10
0.0
 20
0.0
 30
0.0
210
0.0
220
0.0
230
1.0
  2
SOLID
 70
     1
 71
     0
 91
        1
 92
        1
 93
        3
 72
     1
 10
70.41900858719077
 20
146.0070019607212
 11
66.91900847915736
 21
145.4236686093823
 72
     1
 10
66.91900847915736
 20
145.4236686093823
 11
70.41900858719077
 21
144.8403352580434
 72
     1
 10
70.41900858719077
 20
144.8403352580434
 11
70.41900858719077
 21
146.0070019607212
 97
        0
 75
     0
 76
     1
 98
        0
  0
LWPOLYLINE
  5
C0
330
BE
100
AcDbEntity
  8
Default
  6
Continuous
 62
   136
 48
25.4
370
    20
100
AcDbPolyline
 90
        4
 70
     1
 43
0.00025
 10
70.4190085872
 20
146.0070019607
 10
66.9190084792
 20
145.4236686094
 10
70.4190085872
 20
144.840335258
 10
70.4190085872
 20
146.0070019607
  0
HATCH
  5
C1
330
BE
100
AcDbEntity
  8
Default
  6
Continuous
 62
   136
 48
25.4
100
AcDbHatch
 10
0.0
 20
0.0
 30
0.0
210
0.0
220
0.0
230
1.0
  2
SOLID
 70
     1
 71
     0
 91
        1
 92
        1
 93
        3
 72
     1
 10
108.4190101592633
 20
146.0070019607212
 11
108.4190101592633
 21
144.8403352580434
 72
     1
 10
108.4190101592633
 20
144.8403352580434
 11
111.9190102672967
 21
145.4236686093823
 72
     1
 10
111.9190102672967
 20
145.4236686093823
 11
108.4190101592633
 21
146.0070019607212
 97
        0
 75
     0
 76
     1
 98
        0
  0
LWPOLYLINE
  5
C2
330
BE
100
AcDbEntity
  8
Default
  6
Continuous
 62
   136
 48
25.4
370
    20
100
AcDbPolyline
 90
        4
 70
     1
 43
0.00025
 10
108.4190101593
 20
146.0070019607
 10
111.9190102673
 20
145.4236686094
 10
108.4190101593
 20
144.840335258
 10
108.4190101593
 20
146.0070019607
  0
LINE
  5
C3
330
BE
100
AcDbEntity
  8
Default
  6
Continuous
 62
     7
 48
25.4
100
AcDbLine
 10
66.9190084792
 20
127.8769515319
 30
0.0
 11
66.9190084792
 21
147.1736686634
 31
0.0
  0
LINE
  5
C4
330
BE
100
AcDbEntity
  8
Default
  6
Continuous
 62
     7
 48
25.4
100
AcDbLine
 10
111.9190084792
 20
101.8961894184
 30
0.0
 11
111.9190084792
 21
147.1736686634
 31
0.0
  0
LINE
  5
C5
330
BE
100
AcDbEntity
  8
Default
  6
Continuous
 62
     7
 48
25.4
100
AcDbLine
 10
66.9190084792
 20
145.4236686094
 30
0.0
 11
111.9190102673
 21
145.4236686094
 31
0.0
  0
TEXT
  5
C6
330
BE
100
AcDbEntity
  8
Default
  6
Continuous
 62
     7
 48
25.4
100
AcDbText
 10
87.3906002823
 20
146.2986686094
 30
0.0
 40
3.5
  1
45
  7
SEACAD_seiso_ttf
 11
87.3906002823
 21
149.7986686094
 31
0.0
100
AcDbText
 73
     3
  0
ENDBLK
  5
C8
330
BE
100
AcDbEntity
  8
0
100
AcDbBlockEnd
  0
BLOCK
  5
D4
330
CA
100
AcDbEntity
  8
0
100
AcDbBlockBegin
  2
DMBLK10
 70
     0
 71
     0
 10
0.0
 20
0.0
 30
0.0
  3
DMBLK10
  1

  0
HATCH
  5
CB
330
CA
100
AcDbEntity
  8
Default
  6
Continuous
 62
   136
 48
25.4
100
AcDbHatch
 10
0.0
 20
0.0
 30
0.0
210
0.0
220
0.0
230
1.0
  2
SOLID
 70
     1
 71
     0
 91
        1
 92
        1
 93
        3
 72
     1
 10
167.4578702089829
 20
70.39618952638891
 11
166.2912035063051
 21
70.39618952638891
 72
     1
 10
166.2912035063051
 20
70.39618952638891
 11
166.874536857644
 21
66.89618941835549
 72
     1
 10
166.874536857644
 20
66.89618941835549
 11
167.4578702089829
 21
70.39618952638891
 97
        0
 75
     0
 76
     1
 98
        0
  0
LWPOLYLINE
  5
CC
330
CA
100
AcDbEntity
  8
Default
  6
Continuous
 62
   136
 48
25.4
370
    20
100
AcDbPolyline
 90
        4
 70
     1
 43
0.00025
 10
167.457870209
 20
70.3961895264
 10
166.8745368576
 20
66.8961894184
 10
166.2912035063
 20
70.3961895264
 10
167.457870209
 20
70.3961895264
  0
HATCH
  5
CD
330
CA
100
AcDbEntity
  8
Default
  6
Continuous
 62
   136
 48
25.4
100
AcDbHatch
 10
0.0
 20
0.0
 30
0.0
210
0.0
220
0.0
230
1.0
  2
SOLID
 70
     1
 71
     0
 91
        1
 92
        1
 93
        3
 72
     1
 10
167.4578702089829
 20
133.3961896083453
 11
166.874536857644
 21
136.8961897163787
 72
     1
 10
166.874536857644
 20
136.8961897163787
 11
166.2912035063051
 21
133.3961896083453
 72
     1
 10
166.2912035063051
 20
133.3961896083453
 11
167.4578702089829
 21
133.3961896083453
 97
        0
 75
     0
 76
     1
 98
        0
  0
LWPOLYLINE
  5
CE
330
CA
100
AcDbEntity
  8
Default
  6
Continuous
 62
   136
 48
25.4
370
    20
100
AcDbPolyline
 90
        4
 70
     1
 43
0.00025
 10
167.457870209
 20
133.3961896083
 10
166.8745368576
 20
136.8961897164
 10
166.2912035063
 20
133.3961896083
 10
167.457870209
 20
133.3961896083
  0
LINE
  5
CF
330
CA
100
AcDbEntity
  8
Default
  6
Continuous
 62
     7
 48
25.4
100
AcDbLine
 10
81.9190084792
 20
66.8961894184
 30
0.0
 11
168.6245369117
 21
66.8961894184
 31
0.0
  0
LINE
  5
D0
330
CA
100
AcDbEntity
  8
Default
  6
Continuous
 62
     7
 48
25.4
100
AcDbLine
 10
81.9190084792
 20
136.8961894184
 30
0.0
 11
168.6245369117
 21
136.8961894184
 31
0.0
  0
LINE
  5
D1
330
CA
100
AcDbEntity
  8
Default
  6
Continuous
 62
     7
 48
25.4
100
AcDbLine
 10
166.8745368576
 20
66.8961894184
 30
0.0
 11
166.8745368576
 21
136.8961897164
 31
0.0
  0
TEXT
  5
D2
330
CA
100
AcDbEntity
  8
Default
  6
Continuous
 62
     7
 48
25.4
100
AcDbText
 10
165.9995368576
 20
96.7497723383
 30
0.0
 40
3.5
  1
O
 50
90.0
  7
SEACAD_semeci1_ttf
 11
162.4995368576
 21
96.7497723383
 31
0.0
100
AcDbText
 73
     3
  0
TEXT
  5
D3
330
CA
100
AcDbEntity
  8
Default
  6
Continuous
 62
     7
 48
25.4
100
AcDbText
 10
165.9995368576
 20
102.747152251
 30
0.0
 40
3.5
  1
70
 50
90.0
  7
SEACAD_seiso_ttf
 11
162.4995368576
 21
102.747152251
 31
0.0
100
AcDbText
 73
     3
  0
ENDBLK
  5
D5
330
CA
100
AcDbEntity
  8
0
100
AcDbBlockEnd
  0
BLOCK
  5
E1
330
D7
100
AcDbEntity
  8
0
100
AcDbBlockBegin
  2
DMBLK11
 70
     0
 71
     0
 10
0.0
 20
0.0
 30
0.0
  3
DMBLK11
  1

  0
HATCH
  5
D8
330
D7
100
AcDbEntity
  8
Default
  6
Continuous
 62
   136
 48
25.4
100
AcDbHatch
 10
0.0
 20
0.0
 30
0.0
210
0.0
220
0.0
230
1.0
  2
SOLID
 70
     1
 71
     0
 91
        1
 92
        1
 93
        3
 72
     1
 10
174.373417162661
 20
65.3961895263889
 11
173.2067504599832
 21
65.3961895263889
 72
     1
 10
173.2067504599832
 20
65.3961895263889
 11
173.7900838113221
 21
61.89618941835548
 72
     1
 10
173.7900838113221
 20
61.89618941835548
 11
174.373417162661
 21
65.3961895263889
 97
        0
 75
     0
 76
     1
 98
        0
  0
LWPOLYLINE
  5
D9
330
D7
100
AcDbEntity
  8
Default
  6
Continuous
 62
   136
 48
25.4
370
    20
100
AcDbPolyline
 90
        4
 70
     1
 43
0.00025
 10
174.3734171627
 20
65.3961895264
 10
173.7900838113
 20
61.8961894184
 10
173.20675046
 20
65.3961895264
 10
174.3734171627
 20
65.3961895264
  0
HATCH
  5
DA
330
D7
100
AcDbEntity
  8
Default
  6
Continuous
 62
   136
 48
25.4
100
AcDbHatch
 10
0.0
 20
0.0
 30
0.0
210
0.0
220
0.0
230
1.0
  2
SOLID
 70
     1
 71
     0
 91
        1
 92
        1
 93
        3
 72
     1
 10
174.373417162661
 20
138.3961875221827
 11
173.7900838113221
 21
141.8961876302161
 72
     1
 10
173.7900838113221
 20
141.8961876302161
 11
173.2067504599832
 21
138.3961875221827
 72
     1
 10
173.2067504599832
 20
138.3961875221827
 11
174.373417162661
 21
138.3961875221827
 97
        0
 75
     0
 76
     1
 98
        0
  0
LWPOLYLINE
  5
DB
330
D7
100
AcDbEntity
  8
Default
  6
Continuous
 62
   136
 48
25.4
370
    20
100
AcDbPolyline
 90
        4
 70
     1
 43
0.00025
 10
174.3734171627
 20
138.3961875222
 10
173.7900838113
 20
141.8961876302
 10
173.20675046
 20
138.3961875222
 10
174.3734171627
 20
138.3961875222
  0
LINE
  5
DC
330
D7
100
AcDbEntity
  8
Default
  6
Continuous
 62
     7
 48
25.4
100
AcDbLine
 10
81.9190084792
 20
61.8961894184
 30
0.0
 11
175.5400838653
 21
61.8961894184
 31
0.0
  0
LINE
  5
DD
330
D7
100
AcDbEntity
  8
Default
  6
Continuous
 62
     7
 48
25.4
100
AcDbLine
 10
81.9190084792
 20
141.8961894184
 30
0.0
 11
175.5400838653
 21
141.8961894184
 31
0.0
  0
LINE
  5
DE
330
D7
100
AcDbEntity
  8
Default
  6
Continuous
 62
     7
 48
25.4
100
AcDbLine
 10
173.7900838113
 20
61.8961894184
 30
0.0
 11
173.7900838113
 21
141.8961876302
 31
0.0
  0
TEXT
  5
DF
330
D7
100
AcDbEntity
  8
Default
  6
Continuous
 62
     7
 48
25.4
100
AcDbText
 10
172.9150838113
 20
96.7497712952
 30
0.0
 40
3.5
  1
O
 50
90.0
  7
SEACAD_semeci1_ttf
 11
169.4150838113
 21
96.7497712952
 31
0.0
100
AcDbText
 73
     3
  0
TEXT
  5
E0
330
D7
100
AcDbEntity
  8
Default
  6
Continuous
 62
     7
 48
25.4
100
AcDbText
 10
172.9150838113
 20
102.7471512079
 30
0.0
 40
3.5
  1
80
 50
90.0
  7
SEACAD_seiso_ttf
 11
169.4150838113
 21
102.7471512079
 31
0.0
100
AcDbText
 73
     3
  0
ENDBLK
  5
E2
330
D7
100
AcDbEntity
  8
0
100
AcDbBlockEnd
  0
ENDSEC
  0
SECTION
  2
ENTITIES
  0
LINE
  5
2B
330
1F
100
AcDbEntity
  8
Default
  6
Continuous
 62
     7
 48
25.4
100
AcDbLine
 10
81.9190084792
 20
142.2400222145
 30
0.0
 11
81.9190084792
 21
62.1592922047
 31
0.0
  0
LINE
  5
2C
330
1F
100
AcDbEntity
  8
Default
  6
Continuous
 62
     7
 48
25.4
100
AcDbLine
 10
41.7558571035
 20
101.8961894184
 30
0.0
 11
128.5696901886
 21
101.8961894184
 31
0.0
  0
CIRCLE
  5
2D
330
1F
100
AcDbEntity
  8
Default
  6
Continuous
 62
     7
 48
25.4
100
AcDbCircle
 10
81.9190084792
 20
101.8961894184
 30
0.0
 40
15.00000000000001
  0
CIRCLE
  5
2E
330
1F
100
AcDbEntity
  8
Default
  6
Continuous
 62
     7
 48
25.4
100
AcDbCircle
 10
81.9190084792
 20
101.8961894184
 30
0.0
 40
20.0
  0
CIRCLE
  5
2F
330
1F
100
AcDbEntity
  8
Default
  6
Continuous
 62
     7
 48
25.4
100
AcDbCircle
 10
81.9190084792
 20
101.8961894184
 30
0.0
 40
24.99999999999999
  0
LINE
  5
30
330
1F
100
AcDbEntity
  8
Default
  6
Continuous
 62
     7
 48
25.4
100
AcDbLine
 10
81.9190084792
 20
101.8961894184
 30
0.0
 11
60.3991378142
 21
139.1696987824
 31
0.0
  0
LINE
  5
31
330
1F
100
AcDbEntity
  8
Default
  6
Continuous
 62
     7
 48
25.4
100
AcDbLine
 10
81.9190084792
 20
101.8961894184
 30
0.0
 11
58.4008876715
 21
61.1616092809
 31
0.0
  0
CIRCLE
  5
32
330
1F
100
AcDbEntity
  8
Default
  6
Continuous
 62
     7
 48
25.4
100
AcDbCircle
 10
111.9190084792
 20
101.8961894184
 30
0.0
 40
5.0
  0
CIRCLE
  5
33
330
1F
100
AcDbEntity
  8
Default
  6
Continuous
 62
     7
 48
25.4
100
AcDbCircle
 10
81.9190084792
 20
101.8961894184
 30
0.0
 40
30.0
  0
CIRCLE
  5
34
330
1F
100
AcDbEntity
  8
Default
  6
Continuous
 62
     7
 48
25.4
100
AcDbCircle
 10
66.9190084792
 20
75.9154273048
 30
0.0
 40
5.0
  0
CIRCLE
  5
35
330
1F
100
AcDbEntity
  8
Default
  6
Continuous
 62
     7
 48
25.4
100
AcDbCircle
 10
66.9190084792
 20
127.8769515319
 30
0.0
 40
5.0
  0
LINE
  5
36
330
1F
100
AcDbEntity
  8
Default
  6
Continuous
 62
     7
 48
25.4
100
AcDbLine
 10
96.9190084792
 20
101.8961894184
 30
0.0
 11
99.9190084792
 21
101.8961894184
 31
0.0
  0
LINE
  5
37
330
1F
100
AcDbEntity
  8
Default
  6
Continuous
 62
     7
 48
25.4
100
AcDbLine
 10
99.9190084792
 20
101.8961894184
 30
0.0
 11
99.9190084792
 21
103.3961894184
 31
0.0
  0
LINE
  5
38
330
1F
100
AcDbEntity
  8
Default
  6
Continuous
 62
     7
 48
25.4
100
AcDbLine
 10
99.9190084792
 20
103.3961894184
 30
0.0
 11
99.9190084792
 21
100.3961894184
 31
0.0
  0
LINE
  5
39
330
1F
100
AcDbEntity
  8
Default
  6
Continuous
 62
     7
 48
25.4
100
AcDbLine
 10
99.9190084792
 20
100.3961894184
 30
0.0
 11
96.8438200358
 21
100.3961894184
 31
0.0
  0
LINE
  5
3A
330
1F
100
AcDbEntity
  8
Default
  6
Continuous
 62
     7
 48
25.4
100
AcDbLine
 10
99.9190084792
 20
103.3961894184
 30
0.0
 11
96.8438200358
 21
103.3961894184
 31
0.0
  0
CIRCLE
  5
3B
330
1F
100
AcDbEntity
  8
Default
  6
Continuous
 62
     7
 48
25.4
100
AcDbCircle
 10
81.9190084792
 20
101.8961894184
 30
0.0
 40
35.0
  0
CIRCLE
  5
3C
330
1F
100
AcDbEntity
  8
Default
  6
Continuous
 62
     7
 48
25.4
100
AcDbCircle
 10
81.9190084792
 20
101.8961894184
 30
0.0
 40
40.0
  0
LINE
  5
3D
330
1F
100
AcDbEntity
  8
Default
  6
Continuous
 62
     7
 48
25.4
100
AcDbLine
 10
4.4405114047
 20
194.5036237914
 30
0.0
 11
290.0565094958
 21
194.5036237914
 31
0.0
  0
LINE
  5
3E
330
1F
100
AcDbEntity
  8
Default
  6
Continuous
 62
     7
 48
25.4
100
AcDbLine
 10
147.2485104502
 20
194.5036237914
 30
0.0
 11
147.2485104502
 21
6.9964918183
 31
0.0
  0
LINE
  5
3F
330
1F
100
AcDbEntity
  8
Default
  6
Continuous
 62
     7
 48
25.4
100
AcDbLine
 10
216.70408623
 20
143.1569275054
 30
0.0
 11
216.70408623
 21
63.0761974955
 31
0.0
  0
LINE
  5
40
330
1F
100
AcDbEntity
  8
Default
  6
Continuous
 62
     7
 48
25.4
100
AcDbLine
 10
256.8672376057
 20
102.8130947092
 30
0.0
 11
170.0534045206
 21
102.8130947092
 31
0.0
  0
CIRCLE
  5
41
330
1F
100
AcDbEntity
  8
Default
  6
Continuous
 62
     7
 48
25.4
100
AcDbCircle
 10
216.70408623
 20
102.8130947092
 30
0.0
 40
15.00000000000001
  0
CIRCLE
  5
42
330
1F
100
AcDbEntity
  8
Default
  6
Continuous
 62
     7
 48
25.4
100
AcDbCircle
 10
216.70408623
 20
102.8130947092
 30
0.0
 40
20.0
  0
CIRCLE
  5
43
330
1F
100
AcDbEntity
  8
Default
  6
Continuous
 62
     7
 48
25.4
100
AcDbCircle
 10
216.70408623
 20
102.8130947092
 30
0.0
 40
24.99999999999999
  0
LINE
  5
44
330
1F
100
AcDbEntity
  8
Default
  6
Continuous
 62
     7
 48
25.4
100
AcDbLine
 10
216.70408623
 20
102.8130947092
 30
0.0
 11
238.223956895
 21
140.0866040733
 31
0.0
  0
LINE
  5
45
330
1F
100
AcDbEntity
  8
Default
  6
Continuous
 62
     7
 48
25.4
100
AcDbLine
 10
216.70408623
 20
102.8130947092
 30
0.0
 11
240.2222070377
 21
62.0785145717
 31
0.0
  0
CIRCLE
  5
46
330
1F
100
AcDbEntity
  8
Default
  6
Continuous
 62
     7
 48
25.4
100
AcDbCircle
 10
186.70408623
 20
102.8130947092
 30
0.0
 40
5.0
  0
CIRCLE
  5
47
330
1F
100
AcDbEntity
  8
Default
  6
Continuous
 62
     7
 48
25.4
100
AcDbCircle
 10
216.70408623
 20
102.8130947092
 30
0.0
 40
30.0
  0
CIRCLE
  5
48
330
1F
100
AcDbEntity
  8
Default
  6
Continuous
 62
     7
 48
25.4
100
AcDbCircle
 10
231.70408623
 20
76.8323325956
 30
0.0
 40
5.0
  0
CIRCLE
  5
49
330
1F
100
AcDbEntity
  8
Default
  6
Continuous
 62
     7
 48
25.4
100
AcDbCircle
 10
231.70408623
 20
128.7938568227
 30
0.0
 40
5.0
  0
LINE
  5
4A
330
1F
100
AcDbEntity
  8
Default
  6
Continuous
 62
     7
 48
25.4
100
AcDbLine
 10
201.70408623
 20
102.8130947092
 30
0.0
 11
198.70408623
 21
102.8130947092
 31
0.0
  0
LINE
  5
4B
330
1F
100
AcDbEntity
  8
Default
  6
Continuous
 62
     7
 48
25.4
100
AcDbLine
 10
198.70408623
 20
102.8130947092
 30
0.0
 11
198.70408623
 21
104.3130947092
 31
0.0
  0
LINE
  5
4C
330
1F
100
AcDbEntity
  8
Default
  6
Continuous
 62
     7
 48
25.4
100
AcDbLine
 10
198.70408623
 20
104.3130947092
 30
0.0
 11
198.70408623
 21
101.3130947092
 31
0.0
  0
LINE
  5
4D
330
1F
100
AcDbEntity
  8
Default
  6
Continuous
 62
     7
 48
25.4
100
AcDbLine
 10
198.70408623
 20
101.3130947092
 30
0.0
 11
201.7792746734
 21
101.3130947092
 31
0.0
  0
LINE
  5
4E
330
1F
100
AcDbEntity
  8
Default
  6
Continuous
 62
     7
 48
25.4
100
AcDbLine
 10
198.70408623
 20
104.3130947092
 30
0.0
 11
201.7792746734
 21
104.3130947092
 31
0.0
  0
CIRCLE
  5
4F
330
1F
100
AcDbEntity
  8
Default
  6
Continuous
 62
     7
 48
25.4
100
AcDbCircle
 10
216.70408623
 20
102.8130947092
 30
0.0
 40
35.0
  0
CIRCLE
  5
50
330
1F
100
AcDbEntity
  8
Default
  6
Continuous
 62
     7
 48
25.4
100
AcDbCircle
 10
216.70408623
 20
102.8130947092
 30
0.0
 40
40.0
  0
DIMENSION
  5
58
330
1F
100
AcDbEntity
  8
Default
  6
Continuous
 62
     7
 48
25.4
100
AcDbDimension
  2
DMBLK1
 10
136.0892065621
 20
116.8961917862
 30
0.0
 11
136.0892072177
 21
101.8961890831
 31
0.0
 70
   161
  1
\A1;<>
 71
     5
 42
-1.0
  3
ISO
100
AcDbAlignedDimension
 13
81.9190091348
 23
86.8961894184
 33
0.0
 14
81.9190078235
 24
116.8961894184
 34
0.0
  0
DIMENSION
  5
66
330
1F
100
AcDbEntity
  8
Default
  6
Continuous
 62
     7
 48
25.4
100
AcDbDimension
  2
DMBLK2
 10
143.897079533
 20
121.8961921275
 30
0.0
 11
143.8970804072
 21
101.8961889713
 31
0.0
 70
   161
  1
\A1;<>
 71
     5
 42
-1.0
  3
ISO
100
AcDbAlignedDimension
 13
81.9190093534
 23
81.8961894184
 33
0.0
 14
81.9190076049
 24
121.8961894184
 34
0.0
  0
DIMENSION
  5
73
330
1F
100
AcDbEntity
  8
Default
  6
Continuous
 62
     7
 48
25.4
100
AcDbDimension
  2
DMBLK3
 10
152.1511156217
 20
126.8961924883
 30
0.0
 11
152.1511167145
 21
101.8961897909
 31
0.0
 70
   161
  1
\A1;<>
 71
     5
 42
-1.0
  3
ISO
100
AcDbAlignedDimension
 13
81.9190095719
 23
76.8961894184
 33
0.0
 14
81.9190073864
 24
126.8961894184
 34
0.0
  0
DIMENSION
  5
80
330
1F
100
AcDbEntity
  8
Default
  6
Continuous
 62
     7
 48
25.4
100
AcDbDimension
  2
DMBLK4
 10
159.5128254747
 20
131.8961928101
 30
0.0
 11
159.5128267861
 21
101.8961887478
 31
0.0
 70
   161
  1
\A1;<>
 71
     5
 42
-1.0
  3
ISO
100
AcDbAlignedDimension
 13
81.9190097905
 23
71.8961894184
 33
0.0
 14
81.9190071678
 24
131.8961894184
 34
0.0
  0
DIMENSION
  5
8D
330
1F
100
AcDbEntity
  8
Default
  6
Continuous
 62
     7
 48
25.4
100
AcDbDimension
  2
DMBLK5
 10
34.3637636161
 20
101.8961894184
 30
0.0
 11
34.3637636161
 21
88.9058079422
 31
0.0
 70
   160
  1
\A1;<>
 71
     5
 42
-1.0
  3
ISO
100
AcDbAlignedDimension
 13
66.9190084792
 23
75.9154273048
 33
0.0
 14
111.9190084792
 24
101.8961894184
 34
0.0
 50
90.0
100
AcDbRotatedDimension
1001
ACAD
1000
DSTYLE
1002
{
1070
    73
1070
     0
1070
    74
1070
     0
1070
    77
1070
     1
1070
     0
1002
}
  0
DIMENSION
  5
99
330
1F
100
AcDbEntity
  8
Default
  6
Continuous
 62
     7
 48
25.4
100
AcDbDimension
  2
DMBLK6
 10
81.9190084792
 20
155.6854474216
 30
0.0
 11
96.9190081439
 21
155.6854474216
 31
0.0
 70
   161
  1
\A1;<>
 71
     5
 42
-1.0
  3
ISO
100
AcDbAlignedDimension
 13
81.9190084792
 23
101.8961894184
 33
0.0
 14
111.9190084792
 24
101.8961894184
 34
0.0
1001
ACAD
1000
DSTYLE
1002
{
1070
    73
1070
     0
1070
    74
1070
     0
1070
    77
1070
     1
1070
   271
1070
     0
1070
   272
1070
     0
1070
     0
1002
}
  0
DIMENSION
  5
A5
330
1F
100
AcDbEntity
  8
Default
  6
Continuous
 62
     7
 48
25.4
100
AcDbDimension
  2
DMBLK7
 10
81.9190084792
 20
156.1316095157
 30
0.0
 11
74.4190083115
 21
156.1316095157
 31
0.0
 70
   160
  1
\A1;<>
 71
     5
 42
-1.0
  3
ISO
100
AcDbAlignedDimension
 13
66.9190084792
 23
127.8769515319
 33
0.0
 14
81.9190084792
 24
142.2400222145
 34
0.0
100
AcDbRotatedDimension
1001
ACAD
1000
DSTYLE
1002
{
1070
    73
1070
     0
1070
    74
1070
     0
1070
    77
1070
     1
1070
     0
1002
}
  0
DIMENSION
  5
B1
330
1F
100
AcDbEntity
  8
Default
  6
Continuous
 62
     7
 48
25.4
100
AcDbDimension
  2
DMBLK8
 10
34.3637636161
 20
101.8961894184
 30
0.0
 11
34.3637636161
 21
114.8865708945
 31
0.0
 70
   160
  1
\A1;<>
 71
     5
 42
-1.0
  3
ISO
100
AcDbAlignedDimension
 13
66.9190084792
 23
127.8769515319
 33
0.0
 14
41.7558571035
 24
101.8961894184
 34
0.0
 50
90.0
100
AcDbRotatedDimension
1001
ACAD
1000
DSTYLE
1002
{
1070
    73
1070
     0
1070
    74
1070
     0
1070
    77
1070
     1
1070
     0
1002
}
  0
DIMENSION
  5
BD
330
1F
100
AcDbEntity
  8
Default
  6
Continuous
 62
     7
 48
25.4
100
AcDbDimension
  2
DMBLK9
 10
111.9190084792
 20
145.4236686094
 30
0.0
 11
89.4190093732
 21
145.4236686094
 31
0.0
 70
   160
  1
\A1;<>
 71
     5
 42
-1.0
  3
ISO
100
AcDbAlignedDimension
 13
66.9190084792
 23
127.8769515319
 33
0.0
 14
111.9190084792
 24
101.8961894184
 34
0.0
100
AcDbRotatedDimension
1001
ACAD
1000
DSTYLE
1002
{
1070
    73
1070
     0
1070
    74
1070
     0
1070
    77
1070
     1
1070
     0
1002
}
  0
DIMENSION
  5
C9
330
1F
100
AcDbEntity
  8
Default
  6
Continuous
 62
     7
 48
25.4
100
AcDbDimension
  2
DMBLK10
 10
166.8745353277
 20
136.8961931319
 30
0.0
 11
166.8745368576
 21
101.8961895674
 31
0.0
 70
   161
  1
\A1;<>
 71
     5
 42
-1.0
  3
ISO
100
AcDbAlignedDimension
 13
81.9190100091
 23
66.8961894184
 33
0.0
 14
81.9190069493
 24
136.8961894184
 34
0.0
  0
DIMENSION
  5
D6
330
1F
100
AcDbEntity
  8
Default
  6
Continuous
 62
     7
 48
25.4
100
AcDbDimension
  2
DMBLK11
 10
173.7900820629
 20
141.8961934342
 30
0.0
 11
173.7900838113
 21
101.8961885243
 31
0.0
 70
   161
  1
\A1;<>
 71
     5
 42
-1.0
  3
ISO
100
AcDbAlignedDimension
 13
81.9190102276
 23
61.8961894184
 33
0.0
 14
81.9190067307
 24
141.8961894184
 34
0.0
  0
ENDSEC
  0
SECTION
  2
OBJECTS
  0
DICTIONARY
  5
C
330
0
100
AcDbDictionary
281
     1
  3
ACAD_GROUP
350
D
  3
ACAD_LAYOUT
350
1A
  3
ACAD_MLINESTYLE
350
17
  3
ACAD_PLOTSETTINGS
350
19
  3
ACAD_PLOTSTYLENAME
350
E
  0
DICTIONARY
  5
D
102
{ACAD_REACTORS
330
C
102
}
330
C
100
AcDbDictionary
281
     1
  0
DICTIONARY
  5
1A
102
{ACAD_REACTORS
330
C
102
}
330
C
100
AcDbDictionary
281
     1
  3
Layout1
350
1E
  3
Model
350
22
  0
DICTIONARY
  5
17
102
{ACAD_REACTORS
330
C
102
}
330
C
100
AcDbDictionary
281
     1
  3
Standard
350
18
  0
DICTIONARY
  5
19
102
{ACAD_REACTORS
330
C
102
}
330
C
100
AcDbDictionary
281
     1
  0
ACDBDICTIONARYWDFLT
  5
E
102
{ACAD_REACTORS
330
C
102
}
330
C
100
AcDbDictionary
281
     1
  3
Normal
350
F
100
AcDbDictionaryWithDefault
340
F
  0
LAYOUT
  5
1E
102
{ACAD_REACTORS
330
1A
102
}
330
1A
100
AcDbPlotSettings
  1

  2

  4

  6

 40
0.0
 41
0.0
 42
0.0
 43
0.0
 44
0.0
 45
0.0
 46
0.0
 47
0.0
 48
0.0
 49
0.0
140
0.0
141
0.0
142
1.0
143
1.0
 70
   688
 72
     0
 73
     0
 74
     5
  7

 75
    16
147
1.0
148
0.0
149
0.0
100
AcDbLayout
  1
Layout1
 70
     1
 71
     1
 10
0.0
 20
0.0
 11
297.0
 21
210.0
 12
0.0
 22
0.0
 32
0.0
 14
0.0
 24
0.0
 34
0.0
 15
297.0
 25
210.0
 35
0.0
146
0.0
 13
0.0
 23
0.0
 33
0.0
 16
1.0
 26
0.0
 36
0.0
 17
0.0
 27
1.0
 37
0.0
 76
     0
330
1B
  0
LAYOUT
  5
22
102
{ACAD_REACTORS
330
1A
102
}
330
1A
100
AcDbPlotSettings
  1

  2

  4

  6

 40
0.0
 41
0.0
 42
0.0
 43
0.0
 44
0.0
 45
0.0
 46
0.0
 47
0.0
 48
0.0
 49
0.0
140
0.0
141
0.0
142
1.0
143
1.0
 70
  1712
 72
     0
 73
     0
 74
     0
  7

 75
     0
147
1.0
148
0.0
149
0.0
100
AcDbLayout
  1
Model
 70
     1
 71
     0
 10
0.0
 20
0.0
 11
297.0
 21
210.0
 12
0.0
 22
0.0
 32
0.0
 14
0.0
 24
0.0
 34
0.0
 15
297.0
 25
210.0
 35
0.0
146
0.0
 13
0.0
 23
0.0
 33
0.0
 16
1.0
 26
0.0
 36
0.0
 17
0.0
 27
1.0
 37
0.0
 76
     0
330
1F
  0
MLINESTYLE
  5
18
102
{ACAD_REACTORS
330
17
102
}
330
17
100
AcDbMlineStyle
  2
Standard
 70
     0
  3

 62
   256
 51
90.0
 52
90.0
 71
     2
 49
0.5
 62
   256
  6
BYLAYER
 49
-0.5
 62
   256
  6
BYLAYER
  0
ACDBPLACEHOLDER
  5
F
102
{ACAD_REACTORS
330
E
102
}
330
E
  0
ENDSEC
  0
EOF
