  0
SECTION
  2
HEADER
  9
$ACADVER
  1
AC1014
  9
$ACADMAINTVER
 70
     0
  9
$DWGCODEPAGE
  3
ANSI_1252
  9
$INSBASE
 10
0.0
 20
0.0
 30
0.0
  9
$EXTMIN
 10
-263.656462
 20
-353.515887
 30
0.0
  9
$EXTMAX
 10
-59.397644
 20
-228.260035
 30
0.0
  9
$LIMMIN
 10
0.0
 20
0.0
  9
$LIMMAX
 10
297.0
 20
2100.0
  9
$ORTHOMODE
 70
     0
  9
$REGENMODE
 70
     1
  9
$FILLMODE
 70
     1
  9
$QTEXTMODE
 70
     0
  9
$MIRRTEXT
 70
     1
  9
$DRAGMODE
 70
     2
  9
$LTSCALE
 40
1.0
  9
$OSMODE
 70
   167
  9
$ATTMODE
 70
     1
  9
$TEXTSIZE
 40
2.5
  9
$TRACEWID
 40
1.0
  9
$TEXTSTYLE
  7
ISOCP
  9
$CLAYER
  8
MITAT
  9
$CELTYPE
  6
BYLAYER
  9
$CECOLOR
 62
   256
  9
$CELTSCALE
 40
1.0
  9
$DELOBJ
 70
     1
  9
$DISPSILH
 70
     0
  9
$DIMSCALE
 40
1.0
  9
$DIMASZ
 40
2.5
  9
$DIMEXO
 40
0.625
  9
$DIMDLI
 40
3.75
  9
$DIMRND
 40
0.0
  9
$DIMDLE
 40
0.0
  9
$DIMEXE
 40
1.25
  9
$DIMTP
 40
0.0
  9
$DIMTM
 40
0.0
  9
$DIMTXT
 40
2.5
  9
$DIMCEN
 40
-2.5
  9
$DIMTSZ
 40
0.0
  9
$DIMTOL
 70
     0
  9
$DIMLIM
 70
     0
  9
$DIMTIH
 70
     0
  9
$DIMTOH
 70
     1
  9
$DIMSE1
 70
     0
  9
$DIMSE2
 70
     0
  9
$DIMTAD
 70
     1
  9
$DIMZIN
 70
     8
  9
$DIMBLK
  1

  9
$DIMASO
 70
     1
  9
$DIMSHO
 70
     1
  9
$DIMPOST
  1

  9
$DIMAPOST
  1

  9
$DIMALT
 70
     0
  9
$DIMALTD
 70
     2
  9
$DIMALTF
 40
0.0394
  9
$DIMLFAC
 40
1.0
  9
$DIMTOFL
 70
     1
  9
$DIMTVP
 40
1.0
  9
$DIMTIX
 70
     0
  9
$DIMSOXD
 70
     0
  9
$DIMSAH
 70
     0
  9
$DIMBLK1
  1

  9
$DIMBLK2
  1

  9
$DIMSTYLE
  2
MECH1
  9
$DIMCLRD
 70
     0
  9
$DIMCLRE
 70
     0
  9
$DIMCLRT
 70
     1
  9
$DIMTFAC
 40
1.0
  9
$DIMGAP
 40
0.625
  9
$DIMJUST
 70
     0
  9
$DIMSD1
 70
     0
  9
$DIMSD2
 70
     0
  9
$DIMTOLJ
 70
     1
  9
$DIMTZIN
 70
     0
  9
$DIMALTZ
 70
     0
  9
$DIMALTTZ
 70
     0
  9
$DIMFIT
 70
     3
  9
$DIMUPT
 70
     0
  9
$DIMUNIT
 70
     8
  9
$DIMDEC
 70
     2
  9
$DIMTDEC
 70
     1
  9
$DIMALTU
 70
     8
  9
$DIMALTTD
 70
     2
  9
$DIMTXSTY
  7
STANDARD
  9
$DIMAUNIT
 70
     0
  9
$LUNITS
 70
     2
  9
$LUPREC
 70
     4
  9
$SKETCHINC
 40
1.0
  9
$FILLETRAD
 40
2.0
  9
$AUNITS
 70
     0
  9
$AUPREC
 70
     0
  9
$MENU
  1
acad
  9
$ELEVATION
 40
0.0
  9
$PELEVATION
 40
0.0
  9
$THICKNESS
 40
0.0
  9
$LIMCHECK
 70
     0
  9
$BLIPMODE
 70
     0
  9
$CHAMFERA
 40
0.0
  9
$CHAMFERB
 40
0.0
  9
$CHAMFERC
 40
0.0
  9
$CHAMFERD
 40
0.0
  9
$SKPOLY
 70
     1
  9
$TDCREATE
 40
2456012.780436192
  9
$TDUPDATE
 40
2456012.842542673
  9
$TDINDWG
 40
0.0519088079
  9
$TDUSRTIMER
 40
0.0519088079
  9
$USRTIMER
 70
     1
  9
$ANGBASE
 50
0.0
  9
$ANGDIR
 70
     0
  9
$PDMODE
 70
     0
  9
$PDSIZE
 40
0.0
  9
$PLINEWID
 40
0.0
  9
$COORDS
 70
     1
  9
$SPLFRAME
 70
     0
  9
$SPLINETYPE
 70
     6
  9
$SPLINESEGS
 70
     8
  9
$ATTDIA
 70
     1
  9
$ATTREQ
 70
     1
  9
$HANDLING
 70
     1
  9
$HANDSEED
  5
ADF
  9
$SURFTAB1
 70
     6
  9
$SURFTAB2
 70
     6
  9
$SURFTYPE
 70
     6
  9
$SURFU
 70
     6
  9
$SURFV
 70
     6
  9
$UCSNAME
  2

  9
$UCSORG
 10
0.0
 20
0.0
 30
0.0
  9
$UCSXDIR
 10
1.0
 20
0.0
 30
0.0
  9
$UCSYDIR
 10
0.0
 20
1.0
 30
0.0
  9
$PUCSNAME
  2

  9
$PUCSORG
 10
0.0
 20
0.0
 30
0.0
  9
$PUCSXDIR
 10
1.0
 20
0.0
 30
0.0
  9
$PUCSYDIR
 10
0.0
 20
1.0
 30
0.0
  9
$USERI1
 70
     0
  9
$USERI2
 70
     0
  9
$USERI3
 70
     0
  9
$USERI4
 70
     0
  9
$USERI5
 70
     0
  9
$USERR1
 40
0.0
  9
$USERR2
 40
0.0
  9
$USERR3
 40
0.0
  9
$USERR4
 40
0.0
  9
$USERR5
 40
0.0
  9
$WORLDVIEW
 70
     1
  9
$SHADEDGE
 70
     3
  9
$SHADEDIF
 70
    70
  9
$TILEMODE
 70
     0
  9
$MAXACTVP
 70
    48
  9
$PINSBASE
 10
0.0
 20
0.0
 30
0.0
  9
$PLIMCHECK
 70
     0
  9
$PEXTMIN
 10
-36.985127
 20
-159.731889
 30
0.0
  9
$PEXTMAX
 10
260.014873
 20
50.268111
 30
0.0
  9
$PLIMMIN
 10
0.0
 20
0.0
  9
$PLIMMAX
 10
210.0
 20
297.0
  9
$UNITMODE
 70
     0
  9
$VISRETAIN
 70
     1
  9
$PLINEGEN
 70
     0
  9
$PSLTSCALE
 70
     1
  9
$TREEDEPTH
 70
  3020
  9
$PICKSTYLE
 70
     1
  9
$CMLSTYLE
  2
STANDARD
  9
$CMLJUST
 70
     0
  9
$CMLSCALE
 40
1.0
  9
$PROXYGRAPHICS
 70
     1
  9
$MEASUREMENT
 70
     1
  0
ENDSEC
  0
SECTION
  2
CLASSES
  0
CLASS
  1
LWPOLYLINE
  2
AcDbPolyline
  3
"AutoCAD"
 90
        0
280
     0
281
     1
  0
ENDSEC
  0
SECTION
  2
TABLES
  0
TABLE
  2
VPORT
  5
13
100
AcDbSymbolTable
 70
     1
  0
VPORT
  5
D4
100
AcDbSymbolTableRecord
100
AcDbViewportTableRecord
  2
*ACTIVE
 70
     0
 10
0.0
 20
0.0
 11
1.0
 21
1.0
 12
261.254867
 22
159.671969
 13
0.0
 23
0.0
 14
10.0
 24
10.0
 15
10.0
 25
10.0
 16
0.0
 26
0.0
 36
1.0
 17
0.0
 27
0.0
 37
0.0
 40
319.343938
 41
1.636197
 42
50.0
 43
0.0
 44
0.0
 50
0.0
 51
0.0
 71
     0
 72
   100
 73
     1
 74
     1
 75
     1
 76
     0
 77
     0
 78
     0
  0
ENDTAB
  0
TABLE
  2
LTYPE
  5
F
100
AcDbSymbolTable
 70
     1
  0
LTYPE
  5
10
100
AcDbSymbolTableRecord
100
AcDbLinetypeTableRecord
  2
BYBLOCK
 70
     0
  3

 72
    65
 73
     0
 40
0.0
  0
LTYPE
  5
6
100
AcDbSymbolTableRecord
100
AcDbLinetypeTableRecord
  2
BYLAYER
 70
     0
  3

 72
    65
 73
     0
 40
0.0
  0
LTYPE
  5
5
100
AcDbSymbolTableRecord
100
AcDbLinetypeTableRecord
  2
CONTINUOUS
 70
     0
  3
Solid line
 72
    65
 73
     0
 40
0.0
  0
ENDTAB
  0
TABLE
  2
LAYER
  5
B
100
AcDbSymbolTable
 70
     9
  0
LAYER
  5
C
100
AcDbSymbolTableRecord
100
AcDbLayerTableRecord
  2
0
 70
     0
 62
     7
  6
CONTINUOUS
  0
LAYER
  5
20
100
AcDbSymbolTableRecord
100
AcDbLayerTableRecord
  2
RAHMEN025
 70
     0
 62
     7
  6
CONTINUOUS
  0
LAYER
  5
29
100
AcDbSymbolTableRecord
100
AcDbLayerTableRecord
  2
RAHMEN07
 70
     0
 62
     5
  6
CONTINUOUS
  0
LAYER
  5
25
100
AcDbSymbolTableRecord
100
AcDbLayerTableRecord
  2
RAHMEN05
 70
     0
 62
     5
  6
CONTINUOUS
  0
LAYER
  5
4
100
AcDbSymbolTableRecord
100
AcDbLayerTableRecord
  2
RAHMEN035
 70
     0
 62
     2
  6
CONTINUOUS
  0
LAYER
  5
14E
100
AcDbSymbolTableRecord
100
AcDbLayerTableRecord
  2
DEFPOINTS
 70
     0
 62
     7
  6
CONTINUOUS
  0
LAYER
  5
1BB
100
AcDbSymbolTableRecord
100
AcDbLayerTableRecord
  2
MITAT
 70
     0
 62
     1
  6
CONTINUOUS
  0
LAYER
  5
1BC
100
AcDbSymbolTableRecord
100
AcDbLayerTableRecord
  2
APUVIIVAT
 70
     0
 62
     3
  6
CONTINUOUS
  0
LAYER
  5
1BD
100
AcDbSymbolTableRecord
100
AcDbLayerTableRecord
  2
KUVA
 70
     0
 62
     7
  6
CONTINUOUS
  0
ENDTAB
  0
TABLE
  2
STYLE
  5
D
100
AcDbSymbolTable
 70
     2
  0
STYLE
  5
E
100
AcDbSymbolTableRecord
100
AcDbTextStyleTableRecord
  2
STANDARD
 70
     0
 40
0.0
 41
1.0
 50
0.0
 71
     0
 42
2.5
  3
txt
  4

  0
STYLE
  5
1C
100
AcDbSymbolTableRecord
100
AcDbTextStyleTableRecord
  2
ISOCP
 70
     0
 40
0.0
 41
1.0
 50
0.0
 71
     0
 42
2.5
  3
isocp.shx
  4

  0
ENDTAB
  0
TABLE
  2
VIEW
  5
11
100
AcDbSymbolTable
 70
     0
  0
ENDTAB
  0
TABLE
  2
UCS
  5
12
100
AcDbSymbolTable
 70
     0
  0
ENDTAB
  0
TABLE
  2
APPID
  5
15
100
AcDbSymbolTable
 70
     1
  0
APPID
  5
16
100
AcDbSymbolTableRecord
100
AcDbRegAppTableRecord
  2
ACAD
 70
     0
  0
ENDTAB
  0
TABLE
  2
DIMSTYLE
  5
17
100
AcDbSymbolTable
 70
     2
  0
DIMSTYLE
105
1E
100
AcDbSymbolTableRecord
100
AcDbDimStyleTableRecord
  2
DIN
 70
     0
  3

  4

  5

  6

  7

 40
1.0
 41
2.5
 42
0.625
 43
3.75
 44
1.25
 45
0.0
 46
0.0
 47
0.0
 48
0.0
140
2.5
141
-2.5
142
0.0
143
0.0394
144
1.0
145
1.0
146
1.0
147
0.625
 71
     0
 72
     0
 73
     0
 74
     1
 75
     0
 76
     0
 77
     1
 78
     8
170
     0
171
     2
172
     1
173
     0
174
     0
175
     0
176
     0
177
     0
178
     1
270
     8
271
     2
272
     1
273
     8
274
     2
340
E
275
     0
280
     0
281
     0
282
     0
283
     1
284
     0
285
     0
286
     0
287
     3
288
     0
  0
DIMSTYLE
105
1BE
102
{ACAD_REACTORS
330
9C3
330
9E9
330
9F6
330
A03
330
A1D
330
A2A
330
A37
330
A44
330
A51
330
A61
330
A6E
330
A93
330
AA0
330
ABA
330
ACF
330
ADE
102
}
100
AcDbSymbolTableRecord
100
AcDbDimStyleTableRecord
  2
MECH1
 70
     0
  3

  4

  5

  6

  7

 40
1.0
 41
2.5
 42
0.625
 43
3.75
 44
1.25
 45
0.0
 46
0.0
 47
0.0
 48
0.0
140
2.5
141
-2.5
142
0.0
143
0.0394
144
1.0
145
1.0
146
1.0
147
0.625
 71
     0
 72
     0
 73
     0
 74
     1
 75
     0
 76
     0
 77
     1
 78
     8
170
     0
171
     2
172
     1
173
     0
174
     0
175
     0
176
     0
177
     0
178
     1
270
     8
271
     2
272
     1
273
     8
274
     2
340
E
275
     0
280
     0
281
     0
282
     0
283
     1
284
     0
285
     0
286
     0
287
     3
288
     0
  0
ENDTAB
  0
TABLE
  2
BLOCK_RECORD
  5
1
100
AcDbSymbolTable
 70
    25
  0
BLOCK_RECORD
  5
2
100
AcDbSymbolTableRecord
100
AcDbBlockTableRecord
  2
*MODEL_SPACE
  0
BLOCK_RECORD
  5
8
100
AcDbSymbolTableRecord
100
AcDbBlockTableRecord
  2
*PAPER_SPACE
  0
BLOCK_RECORD
  5
6C
100
AcDbSymbolTableRecord
100
AcDbBlockTableRecord
  2
DIN_A4
  0
BLOCK_RECORD
  5
70B
100
AcDbSymbolTableRecord
100
AcDbBlockTableRecord
  2
A$C4CF558EC
  0
BLOCK_RECORD
  5
75A
100
AcDbSymbolTableRecord
100
AcDbBlockTableRecord
  2
*D2
  0
BLOCK_RECORD
  5
766
100
AcDbSymbolTableRecord
100
AcDbBlockTableRecord
  2
A$C75B52831
  0
BLOCK_RECORD
  5
9B7
100
AcDbSymbolTableRecord
100
AcDbBlockTableRecord
  2
*D4
  0
BLOCK_RECORD
  5
9DD
100
AcDbSymbolTableRecord
100
AcDbBlockTableRecord
  2
*D7
  0
BLOCK_RECORD
  5
9EA
100
AcDbSymbolTableRecord
100
AcDbBlockTableRecord
  2
*D8
  0
BLOCK_RECORD
  5
9F7
100
AcDbSymbolTableRecord
100
AcDbBlockTableRecord
  2
*D9
  0
BLOCK_RECORD
  5
A04
100
AcDbSymbolTableRecord
100
AcDbBlockTableRecord
  2
*D10
  0
BLOCK_RECORD
  5
A11
100
AcDbSymbolTableRecord
100
AcDbBlockTableRecord
  2
*D11
  0
BLOCK_RECORD
  5
A1E
100
AcDbSymbolTableRecord
100
AcDbBlockTableRecord
  2
*D12
  0
BLOCK_RECORD
  5
A2B
100
AcDbSymbolTableRecord
100
AcDbBlockTableRecord
  2
*D13
  0
BLOCK_RECORD
  5
A38
100
AcDbSymbolTableRecord
100
AcDbBlockTableRecord
  2
*D14
  0
BLOCK_RECORD
  5
A45
100
AcDbSymbolTableRecord
100
AcDbBlockTableRecord
  2
*D15
  0
BLOCK_RECORD
  5
A52
100
AcDbSymbolTableRecord
100
AcDbBlockTableRecord
  2
*D16
  0
BLOCK_RECORD
  5
A62
100
AcDbSymbolTableRecord
100
AcDbBlockTableRecord
  2
*D17
  0
BLOCK_RECORD
  5
A77
100
AcDbSymbolTableRecord
100
AcDbBlockTableRecord
  2
*D18
  0
BLOCK_RECORD
  5
A87
100
AcDbSymbolTableRecord
100
AcDbBlockTableRecord
  2
*D19
  0
BLOCK_RECORD
  5
A94
100
AcDbSymbolTableRecord
100
AcDbBlockTableRecord
  2
*D20
  0
BLOCK_RECORD
  5
AAE
100
AcDbSymbolTableRecord
100
AcDbBlockTableRecord
  2
*D22
  0
BLOCK_RECORD
  5
AC3
100
AcDbSymbolTableRecord
100
AcDbBlockTableRecord
  2
*D23
  0
BLOCK_RECORD
  5
AD0
100
AcDbSymbolTableRecord
100
AcDbBlockTableRecord
  2
*D24
  0
ENDTAB
  0
ENDSEC
  0
SECTION
  2
BLOCKS
  0
BLOCK
  5
3
100
AcDbEntity
  8
RAHMEN035
100
AcDbBlockBegin
  2
*MODEL_SPACE
 70
     0
 10
0.0
 20
0.0
 30
0.0
  3
*MODEL_SPACE
  1

  0
ENDBLK
  5
7
100
AcDbEntity
  8
RAHMEN035
100
AcDbBlockEnd
  0
BLOCK
  5
9
100
AcDbEntity
 67
     1
  8
RAHMEN035
100
AcDbBlockBegin
  2
*PAPER_SPACE
 70
     0
 10
0.0
 20
0.0
 30
0.0
  3
*PAPER_SPACE
  1

  0
ENDBLK
  5
A
100
AcDbEntity
 67
     1
  8
RAHMEN035
100
AcDbBlockEnd
  0
BLOCK
  5
A8
100
AcDbEntity
  8
RAHMEN035
100
AcDbBlockBegin
  2
DIN_A4
 70
     2
 10
0.0
 20
0.0
 30
0.0
  3
DIN_A4
  1

  0
ATTDEF
  5
6D
100
AcDbEntity
  8
RAHMEN025
100
AcDbText
 10
99.718134
 20
31.456033
 30
0.0
 40
2.5
  1
XXX
  7
ISOCP
100
AcDbAttributeDefinition
  3
Geprüft_von
  2
NAME
 70
     0
  0
ATTDEF
  5
6E
100
AcDbEntity
  8
RAHMEN025
100
AcDbText
 10
83.455021
 20
31.456033
 30
0.0
 40
2.5
  1
00.00.00
  7
ISOCP
100
AcDbAttributeDefinition
  3
Geprüft_am
  2
GEPRÜFT
 70
     0
  0
ATTDEF
  5
6F
100
AcDbEntity
  8
RAHMEN025
100
AcDbText
 10
99.718134
 20
35.706033
 30
0.0
 40
2.5
  1
XXX
  7
ISOCP
100
AcDbAttributeDefinition
  3
Gezeichnet_von
  2
NAME
 70
     0
  0
ATTDEF
  5
70
100
AcDbEntity
  8
RAHMEN025
100
AcDbText
 10
83.455021
 20
35.706033
 30
0.0
 40
2.5
  1
00.00.00
  7
ISOCP
100
AcDbAttributeDefinition
  3
Bearbeitet_am
  2
BEARBEIT.
 70
     0
  0
ATTDEF
  5
71
100
AcDbEntity
  8
RAHMEN05
100
AcDbText
 10
123.75357
 20
12.824736
 30
0.0
 40
5.0
  1
XXX
  7
ISOCP
 72
     4
 11
154.25357
 21
15.324736
 31
0.0
100
AcDbAttributeDefinition
  3
Zeichnungsnummer
  2
ZEICHNUNGSNUMMER
 70
     0
  0
ATTDEF
  5
72
100
AcDbEntity
  8
RAHMEN025
100
AcDbText
 10
133.391623
 20
55.8125
 30
0.0
 40
2.5
  1
1:1
  7
ISOCP
100
AcDbAttributeDefinition
  3
Maßstab
  2
MAßSTAB
 70
     0
  0
ATTDEF
  5
73
100
AcDbEntity
  8
RAHMEN05
100
AcDbText
 10
143.091354
 20
29.7145
 30
0.0
 40
5.0
  1
Benennung
  7
ISOCP
 72
     4
 11
160.591354
 21
32.2145
 31
0.0
100
AcDbAttributeDefinition
  3
Benennung
  2
BENENNUNG
 70
     0
  0
LINE
  5
74
100
AcDbEntity
  8
RAHMEN07
100
AcDbLine
 10
17.8
 20
5.0
 30
0.0
 11
205.0
 21
5.0
 31
0.0
  0
LINE
  5
75
100
AcDbEntity
  8
RAHMEN07
100
AcDbLine
 10
17.8
 20
5.0
 30
0.0
 11
17.8
 21
292.0
 31
0.0
  0
LINE
  5
76
100
AcDbEntity
  8
RAHMEN025
100
AcDbLine
 10
168.6
 20
60.25
 30
0.0
 11
168.6
 21
53.875
 31
0.0
  0
TEXT
  5
77
100
AcDbEntity
  8
RAHMEN025
100
AcDbText
 10
169.72626
 20
55.8125
 30
0.0
 40
2.5
  1
(Gewicht)
  7
ISOCP
100
AcDbText
  0
TEXT
  5
78
100
AcDbEntity
  8
RAHMEN025
100
AcDbText
 10
192.908459
 20
18.632194
 30
0.0
 40
2.5
  1
Blatt
  7
ISOCP
100
AcDbText
  0
LINE
  5
79
100
AcDbEntity
  8
RAHMEN025
100
AcDbLine
 10
192.0
 20
22.0
 30
0.0
 11
192.0
 21
9.25
 31
0.0
  0
LINE
  5
7A
100
AcDbEntity
  8
RAHMEN025
100
AcDbLine
 10
160.8
 20
9.25
 30
0.0
 11
160.8
 21
5.0
 31
0.0
  0
TEXT
  5
7B
100
AcDbEntity
  8
RAHMEN025
100
AcDbText
 10
162.4767
 20
5.875
 30
0.0
 40
2.5
  1
Ersatz durch:
  7
ISOCP
100
AcDbText
  0
LINE
  5
7C
100
AcDbEntity
  8
RAHMEN025
100
AcDbLine
 10
192.0
 20
13.5
 30
0.0
 11
205.0
 21
13.5
 31
0.0
  0
TEXT
  5
7D
100
AcDbEntity
  8
RAHMEN025
100
AcDbText
 10
192.912259
 20
10.255791
 30
0.0
 40
2.5
  1
Blätter
  7
ISOCP
100
AcDbText
  0
TEXT
  5
7E
100
AcDbEntity
  8
RAHMEN025
100
AcDbText
 10
117.72626
 20
55.8125
 30
0.0
 40
2.5
  1
Maßstab
  7
ISOCP
100
AcDbText
  0
TEXT
  5
7F
100
AcDbEntity
  8
RAHMEN025
100
AcDbText
 10
117.762048
 20
47.257159
 30
0.0
 40
2.5
  1
(Rohteil-Nr)
  7
ISOCP
100
AcDbText
  0
TEXT
  5
80
100
AcDbEntity
  8
RAHMEN025
100
AcDbText
 10
74.003666
 20
55.8125
 30
0.0
 40
2.5
  1
(Zul. Abw.)
  7
ISOCP
100
AcDbText
  0
TEXT
  5
81
100
AcDbEntity
  8
RAHMEN025
100
AcDbText
 10
72.898934
 20
35.625
 30
0.0
 40
2.5
  1
Bearb.
  7
ISOCP
100
AcDbText
  0
TEXT
  5
82
100
AcDbEntity
  8
RAHMEN025
100
AcDbText
 10
72.898934
 20
31.375
 30
0.0
 40
2.5
  1
Gepr.
  7
ISOCP
100
AcDbText
  0
TEXT
  5
83
100
AcDbEntity
  8
RAHMEN025
100
AcDbText
 10
86.627911
 20
39.875
 30
0.0
 40
2.5
  1
Datum
  7
ISOCP
100
AcDbText
  0
TEXT
  5
84
100
AcDbEntity
  8
RAHMEN025
100
AcDbText
 10
103.173322
 20
39.875
 30
0.0
 40
2.5
  1
Name
  7
ISOCP
100
AcDbText
  0
TEXT
  5
85
100
AcDbEntity
  8
RAHMEN025
100
AcDbText
 10
99.846098
 20
55.8125
 30
0.0
 40
2.5
  1
(Oberfl.)
  7
ISOCP
100
AcDbText
  0
TEXT
  5
86
100
AcDbEntity
  8
RAHMEN025
100
AcDbText
 10
118.2767
 20
5.875
 30
0.0
 40
2.5
  1
Ersatz für:
  7
ISOCP
100
AcDbText
  0
TEXT
  5
87
100
AcDbEntity
  8
RAHMEN025
100
AcDbText
 10
72.898934
 20
27.125
 30
0.0
 40
2.5
  1
Norm
  7
ISOCP
100
AcDbText
  0
TEXT
  5
88
100
AcDbEntity
  8
RAHMEN025
100
AcDbText
 10
73.652313
 20
5.875
 30
0.0
 40
2.5
  1
Ursprung
  7
ISOCP
100
AcDbText
  0
LINE
  5
89
100
AcDbEntity
  8
RAHMEN025
100
AcDbLine
 10
98.4
 20
60.25
 30
0.0
 11
98.4
 21
22.0
 31
0.0
  0
LINE
  5
8A
100
AcDbEntity
  8
RAHMEN025
100
AcDbLine
 10
82.8
 20
43.25
 30
0.0
 11
82.8
 21
22.0
 31
0.0
  0
LINE
  5
8B
100
AcDbEntity
  8
RAHMEN025
100
AcDbLine
 10
72.4
 20
60.25
 30
0.0
 11
72.4
 21
5.0
 31
0.0
  0
LINE
  5
8C
100
AcDbEntity
  8
RAHMEN025
100
AcDbLine
 10
116.6
 20
60.25
 30
0.0
 11
116.6
 21
5.0
 31
0.0
  0
TEXT
  5
8D
100
AcDbEntity
  8
RAHMEN025
100
AcDbText
 10
19.403666
 20
55.8125
 30
0.0
 40
2.5
  1
(Verwendungsbereich)
  7
ISOCP
100
AcDbText
  0
TEXT
  5
8E
100
AcDbEntity
  8
RAHMEN025
100
AcDbText
 10
53.411629
 20
5.875
 30
0.0
 40
2.5
  1
Datum
  7
ISOCP
100
AcDbText
  0
TEXT
  5
8F
100
AcDbEntity
  8
RAHMEN025
100
AcDbText
 10
18.11473
 20
5.875
 30
0.0
 40
2.5
  1
Zust.
  7
ISOCP
100
AcDbText
  0
TEXT
  5
90
100
AcDbEntity
  8
RAHMEN025
100
AcDbText
 10
31.185439
 20
5.875
 30
0.0
 40
2.5
  1
Änderung
  7
ISOCP
100
AcDbText
  0
LINE
  5
91
100
AcDbEntity
  8
RAHMEN025
100
AcDbLine
 10
64.6
 20
43.25
 30
0.0
 11
64.6
 21
5.0
 31
0.0
  0
LINE
  5
92
100
AcDbEntity
  8
RAHMEN025
100
AcDbLine
 10
51.6
 20
43.25
 30
0.0
 11
51.6
 21
5.0
 31
0.0
  0
LINE
  5
93
100
AcDbEntity
  8
RAHMEN025
100
AcDbLine
 10
25.6
 20
43.25
 30
0.0
 11
25.6
 21
5.0
 31
0.0
  0
LINE
  5
94
100
AcDbEntity
  8
RAHMEN025
100
AcDbLine
 10
17.8
 20
26.25
 30
0.0
 11
116.6
 21
26.25
 31
0.0
  0
LINE
  5
95
100
AcDbEntity
  8
RAHMEN025
100
AcDbLine
 10
17.8
 20
30.5
 30
0.0
 11
116.6
 21
30.5
 31
0.0
  0
LINE
  5
96
100
AcDbEntity
  8
RAHMEN025
100
AcDbLine
 10
17.8
 20
34.75
 30
0.0
 11
116.6
 21
34.75
 31
0.0
  0
LINE
  5
97
100
AcDbEntity
  8
RAHMEN025
100
AcDbLine
 10
17.8
 20
39.0
 30
0.0
 11
116.6
 21
39.0
 31
0.0
  0
LINE
  5
98
100
AcDbEntity
  8
RAHMEN025
100
AcDbLine
 10
17.8
 20
17.75
 30
0.0
 11
72.4
 21
17.75
 31
0.0
  0
LINE
  5
99
100
AcDbEntity
  8
RAHMEN025
100
AcDbLine
 10
17.8
 20
13.5
 30
0.0
 11
72.4
 21
13.5
 31
0.0
  0
TEXT
  5
9A
100
AcDbEntity
  8
RAHMEN025
100
AcDbText
 10
64.675032
 20
5.875
 30
0.0
 40
2.5
  1
Name
  7
ISOCP
100
AcDbText
  0
LINE
  5
9B
100
AcDbEntity
  8
RAHMEN07
100
AcDbLine
 10
17.8
 20
43.25
 30
0.0
 11
205.0
 21
43.25
 31
0.0
  0
LINE
  5
9C
100
AcDbEntity
  8
RAHMEN07
100
AcDbLine
 10
17.8
 20
22.0
 30
0.0
 11
205.0
 21
22.0
 31
0.0
  0
LINE
  5
9D
100
AcDbEntity
  8
RAHMEN07
100
AcDbLine
 10
17.8
 20
60.25
 30
0.0
 11
205.0
 21
60.25
 31
0.0
  0
TEXT
  5
9E
100
AcDbEntity
  8
RAHMEN025
100
AcDbText
 10
117.762048
 20
50.34635
 30
0.0
 40
2.5
  1
(Werkstoff, Halbzeug)
  7
ISOCP
100
AcDbText
  0
TEXT
  5
9F
100
AcDbEntity
  8
RAHMEN025
100
AcDbText
 10
117.762048
 20
44.125
 30
0.0
 40
2.5
  1
(Modell- oder Gesenk-Nr)
  7
ISOCP
100
AcDbText
  0
LINE
  5
A0
100
AcDbEntity
  8
RAHMEN025
100
AcDbLine
 10
116.6
 20
53.875
 30
0.0
 11
205.0
 21
53.875
 31
0.0
  0
LINE
  5
A1
100
AcDbEntity
  8
RAHMEN025
100
AcDbLine
 10
17.8
 20
9.25
 30
0.0
 11
205.0
 21
9.25
 31
0.0
  0
LINE
  5
A2
100
AcDbEntity
  8
RAHMEN07
100
AcDbLine
 10
205.0
 20
5.0
 30
0.0
 11
205.0
 21
292.0
 31
0.0
  0
LINE
  5
A3
100
AcDbEntity
  8
RAHMEN07
100
AcDbLine
 10
205.0
 20
292.0
 30
0.0
 11
17.8
 21
292.0
 31
0.0
  0
LINE
  5
A4
100
AcDbEntity
  8
RAHMEN025
100
AcDbLine
 10
0.0
 20
297.0
 30
0.0
 11
0.0
 21
0.0
 31
0.0
  0
LINE
  5
A5
100
AcDbEntity
  8
RAHMEN025
100
AcDbLine
 10
210.0
 20
297.0
 30
0.0
 11
0.0
 21
297.0
 31
0.0
  0
LINE
  5
A6
100
AcDbEntity
  8
RAHMEN025
100
AcDbLine
 10
210.0
 20
0.0
 30
0.0
 11
210.0
 21
297.0
 31
0.0
  0
LINE
  5
A7
100
AcDbEntity
  8
RAHMEN025
100
AcDbLine
 10
0.0
 20
0.0
 30
0.0
 11
210.0
 21
0.0
 31
0.0
  0
ENDBLK
  5
A9
100
AcDbEntity
  8
RAHMEN035
100
AcDbBlockEnd
  0
BLOCK
  5
718
100
AcDbEntity
  8
0
100
AcDbBlockBegin
  2
A$C4CF558EC
 70
     0
 10
0.0
 20
0.0
 30
0.0
  3
A$C4CF558EC
  1

  0
ARC
  5
70C
100
AcDbEntity
  8
KUVA
100
AcDbCircle
 10
1.630123
 20
4.044401
 30
0.0
 40
0.89033
100
AcDbArc
 50
319.82266
 51
40.17734
  0
ARC
  5
70D
100
AcDbEntity
  8
KUVA
100
AcDbCircle
 10
1.630123
 20
0.574401
 30
0.0
 40
0.89033
100
AcDbArc
 50
319.82266
 51
40.17734
  0
ARC
  5
70E
100
AcDbEntity
  8
KUVA
100
AcDbCircle
 10
-0.959774
 20
2.309401
 30
0.0
 40
3.47
100
AcDbArc
 50
340.459898
 51
19.540102
  0
LINE
  5
70F
100
AcDbEntity
  8
KUVA
100
AcDbLine
 10
2.510226
 20
4.178958
 30
0.0
 11
2.510226
 21
0.439844
 31
0.0
  0
ARC
  5
710
100
AcDbEntity
  8
KUVA
100
AcDbCircle
 10
0.890329
 20
4.044401
 30
0.0
 40
0.89033
100
AcDbArc
 50
139.82266
 51
220.17734
  0
ARC
  5
711
100
AcDbEntity
  8
KUVA
100
AcDbCircle
 10
0.890329
 20
0.574401
 30
0.0
 40
0.89033
100
AcDbArc
 50
139.82266
 51
220.17734
  0
ARC
  5
712
100
AcDbEntity
  8
KUVA
100
AcDbCircle
 10
3.480226
 20
2.309401
 30
0.0
 40
3.47
100
AcDbArc
 50
160.459898
 51
199.540102
  0
LINE
  5
713
100
AcDbEntity
  8
KUVA
100
AcDbLine
 10
0.010226
 20
4.178958
 30
0.0
 11
0.010226
 21
0.439844
 31
0.0
  0
LINE
  5
714
100
AcDbEntity
  8
KUVA
100
AcDbLine
 10
0.210072
 20
3.47
 30
0.0
 11
2.310381
 21
3.47
 31
0.0
  0
LINE
  5
715
100
AcDbEntity
  8
KUVA
100
AcDbLine
 10
0.210072
 20
1.148802
 30
0.0
 11
2.310381
 21
1.148802
 31
0.0
  0
LINE
  5
716
100
AcDbEntity
  8
KUVA
100
AcDbLine
 10
0.210072
 20
0.0
 30
0.0
 11
2.310381
 21
0.0
 31
0.0
  0
LINE
  5
717
100
AcDbEntity
  8
KUVA
100
AcDbLine
 10
0.210072
 20
4.618802
 30
0.0
 11
2.310381
 21
4.618802
 31
0.0
  0
ENDBLK
  5
719
100
AcDbEntity
  8
0
100
AcDbBlockEnd
  0
BLOCK
  5
764
100
AcDbEntity
  8
0
100
AcDbBlockBegin
  2
*D2
 70
     1
 10
0.0
 20
0.0
 30
0.0
  3
*D2
  1

  0
LINE
  5
75B
100
AcDbEntity
  8
0
  6
BYBLOCK
 62
     0
100
AcDbLine
 10
54.381973
 20
-81.9682
 30
0.0
 11
54.381973
 21
-79.93282
 31
0.0
  0
LINE
  5
75C
100
AcDbEntity
  8
0
  6
BYBLOCK
 62
     0
100
AcDbLine
 10
36.881973
 20
-83.9682
 30
0.0
 11
36.881973
 21
-79.93282
 31
0.0
  0
LINE
  5
75D
100
AcDbEntity
  8
0
  6
BYBLOCK
 62
     0
100
AcDbLine
 10
51.881973
 20
-81.18282
 30
0.0
 11
39.381973
 21
-81.18282
 31
0.0
  0
SOLID
  5
75E
100
AcDbEntity
  8
0
  6
BYBLOCK
 62
     0
100
AcDbTrace
 10
51.881973
 20
-80.766153
 30
0.0
 11
51.881973
 21
-81.599486
 31
0.0
 12
54.381973
 22
-81.18282
 32
0.0
 13
54.381973
 23
-81.18282
 33
0.0
  0
SOLID
  5
75F
100
AcDbEntity
  8
0
  6
BYBLOCK
 62
     0
100
AcDbTrace
 10
39.381973
 20
-80.766153
 30
0.0
 11
39.381973
 21
-81.599486
 31
0.0
 12
36.881973
 22
-81.18282
 32
0.0
 13
36.881973
 23
-81.18282
 33
0.0
  0
MTEXT
  5
760
100
AcDbEntity
  8
0
  6
BYBLOCK
 62
     1
100
AcDbMText
 10
45.631973
 20
-79.099486
 30
0.0
 40
2.5
 41
0.0
 71
     5
 72
     1
  1
\A1;17,5
  0
POINT
  5
761
100
AcDbEntity
  8
DEFPOINTS
  6
BYBLOCK
 62
     0
100
AcDbPoint
 10
54.381973
 20
-82.5932
 30
0.0
  0
POINT
  5
762
100
AcDbEntity
  8
DEFPOINTS
  6
BYBLOCK
 62
     0
100
AcDbPoint
 10
36.881973
 20
-84.5932
 30
0.0
  0
POINT
  5
763
100
AcDbEntity
  8
DEFPOINTS
  6
BYBLOCK
 62
     0
100
AcDbPoint
 10
36.881973
 20
-81.18282
 30
0.0
  0
ENDBLK
  5
765
100
AcDbEntity
  8
0
100
AcDbBlockEnd
  0
BLOCK
  5
78F
100
AcDbEntity
  8
0
100
AcDbBlockBegin
  2
A$C75B52831
 70
     0
 10
0.0
 20
0.0
 30
0.0
  3
A$C75B52831
  1

  0
LINE
  5
767
100
AcDbEntity
  8
KUVA
100
AcDbLine
 10
16.0
 20
12.5
 30
0.0
 11
43.0
 21
12.5
 31
0.0
  0
LINE
  5
768
100
AcDbEntity
  8
KUVA
100
AcDbLine
 10
16.0
 20
15.5
 30
0.0
 11
43.0
 21
15.5
 31
0.0
  0
LINE
  5
769
100
AcDbEntity
  8
KUVA
100
AcDbLine
 10
32.0
 20
24.0
 30
0.0
 11
29.5
 21
24.0
 31
0.0
  0
LINE
  5
76A
100
AcDbEntity
  8
KUVA
100
AcDbLine
 10
29.5
 20
4.0
 30
0.0
 11
32.0
 21
4.0
 31
0.0
  0
LINE
  5
76B
100
AcDbEntity
  8
KUVA
100
AcDbLine
 10
5.0
 20
9.0
 30
0.0
 11
28.0
 21
9.0
 31
0.0
  0
LINE
  5
76C
100
AcDbEntity
  8
KUVA
100
AcDbLine
 10
5.0
 20
19.0
 30
0.0
 11
28.0
 21
19.0
 31
0.0
  0
ARC
  5
76D
100
AcDbEntity
  8
KUVA
100
AcDbCircle
 10
1.0
 20
27.0
 30
0.0
 40
1.0
100
AcDbArc
 50
0.0
 51
90.0
  0
ARC
  5
76E
100
AcDbEntity
  8
KUVA
100
AcDbCircle
 10
1.0
 20
1.0
 30
0.0
 40
1.0
100
AcDbArc
 50
270.0
 51
0.0
  0
ARC
  5
76F
100
AcDbEntity
  8
KUVA
100
AcDbCircle
 10
5.0
 20
6.0
 30
0.0
 40
3.0
100
AcDbArc
 50
90.0
 51
180.0
  0
ARC
  5
770
100
AcDbEntity
  8
KUVA
100
AcDbCircle
 10
5.0
 20
22.0
 30
0.0
 40
3.0
100
AcDbArc
 50
180.0
 51
270.0
  0
ARC
  5
771
100
AcDbEntity
  8
KUVA
100
AcDbCircle
 10
98.5
 20
14.0
 30
0.0
 40
98.5
100
AcDbArc
 50
171.828766
 51
188.171234
  0
LINE
  5
772
100
AcDbEntity
  8
KUVA
100
AcDbLine
 10
1.0
 20
0.0
 30
0.0
 11
1.0
 21
0.0
 31
0.0
  0
LINE
  5
773
100
AcDbEntity
  8
KUVA
100
AcDbLine
 10
2.0
 20
1.0
 30
0.0
 11
2.0
 21
6.0
 31
0.0
  0
LINE
  5
774
100
AcDbEntity
  8
KUVA
100
AcDbLine
 10
2.0
 20
22.0
 30
0.0
 11
2.0
 21
27.0
 31
0.0
  0
DIMENSION
  5
775
100
AcDbEntity
  8
KUVA
100
AcDbDimension
  2
*D2
 10
12.0
 20
25.41038
 30
0.0
 11
20.75
 21
27.493713
 31
0.0
 12
-24.881973
 22
106.5932
 32
0.0
  3
MECH1
100
AcDbAlignedDimension
 13
29.5
 23
24.0
 33
0.0
 14
12.0
 24
22.0
 34
0.0
100
AcDbRotatedDimension
  0
LINE
  5
776
100
AcDbEntity
  8
KUVA
100
AcDbLine
 10
15.5
 20
7.5
 30
0.0
 11
29.5
 21
7.5
 31
0.0
  0
LINE
  5
777
100
AcDbEntity
  8
KUVA
100
AcDbLine
 10
15.5
 20
20.5
 30
0.0
 11
29.5
 21
20.5
 31
0.0
  0
LINE
  5
778
100
AcDbEntity
  8
KUVA
100
AcDbLine
 10
13.0
 20
6.0
 30
0.0
 11
13.563508
 21
6.0
 31
0.0
  0
LINE
  5
779
100
AcDbEntity
  8
KUVA
100
AcDbLine
 10
13.0
 20
22.0
 30
0.0
 11
13.563508
 21
22.0
 31
0.0
  0
ARC
  5
77A
100
AcDbEntity
  8
KUVA
100
AcDbCircle
 10
13.0
 20
7.0
 30
0.0
 40
1.0
100
AcDbArc
 50
180.0
 51
270.0
  0
ARC
  5
77B
100
AcDbEntity
  8
KUVA
100
AcDbCircle
 10
13.0
 20
21.0
 30
0.0
 40
1.0
100
AcDbArc
 50
90.0
 51
180.0
  0
LINE
  5
77C
100
AcDbEntity
  8
KUVA
100
AcDbLine
 10
12.0
 20
7.0
 30
0.0
 11
12.0
 21
21.0
 31
0.0
  0
LINE
  5
77D
100
AcDbEntity
  8
KUVA
100
AcDbLine
 10
16.0
 20
9.0
 30
0.0
 11
16.0
 21
19.0
 31
0.0
  0
ARC
  5
77E
100
AcDbEntity
  8
KUVA
100
AcDbCircle
 10
13.563508
 20
7.0
 30
0.0
 40
1.0
100
AcDbArc
 50
270.0
 51
345.522488
  0
ARC
  5
77F
100
AcDbEntity
  8
KUVA
100
AcDbCircle
 10
13.563508
 20
21.0
 30
0.0
 40
1.0
100
AcDbArc
 50
14.477512
 51
90.0
  0
ARC
  5
780
100
AcDbEntity
  8
KUVA
100
AcDbCircle
 10
15.5
 20
6.5
 30
0.0
 40
1.0
100
AcDbArc
 50
90.0
 51
165.522488
  0
ARC
  5
781
100
AcDbEntity
  8
KUVA
100
AcDbCircle
 10
15.5
 20
21.5
 30
0.0
 40
1.0
100
AcDbArc
 50
194.477512
 51
270.0
  0
LINE
  5
782
100
AcDbEntity
  8
KUVA
100
AcDbLine
 10
29.5
 20
12.5
 30
0.0
 11
29.5
 21
5.5
 31
0.0
  0
LINE
  5
783
100
AcDbEntity
  8
KUVA
100
AcDbLine
 10
29.5
 20
4.0
 30
0.0
 11
29.5
 21
5.5
 31
0.0
  0
LINE
  5
784
100
AcDbEntity
  8
KUVA
100
AcDbLine
 10
28.0
 20
12.5
 30
0.0
 11
28.0
 21
9.0
 31
0.0
  0
LINE
  5
785
100
AcDbEntity
  8
KUVA
100
AcDbLine
 10
28.0
 20
19.0
 30
0.0
 11
28.0
 21
15.5
 31
0.0
  0
LINE
  5
786
100
AcDbEntity
  8
KUVA
100
AcDbLine
 10
29.5
 20
22.5
 30
0.0
 11
29.5
 21
15.5
 31
0.0
  0
LINE
  5
787
100
AcDbEntity
  8
KUVA
100
AcDbLine
 10
29.5
 20
22.5
 30
0.0
 11
29.5
 21
24.0
 31
0.0
  0
LINE
  5
788
100
AcDbEntity
  8
KUVA
100
AcDbLine
 10
32.0
 20
4.0
 30
0.0
 11
32.0
 21
12.5
 31
0.0
  0
LINE
  5
789
100
AcDbEntity
  8
KUVA
100
AcDbLine
 10
32.0
 20
10.0
 30
0.0
 11
35.0
 21
10.0
 31
0.0
  0
LINE
  5
78A
100
AcDbEntity
  8
KUVA
100
AcDbLine
 10
32.0
 20
18.0
 30
0.0
 11
35.0
 21
18.0
 31
0.0
  0
LINE
  5
78B
100
AcDbEntity
  8
KUVA
100
AcDbLine
 10
32.0
 20
15.5
 30
0.0
 11
32.0
 21
24.0
 31
0.0
  0
LINE
  5
78C
100
AcDbEntity
  8
KUVA
100
AcDbLine
 10
35.0
 20
15.5
 30
0.0
 11
35.0
 21
18.0
 31
0.0
  0
LINE
  5
78D
100
AcDbEntity
  8
KUVA
100
AcDbLine
 10
35.0
 20
10.0
 30
0.0
 11
35.0
 21
12.5
 31
0.0
  0
LINE
  5
78E
100
AcDbEntity
  8
KUVA
100
AcDbLine
 10
43.0
 20
12.5
 30
0.0
 11
43.0
 21
15.5
 31
0.0
  0
ENDBLK
  5
790
100
AcDbEntity
  8
0
100
AcDbBlockEnd
  0
BLOCK
  5
9B8
100
AcDbEntity
  8
0
100
AcDbBlockBegin
  2
*D4
 70
     1
 10
0.0
 20
0.0
 30
0.0
  3
*D4
  1

  0
LINE
  5
9B9
100
AcDbEntity
  8
0
  6
BYBLOCK
 62
     0
100
AcDbLine
 10
-140.656921
 20
-260.817016
 30
0.0
 11
-135.865254
 21
-260.817016
 31
0.0
  0
LINE
  5
9BA
100
AcDbEntity
  8
0
  6
BYBLOCK
 62
     0
100
AcDbLine
 10
-135.865254
 20
-260.817016
 30
0.0
 11
-134.795743
 21
-263.076694
 31
0.0
  0
LINE
  5
9BB
100
AcDbEntity
  8
0
  6
BYBLOCK
 62
     0
100
AcDbLine
 10
-130.945503
 20
-271.211536
 30
0.0
 11
-129.875992
 21
-273.471214
 31
0.0
  0
MTEXT
  5
9BC
100
AcDbEntity
  8
0
  6
BYBLOCK
 62
     1
100
AcDbMText
 10
-138.573588
 20
-258.942016
 30
0.0
 40
2.5
 41
0.0
 71
     5
 72
     1
  1
\A1;\U+22054
  0
LINE
  5
9BD
100
AcDbEntity
  8
0
  6
BYBLOCK
 62
     0
100
AcDbLine
 10
-132.015014
 20
-268.951858
 30
0.0
 11
-133.726232
 21
-265.336373
 31
0.0
  0
SOLID
  5
9BE
100
AcDbEntity
  8
0
  6
BYBLOCK
 62
     0
100
AcDbTrace
 10
-130.56889
 20
-271.033284
 30
0.0
 11
-131.322116
 21
-271.389788
 31
0.0
 12
-132.015014
 22
-268.951858
 32
0.0
 13
-132.015014
 23
-268.951858
 33
0.0
  0
SOLID
  5
9BF
100
AcDbEntity
  8
0
  6
BYBLOCK
 62
     0
100
AcDbTrace
 10
-134.41913
 20
-262.898442
 30
0.0
 11
-135.172356
 21
-263.254946
 31
0.0
 12
-133.726232
 22
-265.336373
 32
0.0
 13
-133.726232
 23
-265.336373
 33
0.0
  0
POINT
  5
9C0
100
AcDbEntity
  8
DEFPOINTS
  6
BYBLOCK
 62
     0
100
AcDbPoint
 10
-133.726232
 20
-265.336373
 30
0.0
  0
POINT
  5
9C1
100
AcDbEntity
  8
DEFPOINTS
  6
BYBLOCK
 62
     0
100
AcDbPoint
 10
-132.015014
 20
-268.951858
 30
0.0
  0
ENDBLK
  5
9C2
100
AcDbEntity
  8
0
100
AcDbBlockEnd
  0
BLOCK
  5
9DE
100
AcDbEntity
  8
0
100
AcDbBlockBegin
  2
*D7
 70
     1
 10
0.0
 20
0.0
 30
0.0
  3
*D7
  1

  0
LINE
  5
9DF
100
AcDbEntity
  8
0
  6
BYBLOCK
 62
     0
100
AcDbLine
 10
-151.798977
 20
-271.534623
 30
0.0
 11
-143.257311
 21
-271.534623
 31
0.0
  0
LINE
  5
9E0
100
AcDbEntity
  8
0
  6
BYBLOCK
 62
     0
100
AcDbLine
 10
-143.257311
 20
-271.534623
 30
0.0
 11
-139.134036
 21
-269.791693
 31
0.0
  0
LINE
  5
9E1
100
AcDbEntity
  8
0
  6
BYBLOCK
 62
     0
100
AcDbLine
 10
-126.607211
 20
-264.496538
 30
0.0
 11
-124.304486
 21
-263.523164
 31
0.0
  0
MTEXT
  5
9E2
100
AcDbEntity
  8
0
  6
BYBLOCK
 62
     1
100
AcDbMText
 10
-147.840644
 20
-269.45129
 30
0.0
 40
2.5
 41
0.0
 71
     5
 72
     1
  1
\A1;\U+22058,6
  0
LINE
  5
9E3
100
AcDbEntity
  8
0
  6
BYBLOCK
 62
     0
100
AcDbLine
 10
-128.909936
 20
-265.469912
 30
0.0
 11
-136.831311
 21
-268.818319
 31
0.0
  0
SOLID
  5
9E4
100
AcDbEntity
  8
0
  6
BYBLOCK
 62
     0
100
AcDbTrace
 10
-126.76944
 20
-264.11275
 30
0.0
 11
-126.444982
 21
-264.880325
 31
0.0
 12
-128.909936
 22
-265.469912
 32
0.0
 13
-128.909936
 23
-265.469912
 33
0.0
  0
SOLID
  5
9E5
100
AcDbEntity
  8
0
  6
BYBLOCK
 62
     0
100
AcDbTrace
 10
-139.296265
 20
-269.407905
 30
0.0
 11
-138.971807
 21
-270.17548
 31
0.0
 12
-136.831311
 22
-268.818319
 32
0.0
 13
-136.831311
 23
-268.818319
 33
0.0
  0
POINT
  5
9E6
100
AcDbEntity
  8
DEFPOINTS
  6
BYBLOCK
 62
     0
100
AcDbPoint
 10
-136.831311
 20
-268.818319
 30
0.0
  0
POINT
  5
9E7
100
AcDbEntity
  8
DEFPOINTS
  6
BYBLOCK
 62
     0
100
AcDbPoint
 10
-128.909936
 20
-265.469912
 30
0.0
  0
ENDBLK
  5
9E8
100
AcDbEntity
  8
0
100
AcDbBlockEnd
  0
BLOCK
  5
9EB
100
AcDbEntity
  8
0
100
AcDbBlockBegin
  2
*D8
 70
     1
 10
0.0
 20
0.0
 30
0.0
  3
*D8
  1

  0
LINE
  5
9EC
100
AcDbEntity
  8
0
  6
BYBLOCK
 62
     0
100
AcDbLine
 10
-181.870623
 20
-235.519115
 30
0.0
 11
-181.870623
 21
-230.135035
 31
0.0
  0
LINE
  5
9ED
100
AcDbEntity
  8
0
  6
BYBLOCK
 62
     0
100
AcDbLine
 10
-123.870623
 20
-235.519115
 30
0.0
 11
-123.870623
 21
-230.135035
 31
0.0
  0
LINE
  5
9EE
100
AcDbEntity
  8
0
  6
BYBLOCK
 62
     0
100
AcDbLine
 10
-179.370623
 20
-231.385035
 30
0.0
 11
-126.370623
 21
-231.385035
 31
0.0
  0
SOLID
  5
9EF
100
AcDbEntity
  8
0
  6
BYBLOCK
 62
     0
100
AcDbTrace
 10
-179.370623
 20
-230.968368
 30
0.0
 11
-179.370623
 21
-231.801702
 31
0.0
 12
-181.870623
 22
-231.385035
 32
0.0
 13
-181.870623
 23
-231.385035
 33
0.0
  0
SOLID
  5
9F0
100
AcDbEntity
  8
0
  6
BYBLOCK
 62
     0
100
AcDbTrace
 10
-126.370623
 20
-230.968368
 30
0.0
 11
-126.370623
 21
-231.801702
 31
0.0
 12
-123.870623
 22
-231.385035
 32
0.0
 13
-123.870623
 23
-231.385035
 33
0.0
  0
MTEXT
  5
9F1
100
AcDbEntity
  8
0
  6
BYBLOCK
 62
     1
100
AcDbMText
 10
-152.870623
 20
-229.510035
 30
0.0
 40
2.5
 41
0.0
 71
     5
 72
     1
  1
\A1;58
  0
POINT
  5
9F2
100
AcDbEntity
  8
DEFPOINTS
  6
BYBLOCK
 62
     0
100
AcDbPoint
 10
-181.870623
 20
-236.144115
 30
0.0
  0
POINT
  5
9F3
100
AcDbEntity
  8
DEFPOINTS
  6
BYBLOCK
 62
     0
100
AcDbPoint
 10
-123.870623
 20
-236.144115
 30
0.0
  0
POINT
  5
9F4
100
AcDbEntity
  8
DEFPOINTS
  6
BYBLOCK
 62
     0
100
AcDbPoint
 10
-123.870623
 20
-231.385035
 30
0.0
  0
ENDBLK
  5
9F5
100
AcDbEntity
  8
0
100
AcDbBlockEnd
  0
BLOCK
  5
9F8
100
AcDbEntity
  8
0
100
AcDbBlockBegin
  2
*D9
 70
     1
 10
0.0
 20
0.0
 30
0.0
  3
*D9
  1

  0
LINE
  5
9F9
100
AcDbEntity
  8
0
  6
BYBLOCK
 62
     0
100
AcDbLine
 10
-93.870623
 20
-235.519115
 30
0.0
 11
-93.870623
 21
-231.413684
 31
0.0
  0
LINE
  5
9FA
100
AcDbEntity
  8
0
  6
BYBLOCK
 62
     0
100
AcDbLine
 10
-68.870623
 20
-235.519115
 30
0.0
 11
-68.870623
 21
-231.413684
 31
0.0
  0
LINE
  5
9FB
100
AcDbEntity
  8
0
  6
BYBLOCK
 62
     0
100
AcDbLine
 10
-91.370623
 20
-232.663684
 30
0.0
 11
-71.370623
 21
-232.663684
 31
0.0
  0
SOLID
  5
9FC
100
AcDbEntity
  8
0
  6
BYBLOCK
 62
     0
100
AcDbTrace
 10
-91.370623
 20
-232.247018
 30
0.0
 11
-91.370623
 21
-233.080351
 31
0.0
 12
-93.870623
 22
-232.663684
 32
0.0
 13
-93.870623
 23
-232.663684
 33
0.0
  0
SOLID
  5
9FD
100
AcDbEntity
  8
0
  6
BYBLOCK
 62
     0
100
AcDbTrace
 10
-71.370623
 20
-232.247018
 30
0.0
 11
-71.370623
 21
-233.080351
 31
0.0
 12
-68.870623
 22
-232.663684
 32
0.0
 13
-68.870623
 23
-232.663684
 33
0.0
  0
MTEXT
  5
9FE
100
AcDbEntity
  8
0
  6
BYBLOCK
 62
     1
100
AcDbMText
 10
-81.370623
 20
-230.788684
 30
0.0
 40
2.5
 41
0.0
 71
     5
 72
     1
  1
\A1;25
  0
POINT
  5
9FF
100
AcDbEntity
  8
DEFPOINTS
  6
BYBLOCK
 62
     0
100
AcDbPoint
 10
-93.870623
 20
-236.144115
 30
0.0
  0
POINT
  5
A00
100
AcDbEntity
  8
DEFPOINTS
  6
BYBLOCK
 62
     0
100
AcDbPoint
 10
-68.870623
 20
-236.144115
 30
0.0
  0
POINT
  5
A01
100
AcDbEntity
  8
DEFPOINTS
  6
BYBLOCK
 62
     0
100
AcDbPoint
 10
-68.870623
 20
-232.663684
 30
0.0
  0
ENDBLK
  5
A02
100
AcDbEntity
  8
0
100
AcDbBlockEnd
  0
BLOCK
  5
A05
100
AcDbEntity
  8
0
100
AcDbBlockBegin
  2
*D10
 70
     1
 10
0.0
 20
0.0
 30
0.0
  3
*D10
  1

  0
LINE
  5
A06
100
AcDbEntity
  8
0
  6
BYBLOCK
 62
     0
100
AcDbLine
 10
-68.245623
 20
-276.144115
 30
0.0
 11
-62.459523
 21
-276.144115
 31
0.0
  0
LINE
  5
A07
100
AcDbEntity
  8
0
  6
BYBLOCK
 62
     0
100
AcDbLine
 10
-68.245623
 20
-236.144115
 30
0.0
 11
-62.459523
 21
-236.144115
 31
0.0
  0
LINE
  5
A08
100
AcDbEntity
  8
0
  6
BYBLOCK
 62
     0
100
AcDbLine
 10
-63.709523
 20
-273.644115
 30
0.0
 11
-63.709523
 21
-238.644115
 31
0.0
  0
SOLID
  5
A09
100
AcDbEntity
  8
0
  6
BYBLOCK
 62
     0
100
AcDbTrace
 10
-64.12619
 20
-273.644115
 30
0.0
 11
-63.292857
 21
-273.644115
 31
0.0
 12
-63.709523
 22
-276.144115
 32
0.0
 13
-63.709523
 23
-276.144115
 33
0.0
  0
SOLID
  5
A0A
100
AcDbEntity
  8
0
  6
BYBLOCK
 62
     0
100
AcDbTrace
 10
-64.12619
 20
-238.644115
 30
0.0
 11
-63.292857
 21
-238.644115
 31
0.0
 12
-63.709523
 22
-236.144115
 32
0.0
 13
-63.709523
 23
-236.144115
 33
0.0
  0
MTEXT
  5
A0B
100
AcDbEntity
  8
0
  6
BYBLOCK
 62
     1
100
AcDbMText
 10
-65.584523
 20
-256.144115
 30
0.0
 40
2.5
 41
0.0
 71
     5
 72
     1
  1
\A1;40
 11
0.0
 21
1.0
 31
0.0
  0
POINT
  5
A0C
100
AcDbEntity
  8
DEFPOINTS
  6
BYBLOCK
 62
     0
100
AcDbPoint
 10
-68.870623
 20
-276.144115
 30
0.0
  0
POINT
  5
A0D
100
AcDbEntity
  8
DEFPOINTS
  6
BYBLOCK
 62
     0
100
AcDbPoint
 10
-68.870623
 20
-236.144115
 30
0.0
  0
POINT
  5
A0E
100
AcDbEntity
  8
DEFPOINTS
  6
BYBLOCK
 62
     0
100
AcDbPoint
 10
-63.709523
 20
-236.144115
 30
0.0
  0
ENDBLK
  5
A0F
100
AcDbEntity
  8
0
100
AcDbBlockEnd
  0
BLOCK
  5
A12
100
AcDbEntity
  8
0
100
AcDbBlockBegin
  2
*D11
 70
     1
 10
0.0
 20
0.0
 30
0.0
  3
*D11
  1

  0
LINE
  5
A13
100
AcDbEntity
  8
0
  6
BYBLOCK
 62
     0
100
AcDbLine
 10
-123.245623
 20
-276.144115
 30
0.0
 11
-114.382998
 21
-276.144115
 31
0.0
  0
LINE
  5
A14
100
AcDbEntity
  8
0
  6
BYBLOCK
 62
     0
100
AcDbLine
 10
-123.245623
 20
-236.144115
 30
0.0
 11
-114.382998
 21
-236.144115
 31
0.0
  0
LINE
  5
A15
100
AcDbEntity
  8
0
  6
BYBLOCK
 62
     0
100
AcDbLine
 10
-115.632998
 20
-273.644115
 30
0.0
 11
-115.632998
 21
-238.644115
 31
0.0
  0
SOLID
  5
A16
100
AcDbEntity
  8
0
  6
BYBLOCK
 62
     0
100
AcDbTrace
 10
-116.049665
 20
-273.644115
 30
0.0
 11
-115.216332
 21
-273.644115
 31
0.0
 12
-115.632998
 22
-276.144115
 32
0.0
 13
-115.632998
 23
-276.144115
 33
0.0
  0
SOLID
  5
A17
100
AcDbEntity
  8
0
  6
BYBLOCK
 62
     0
100
AcDbTrace
 10
-116.049665
 20
-238.644115
 30
0.0
 11
-115.216332
 21
-238.644115
 31
0.0
 12
-115.632998
 22
-236.144115
 32
0.0
 13
-115.632998
 23
-236.144115
 33
0.0
  0
MTEXT
  5
A18
100
AcDbEntity
  8
0
  6
BYBLOCK
 62
     1
100
AcDbMText
 10
-117.507998
 20
-256.144115
 30
0.0
 40
2.5
 41
0.0
 71
     5
 72
     1
  1
\A1;40
 11
0.0
 21
1.0
 31
0.0
  0
POINT
  5
A19
100
AcDbEntity
  8
DEFPOINTS
  6
BYBLOCK
 62
     0
100
AcDbPoint
 10
-123.870623
 20
-276.144115
 30
0.0
  0
POINT
  5
A1A
100
AcDbEntity
  8
DEFPOINTS
  6
BYBLOCK
 62
     0
100
AcDbPoint
 10
-123.870623
 20
-236.144115
 30
0.0
  0
POINT
  5
A1B
100
AcDbEntity
  8
DEFPOINTS
  6
BYBLOCK
 62
     0
100
AcDbPoint
 10
-115.632998
 20
-236.144115
 30
0.0
  0
ENDBLK
  5
A1C
100
AcDbEntity
  8
0
100
AcDbBlockEnd
  0
BLOCK
  5
A1F
100
AcDbEntity
  8
0
100
AcDbBlockBegin
  2
*D12
 70
     1
 10
0.0
 20
0.0
 30
0.0
  3
*D12
  1

  0
LINE
  5
A20
100
AcDbEntity
  8
0
  6
BYBLOCK
 62
     0
100
AcDbLine
 10
-181.870623
 20
-309.769115
 30
0.0
 11
-181.870623
 21
-314.724321
 31
0.0
  0
LINE
  5
A21
100
AcDbEntity
  8
0
  6
BYBLOCK
 62
     0
100
AcDbLine
 10
-173.870623
 20
-309.769115
 30
0.0
 11
-173.870623
 21
-314.724321
 31
0.0
  0
LINE
  5
A22
100
AcDbEntity
  8
0
  6
BYBLOCK
 62
     0
100
AcDbLine
 10
-179.370623
 20
-313.474321
 30
0.0
 11
-176.370623
 21
-313.474321
 31
0.0
  0
SOLID
  5
A23
100
AcDbEntity
  8
0
  6
BYBLOCK
 62
     0
100
AcDbTrace
 10
-179.370623
 20
-313.057655
 30
0.0
 11
-179.370623
 21
-313.890988
 31
0.0
 12
-181.870623
 22
-313.474321
 32
0.0
 13
-181.870623
 23
-313.474321
 33
0.0
  0
SOLID
  5
A24
100
AcDbEntity
  8
0
  6
BYBLOCK
 62
     0
100
AcDbTrace
 10
-176.370623
 20
-313.057655
 30
0.0
 11
-176.370623
 21
-313.890988
 31
0.0
 12
-173.870623
 22
-313.474321
 32
0.0
 13
-173.870623
 23
-313.474321
 33
0.0
  0
MTEXT
  5
A25
100
AcDbEntity
  8
0
  6
BYBLOCK
 62
     1
100
AcDbMText
 10
-177.870623
 20
-311.599321
 30
0.0
 40
2.5
 41
0.0
 71
     5
 72
     1
  1
\A1;8
  0
POINT
  5
A26
100
AcDbEntity
  8
DEFPOINTS
  6
BYBLOCK
 62
     0
100
AcDbPoint
 10
-181.870623
 20
-309.144115
 30
0.0
  0
POINT
  5
A27
100
AcDbEntity
  8
DEFPOINTS
  6
BYBLOCK
 62
     0
100
AcDbPoint
 10
-173.870623
 20
-309.144115
 30
0.0
  0
POINT
  5
A28
100
AcDbEntity
  8
DEFPOINTS
  6
BYBLOCK
 62
     0
100
AcDbPoint
 10
-173.870623
 20
-313.474321
 30
0.0
  0
ENDBLK
  5
A29
100
AcDbEntity
  8
0
100
AcDbBlockEnd
  0
BLOCK
  5
A2C
100
AcDbEntity
  8
0
100
AcDbBlockBegin
  2
*D13
 70
     1
 10
0.0
 20
0.0
 30
0.0
  3
*D13
  1

  0
LINE
  5
A2D
100
AcDbEntity
  8
0
  6
BYBLOCK
 62
     0
100
AcDbLine
 10
-123.870623
 20
-309.769115
 30
0.0
 11
-123.870623
 21
-314.724321
 31
0.0
  0
LINE
  5
A2E
100
AcDbEntity
  8
0
  6
BYBLOCK
 62
     0
100
AcDbLine
 10
-131.870623
 20
-309.769115
 30
0.0
 11
-131.870623
 21
-314.724321
 31
0.0
  0
LINE
  5
A2F
100
AcDbEntity
  8
0
  6
BYBLOCK
 62
     0
100
AcDbLine
 10
-126.370623
 20
-313.474321
 30
0.0
 11
-129.370623
 21
-313.474321
 31
0.0
  0
SOLID
  5
A30
100
AcDbEntity
  8
0
  6
BYBLOCK
 62
     0
100
AcDbTrace
 10
-126.370623
 20
-313.057655
 30
0.0
 11
-126.370623
 21
-313.890988
 31
0.0
 12
-123.870623
 22
-313.474321
 32
0.0
 13
-123.870623
 23
-313.474321
 33
0.0
  0
SOLID
  5
A31
100
AcDbEntity
  8
0
  6
BYBLOCK
 62
     0
100
AcDbTrace
 10
-129.370623
 20
-313.057655
 30
0.0
 11
-129.370623
 21
-313.890988
 31
0.0
 12
-131.870623
 22
-313.474321
 32
0.0
 13
-131.870623
 23
-313.474321
 33
0.0
  0
MTEXT
  5
A32
100
AcDbEntity
  8
0
  6
BYBLOCK
 62
     1
100
AcDbMText
 10
-127.870623
 20
-311.599321
 30
0.0
 40
2.5
 41
0.0
 71
     5
 72
     1
  1
\A1;8
  0
POINT
  5
A33
100
AcDbEntity
  8
DEFPOINTS
  6
BYBLOCK
 62
     0
100
AcDbPoint
 10
-123.870623
 20
-309.144115
 30
0.0
  0
POINT
  5
A34
100
AcDbEntity
  8
DEFPOINTS
  6
BYBLOCK
 62
     0
100
AcDbPoint
 10
-131.870623
 20
-309.144115
 30
0.0
  0
POINT
  5
A35
100
AcDbEntity
  8
DEFPOINTS
  6
BYBLOCK
 62
     0
100
AcDbPoint
 10
-131.870623
 20
-313.474321
 30
0.0
  0
ENDBLK
  5
A36
100
AcDbEntity
  8
0
100
AcDbBlockEnd
  0
BLOCK
  5
A39
100
AcDbEntity
  8
0
100
AcDbBlockBegin
  2
*D14
 70
     1
 10
0.0
 20
0.0
 30
0.0
  3
*D14
  1

  0
LINE
  5
A3A
100
AcDbEntity
  8
0
  6
BYBLOCK
 62
     0
100
AcDbLine
 10
-177.870623
 20
-296.269115
 30
0.0
 11
-177.870623
 21
-300.147719
 31
0.0
  0
LINE
  5
A3B
100
AcDbEntity
  8
0
  6
BYBLOCK
 62
     0
100
AcDbLine
 10
-127.870623
 20
-296.269115
 30
0.0
 11
-127.870623
 21
-300.147719
 31
0.0
  0
LINE
  5
A3C
100
AcDbEntity
  8
0
  6
BYBLOCK
 62
     0
100
AcDbLine
 10
-175.370623
 20
-298.897719
 30
0.0
 11
-130.370623
 21
-298.897719
 31
0.0
  0
SOLID
  5
A3D
100
AcDbEntity
  8
0
  6
BYBLOCK
 62
     0
100
AcDbTrace
 10
-175.370623
 20
-298.481052
 30
0.0
 11
-175.370623
 21
-299.314386
 31
0.0
 12
-177.870623
 22
-298.897719
 32
0.0
 13
-177.870623
 23
-298.897719
 33
0.0
  0
SOLID
  5
A3E
100
AcDbEntity
  8
0
  6
BYBLOCK
 62
     0
100
AcDbTrace
 10
-130.370623
 20
-298.481052
 30
0.0
 11
-130.370623
 21
-299.314386
 31
0.0
 12
-127.870623
 22
-298.897719
 32
0.0
 13
-127.870623
 23
-298.897719
 33
0.0
  0
MTEXT
  5
A3F
100
AcDbEntity
  8
0
  6
BYBLOCK
 62
     1
100
AcDbMText
 10
-152.870623
 20
-297.022719
 30
0.0
 40
2.5
 41
0.0
 71
     5
 72
     1
  1
\A1;50
  0
POINT
  5
A40
100
AcDbEntity
  8
DEFPOINTS
  6
BYBLOCK
 62
     0
100
AcDbPoint
 10
-177.870623
 20
-295.644115
 30
0.0
  0
POINT
  5
A41
100
AcDbEntity
  8
DEFPOINTS
  6
BYBLOCK
 62
     0
100
AcDbPoint
 10
-127.870623
 20
-295.644115
 30
0.0
  0
POINT
  5
A42
100
AcDbEntity
  8
DEFPOINTS
  6
BYBLOCK
 62
     0
100
AcDbPoint
 10
-127.870623
 20
-298.897719
 30
0.0
  0
ENDBLK
  5
A43
100
AcDbEntity
  8
0
100
AcDbBlockEnd
  0
BLOCK
  5
A46
100
AcDbEntity
  8
0
100
AcDbBlockBegin
  2
*D15
 70
     1
 10
0.0
 20
0.0
 30
0.0
  3
*D15
  1

  0
LINE
  5
A47
100
AcDbEntity
  8
0
  6
BYBLOCK
 62
     0
100
AcDbLine
 10
-127.245623
 20
-295.644115
 30
0.0
 11
-117.452367
 21
-295.644115
 31
0.0
  0
LINE
  5
A48
100
AcDbEntity
  8
0
  6
BYBLOCK
 62
     0
100
AcDbLine
 10
-127.245623
 20
-305.644115
 30
0.0
 11
-117.452367
 21
-305.644115
 31
0.0
  0
LINE
  5
A49
100
AcDbEntity
  8
0
  6
BYBLOCK
 62
     0
100
AcDbLine
 10
-118.702367
 20
-298.144115
 30
0.0
 11
-118.702367
 21
-303.144115
 31
0.0
  0
SOLID
  5
A4A
100
AcDbEntity
  8
0
  6
BYBLOCK
 62
     0
100
AcDbTrace
 10
-119.119034
 20
-298.144115
 30
0.0
 11
-118.285701
 21
-298.144115
 31
0.0
 12
-118.702367
 22
-295.644115
 32
0.0
 13
-118.702367
 23
-295.644115
 33
0.0
  0
SOLID
  5
A4B
100
AcDbEntity
  8
0
  6
BYBLOCK
 62
     0
100
AcDbTrace
 10
-119.119034
 20
-303.144115
 30
0.0
 11
-118.285701
 21
-303.144115
 31
0.0
 12
-118.702367
 22
-305.644115
 32
0.0
 13
-118.702367
 23
-305.644115
 33
0.0
  0
MTEXT
  5
A4C
100
AcDbEntity
  8
0
  6
BYBLOCK
 62
     1
100
AcDbMText
 10
-120.577367
 20
-300.644115
 30
0.0
 40
2.5
 41
0.0
 71
     5
 72
     1
  1
\A1;10
 11
0.0
 21
1.0
 31
0.0
  0
POINT
  5
A4D
100
AcDbEntity
  8
DEFPOINTS
  6
BYBLOCK
 62
     0
100
AcDbPoint
 10
-127.870623
 20
-295.644115
 30
0.0
  0
POINT
  5
A4E
100
AcDbEntity
  8
DEFPOINTS
  6
BYBLOCK
 62
     0
100
AcDbPoint
 10
-127.870623
 20
-305.644115
 30
0.0
  0
POINT
  5
A4F
100
AcDbEntity
  8
DEFPOINTS
  6
BYBLOCK
 62
     0
100
AcDbPoint
 10
-118.702367
 20
-305.644115
 30
0.0
  0
ENDBLK
  5
A50
100
AcDbEntity
  8
0
100
AcDbBlockEnd
  0
BLOCK
  5
A53
100
AcDbEntity
  8
0
100
AcDbBlockBegin
  2
*D16
 70
     1
 10
0.0
 20
0.0
 30
0.0
  3
*D16
  1

  0
LINE
  5
A54
100
AcDbEntity
  8
0
  6
BYBLOCK
 62
     0
100
AcDbLine
 10
-123.245623
 20
-309.144115
 30
0.0
 11
-116.202367
 21
-309.144115
 31
0.0
  0
LINE
  5
A55
100
AcDbEntity
  8
0
  6
BYBLOCK
 62
     0
100
AcDbLine
 10
-127.245623
 20
-305.644115
 30
0.0
 11
-116.202367
 21
-305.644115
 31
0.0
  0
LINE
  5
A56
100
AcDbEntity
  8
0
  6
BYBLOCK
 62
     0
100
AcDbLine
 10
-117.452367
 20
-311.644115
 30
0.0
 11
-117.452367
 21
-314.144115
 31
0.0
  0
LINE
  5
A57
100
AcDbEntity
  8
0
  6
BYBLOCK
 62
     0
100
AcDbLine
 10
-117.452367
 20
-303.144115
 30
0.0
 11
-117.452367
 21
-300.644115
 31
0.0
  0
LINE
  5
A58
100
AcDbEntity
  8
0
  6
BYBLOCK
 62
     0
100
AcDbLine
 10
-117.452367
 20
-300.644115
 30
0.0
 11
-111.410701
 21
-300.644115
 31
0.0
  0
LINE
  5
A59
100
AcDbEntity
  8
0
  6
BYBLOCK
 62
     0
100
AcDbLine
 10
-117.452367
 20
-309.144115
 30
0.0
 11
-117.452367
 21
-305.644115
 31
0.0
  0
SOLID
  5
A5A
100
AcDbEntity
  8
0
  6
BYBLOCK
 62
     0
100
AcDbTrace
 10
-117.869034
 20
-311.644115
 30
0.0
 11
-117.035701
 21
-311.644115
 31
0.0
 12
-117.452367
 22
-309.144115
 32
0.0
 13
-117.452367
 23
-309.144115
 33
0.0
  0
SOLID
  5
A5B
100
AcDbEntity
  8
0
  6
BYBLOCK
 62
     0
100
AcDbTrace
 10
-117.869034
 20
-303.144115
 30
0.0
 11
-117.035701
 21
-303.144115
 31
0.0
 12
-117.452367
 22
-305.644115
 32
0.0
 13
-117.452367
 23
-305.644115
 33
0.0
  0
MTEXT
  5
A5C
100
AcDbEntity
  8
0
  6
BYBLOCK
 62
     1
100
AcDbMText
 10
-114.119034
 20
-298.560782
 30
0.0
 40
2.5
 41
0.0
 71
     5
 72
     1
  1
\A1;3,5
  0
POINT
  5
A5D
100
AcDbEntity
  8
DEFPOINTS
  6
BYBLOCK
 62
     0
100
AcDbPoint
 10
-123.870623
 20
-309.144115
 30
0.0
  0
POINT
  5
A5E
100
AcDbEntity
  8
DEFPOINTS
  6
BYBLOCK
 62
     0
100
AcDbPoint
 10
-127.870623
 20
-305.644115
 30
0.0
  0
POINT
  5
A5F
100
AcDbEntity
  8
DEFPOINTS
  6
BYBLOCK
 62
     0
100
AcDbPoint
 10
-117.452367
 20
-305.644115
 30
0.0
  0
ENDBLK
  5
A60
100
AcDbEntity
  8
0
100
AcDbBlockEnd
  0
BLOCK
  5
A63
100
AcDbEntity
  8
0
100
AcDbBlockBegin
  2
*D17
 70
     1
 10
0.0
 20
0.0
 30
0.0
  3
*D17
  1

  0
LINE
  5
A64
100
AcDbEntity
  8
0
  6
BYBLOCK
 62
     0
100
AcDbLine
 10
-194.089498
 20
-293.783121
 30
0.0
 11
-189.297832
 21
-293.783121
 31
0.0
  0
LINE
  5
A65
100
AcDbEntity
  8
0
  6
BYBLOCK
 62
     0
100
AcDbLine
 10
-189.297832
 20
-293.783121
 30
0.0
 11
-181.818611
 21
-295.00116
 31
0.0
  0
LINE
  5
A66
100
AcDbEntity
  8
0
  6
BYBLOCK
 62
     0
100
AcDbLine
 10
-173.922635
 20
-296.28707
 30
0.0
 11
-171.455143
 21
-296.688917
 31
0.0
  0
MTEXT
  5
A67
100
AcDbEntity
  8
0
  6
BYBLOCK
 62
     1
100
AcDbMText
 10
-192.006165
 20
-291.908121
 30
0.0
 40
2.5
 41
0.0
 71
     5
 72
     1
  1
\A1;\U+22053
  0
LINE
  5
A68
100
AcDbEntity
  8
0
  6
BYBLOCK
 62
     0
100
AcDbLine
 10
-176.390128
 20
-295.885223
 30
0.0
 11
-179.351119
 21
-295.403007
 31
0.0
  0
SOLID
  5
A69
100
AcDbEntity
  8
0
  6
BYBLOCK
 62
     0
100
AcDbTrace
 10
-173.855661
 20
-295.875822
 30
0.0
 11
-173.98961
 21
-296.698319
 31
0.0
 12
-176.390128
 22
-295.885223
 32
0.0
 13
-176.390128
 23
-295.885223
 33
0.0
  0
SOLID
  5
A6A
100
AcDbEntity
  8
0
  6
BYBLOCK
 62
     0
100
AcDbTrace
 10
-181.751637
 20
-294.589911
 30
0.0
 11
-181.885586
 21
-295.412409
 31
0.0
 12
-179.351119
 22
-295.403007
 32
0.0
 13
-179.351119
 23
-295.403007
 33
0.0
  0
POINT
  5
A6B
100
AcDbEntity
  8
DEFPOINTS
  6
BYBLOCK
 62
     0
100
AcDbPoint
 10
-179.351119
 20
-295.403007
 30
0.0
  0
POINT
  5
A6C
100
AcDbEntity
  8
DEFPOINTS
  6
BYBLOCK
 62
     0
100
AcDbPoint
 10
-176.390128
 20
-295.885223
 30
0.0
  0
ENDBLK
  5
A6D
100
AcDbEntity
  8
0
100
AcDbBlockEnd
  0
BLOCK
  5
A78
100
AcDbEntity
  8
0
100
AcDbBlockBegin
  2
*D18
 70
     1
 10
0.0
 20
0.0
 30
0.0
  3
*D18
  1

  0
LINE
  5
A79
100
AcDbEntity
  8
0
  6
BYBLOCK
 62
     0
100
AcDbLine
 10
-72.870623
 20
-276.769115
 30
0.0
 11
-72.870623
 21
-285.827703
 31
0.0
  0
LINE
  5
A7A
100
AcDbEntity
  8
0
  6
BYBLOCK
 62
     0
100
AcDbLine
 10
-68.870623
 20
-276.769115
 30
0.0
 11
-68.870623
 21
-285.827703
 31
0.0
  0
LINE
  5
A7B
100
AcDbEntity
  8
0
  6
BYBLOCK
 62
     0
100
AcDbLine
 10
-75.370623
 20
-284.577703
 30
0.0
 11
-77.870623
 21
-284.577703
 31
0.0
  0
LINE
  5
A7C
100
AcDbEntity
  8
0
  6
BYBLOCK
 62
     0
100
AcDbLine
 10
-66.370623
 20
-284.577703
 30
0.0
 11
-63.870623
 21
-284.577703
 31
0.0
  0
LINE
  5
A7D
100
AcDbEntity
  8
0
  6
BYBLOCK
 62
     0
100
AcDbLine
 10
-72.870623
 20
-284.577703
 30
0.0
 11
-68.870623
 21
-284.577703
 31
0.0
  0
SOLID
  5
A7E
100
AcDbEntity
  8
0
  6
BYBLOCK
 62
     0
100
AcDbTrace
 10
-75.370623
 20
-284.161036
 30
0.0
 11
-75.370623
 21
-284.99437
 31
0.0
 12
-72.870623
 22
-284.577703
 32
0.0
 13
-72.870623
 23
-284.577703
 33
0.0
  0
SOLID
  5
A7F
100
AcDbEntity
  8
0
  6
BYBLOCK
 62
     0
100
AcDbTrace
 10
-66.370623
 20
-284.161036
 30
0.0
 11
-66.370623
 21
-284.99437
 31
0.0
 12
-68.870623
 22
-284.577703
 32
0.0
 13
-68.870623
 23
-284.577703
 33
0.0
  0
MTEXT
  5
A80
100
AcDbEntity
  8
0
  6
BYBLOCK
 62
     1
100
AcDbMText
 10
-70.870623
 20
-282.702703
 30
0.0
 40
2.5
 41
0.0
 71
     5
 72
     1
  1
\A1;4
  0
POINT
  5
A81
100
AcDbEntity
  8
DEFPOINTS
  6
BYBLOCK
 62
     0
100
AcDbPoint
 10
-72.870623
 20
-276.144115
 30
0.0
  0
POINT
  5
A82
100
AcDbEntity
  8
DEFPOINTS
  6
BYBLOCK
 62
     0
100
AcDbPoint
 10
-68.870623
 20
-276.144115
 30
0.0
  0
POINT
  5
A83
100
AcDbEntity
  8
DEFPOINTS
  6
BYBLOCK
 62
     0
100
AcDbPoint
 10
-68.870623
 20
-284.577703
 30
0.0
  0
ENDBLK
  5
A84
100
AcDbEntity
  8
0
100
AcDbBlockEnd
  0
BLOCK
  5
A88
100
AcDbEntity
  8
0
100
AcDbBlockBegin
  2
*D19
 70
     1
 10
0.0
 20
0.0
 30
0.0
  3
*D19
  1

  0
LINE
  5
A89
100
AcDbEntity
  8
0
  6
BYBLOCK
 62
     0
100
AcDbLine
 10
-181.870623
 20
-276.769115
 30
0.0
 11
-181.870623
 21
-281.991755
 31
0.0
  0
LINE
  5
A8A
100
AcDbEntity
  8
0
  6
BYBLOCK
 62
     0
100
AcDbLine
 10
-172.870623
 20
-267.769115
 30
0.0
 11
-172.870623
 21
-281.991755
 31
0.0
  0
LINE
  5
A8B
100
AcDbEntity
  8
0
  6
BYBLOCK
 62
     0
100
AcDbLine
 10
-179.370623
 20
-280.741755
 30
0.0
 11
-175.370623
 21
-280.741755
 31
0.0
  0
SOLID
  5
A8C
100
AcDbEntity
  8
0
  6
BYBLOCK
 62
     0
100
AcDbTrace
 10
-179.370623
 20
-280.325088
 30
0.0
 11
-179.370623
 21
-281.158422
 31
0.0
 12
-181.870623
 22
-280.741755
 32
0.0
 13
-181.870623
 23
-280.741755
 33
0.0
  0
SOLID
  5
A8D
100
AcDbEntity
  8
0
  6
BYBLOCK
 62
     0
100
AcDbTrace
 10
-175.370623
 20
-280.325088
 30
0.0
 11
-175.370623
 21
-281.158422
 31
0.0
 12
-172.870623
 22
-280.741755
 32
0.0
 13
-172.870623
 23
-280.741755
 33
0.0
  0
MTEXT
  5
A8E
100
AcDbEntity
  8
0
  6
BYBLOCK
 62
     1
100
AcDbMText
 10
-177.370623
 20
-278.866755
 30
0.0
 40
2.5
 41
0.0
 71
     5
 72
     1
  1
\A1;9
  0
POINT
  5
A8F
100
AcDbEntity
  8
DEFPOINTS
  6
BYBLOCK
 62
     0
100
AcDbPoint
 10
-181.870623
 20
-276.144115
 30
0.0
  0
POINT
  5
A90
100
AcDbEntity
  8
DEFPOINTS
  6
BYBLOCK
 62
     0
100
AcDbPoint
 10
-172.870623
 20
-267.144115
 30
0.0
  0
POINT
  5
A91
100
AcDbEntity
  8
DEFPOINTS
  6
BYBLOCK
 62
     0
100
AcDbPoint
 10
-172.870623
 20
-280.741755
 30
0.0
  0
ENDBLK
  5
A92
100
AcDbEntity
  8
0
100
AcDbBlockEnd
  0
BLOCK
  5
A95
100
AcDbEntity
  8
0
100
AcDbBlockBegin
  2
*D20
 70
     1
 10
0.0
 20
0.0
 30
0.0
  3
*D20
  1

  0
LINE
  5
A96
100
AcDbEntity
  8
0
  6
BYBLOCK
 62
     0
100
AcDbLine
 10
-181.245623
 20
-276.144115
 30
0.0
 11
-163.756156
 21
-276.144115
 31
0.0
  0
LINE
  5
A97
100
AcDbEntity
  8
0
  6
BYBLOCK
 62
     0
100
AcDbLine
 10
-154.627114
 20
-249.144115
 30
0.0
 11
-166.256156
 21
-249.144115
 31
0.0
  0
LINE
  5
A98
100
AcDbEntity
  8
0
  6
BYBLOCK
 62
     0
100
AcDbLine
 10
-165.006156
 20
-273.644115
 30
0.0
 11
-165.006156
 21
-251.644115
 31
0.0
  0
SOLID
  5
A99
100
AcDbEntity
  8
0
  6
BYBLOCK
 62
     0
100
AcDbTrace
 10
-165.422823
 20
-273.644115
 30
0.0
 11
-164.589489
 21
-273.644115
 31
0.0
 12
-165.006156
 22
-276.144115
 32
0.0
 13
-165.006156
 23
-276.144115
 33
0.0
  0
SOLID
  5
A9A
100
AcDbEntity
  8
0
  6
BYBLOCK
 62
     0
100
AcDbTrace
 10
-165.422823
 20
-251.644115
 30
0.0
 11
-164.589489
 21
-251.644115
 31
0.0
 12
-165.006156
 22
-249.144115
 32
0.0
 13
-165.006156
 23
-249.144115
 33
0.0
  0
MTEXT
  5
A9B
100
AcDbEntity
  8
0
  6
BYBLOCK
 62
     1
100
AcDbMText
 10
-166.881156
 20
-262.644115
 30
0.0
 40
2.5
 41
0.0
 71
     5
 72
     1
  1
\A1;27
 11
0.0
 21
1.0
 31
0.0
  0
POINT
  5
A9C
100
AcDbEntity
  8
DEFPOINTS
  6
BYBLOCK
 62
     0
100
AcDbPoint
 10
-181.870623
 20
-276.144115
 30
0.0
  0
POINT
  5
A9D
100
AcDbEntity
  8
DEFPOINTS
  6
BYBLOCK
 62
     0
100
AcDbPoint
 10
-154.002114
 20
-249.144115
 30
0.0
  0
POINT
  5
A9E
100
AcDbEntity
  8
DEFPOINTS
  6
BYBLOCK
 62
     0
100
AcDbPoint
 10
-165.006156
 20
-249.144115
 30
0.0
  0
ENDBLK
  5
A9F
100
AcDbEntity
  8
0
100
AcDbBlockEnd
  0
BLOCK
  5
AAF
100
AcDbEntity
  8
0
100
AcDbBlockBegin
  2
*D22
 70
     1
 10
0.0
 20
0.0
 30
0.0
  3
*D22
  1

  0
LINE
  5
AB0
100
AcDbEntity
  8
0
  6
BYBLOCK
 62
     0
100
AcDbLine
 10
-182.495623
 20
-276.769115
 30
0.0
 11
-187.485952
 21
-276.769115
 31
0.0
  0
LINE
  5
AB1
100
AcDbEntity
  8
0
  6
BYBLOCK
 62
     0
100
AcDbLine
 10
-173.495623
 20
-267.769115
 30
0.0
 11
-187.485952
 21
-267.769115
 31
0.0
  0
LINE
  5
AB2
100
AcDbEntity
  8
0
  6
BYBLOCK
 62
     0
100
AcDbLine
 10
-186.235952
 20
-274.269115
 30
0.0
 11
-186.235952
 21
-270.269115
 31
0.0
  0
SOLID
  5
AB3
100
AcDbEntity
  8
0
  6
BYBLOCK
 62
     0
100
AcDbTrace
 10
-186.652618
 20
-274.269115
 30
0.0
 11
-185.819285
 21
-274.269115
 31
0.0
 12
-186.235952
 22
-276.769115
 32
0.0
 13
-186.235952
 23
-276.769115
 33
0.0
  0
SOLID
  5
AB4
100
AcDbEntity
  8
0
  6
BYBLOCK
 62
     0
100
AcDbTrace
 10
-186.652618
 20
-270.269115
 30
0.0
 11
-185.819285
 21
-270.269115
 31
0.0
 12
-186.235952
 22
-267.769115
 32
0.0
 13
-186.235952
 23
-267.769115
 33
0.0
  0
MTEXT
  5
AB5
100
AcDbEntity
  8
0
  6
BYBLOCK
 62
     1
100
AcDbMText
 10
-188.110952
 20
-272.269115
 30
0.0
 40
2.5
 41
0.0
 71
     5
 72
     1
  1
\A1;9
 11
0.0
 21
1.0
 31
0.0
  0
POINT
  5
AB6
100
AcDbEntity
  8
DEFPOINTS
  6
BYBLOCK
 62
     0
100
AcDbPoint
 10
-181.870623
 20
-276.769115
 30
0.0
  0
POINT
  5
AB7
100
AcDbEntity
  8
DEFPOINTS
  6
BYBLOCK
 62
     0
100
AcDbPoint
 10
-172.870623
 20
-267.769115
 30
0.0
  0
POINT
  5
AB8
100
AcDbEntity
  8
DEFPOINTS
  6
BYBLOCK
 62
     0
100
AcDbPoint
 10
-186.235952
 20
-267.769115
 30
0.0
  0
ENDBLK
  5
AB9
100
AcDbEntity
  8
0
100
AcDbBlockEnd
  0
BLOCK
  5
AC4
100
AcDbEntity
  8
0
100
AcDbBlockBegin
  2
*D23
 70
     1
 10
0.0
 20
0.0
 30
0.0
  3
*D23
  1

  0
LINE
  5
AC5
100
AcDbEntity
  8
0
  6
BYBLOCK
 62
     0
100
AcDbLine
 10
-94.495623
 20
-236.144115
 30
0.0
 11
-100.776306
 21
-236.144115
 31
0.0
  0
LINE
  5
AC6
100
AcDbEntity
  8
0
  6
BYBLOCK
 62
     0
100
AcDbLine
 10
-94.495623
 20
-276.144115
 30
0.0
 11
-100.776306
 21
-276.144115
 31
0.0
  0
LINE
  5
AC7
100
AcDbEntity
  8
0
  6
BYBLOCK
 62
     0
100
AcDbLine
 10
-99.526306
 20
-238.644115
 30
0.0
 11
-99.526306
 21
-273.644115
 31
0.0
  0
SOLID
  5
AC8
100
AcDbEntity
  8
0
  6
BYBLOCK
 62
     0
100
AcDbTrace
 10
-99.942973
 20
-238.644115
 30
0.0
 11
-99.109639
 21
-238.644115
 31
0.0
 12
-99.526306
 22
-236.144115
 32
0.0
 13
-99.526306
 23
-236.144115
 33
0.0
  0
SOLID
  5
AC9
100
AcDbEntity
  8
0
  6
BYBLOCK
 62
     0
100
AcDbTrace
 10
-99.942973
 20
-273.644115
 30
0.0
 11
-99.109639
 21
-273.644115
 31
0.0
 12
-99.526306
 22
-276.144115
 32
0.0
 13
-99.526306
 23
-276.144115
 33
0.0
  0
MTEXT
  5
ACA
100
AcDbEntity
  8
0
  6
BYBLOCK
 62
     1
100
AcDbMText
 10
-101.401306
 20
-256.144115
 30
0.0
 40
2.5
 41
0.0
 71
     5
 72
     1
  1
\A1;40
 11
0.0
 21
1.0
 31
0.0
  0
POINT
  5
ACB
100
AcDbEntity
  8
DEFPOINTS
  6
BYBLOCK
 62
     0
100
AcDbPoint
 10
-93.870623
 20
-236.144115
 30
0.0
  0
POINT
  5
ACC
100
AcDbEntity
  8
DEFPOINTS
  6
BYBLOCK
 62
     0
100
AcDbPoint
 10
-93.870623
 20
-276.144115
 30
0.0
  0
POINT
  5
ACD
100
AcDbEntity
  8
DEFPOINTS
  6
BYBLOCK
 62
     0
100
AcDbPoint
 10
-99.526306
 20
-276.144115
 30
0.0
  0
ENDBLK
  5
ACE
100
AcDbEntity
  8
0
100
AcDbBlockEnd
  0
BLOCK
  5
AD1
100
AcDbEntity
  8
0
100
AcDbBlockBegin
  2
*D24
 70
     1
 10
0.0
 20
0.0
 30
0.0
  3
*D24
  1

  0
LINE
  5
AD2
100
AcDbEntity
  8
0
  6
BYBLOCK
 62
     0
100
AcDbLine
 10
-68.245623
 20
-240.144115
 30
0.0
 11
-59.397644
 21
-240.144115
 31
0.0
  0
LINE
  5
AD3
100
AcDbEntity
  8
0
  6
BYBLOCK
 62
     0
100
AcDbLine
 10
-68.245623
 20
-236.144115
 30
0.0
 11
-59.397644
 21
-236.144115
 31
0.0
  0
LINE
  5
AD4
100
AcDbEntity
  8
0
  6
BYBLOCK
 62
     0
100
AcDbLine
 10
-60.647644
 20
-242.644115
 30
0.0
 11
-60.647644
 21
-245.144115
 31
0.0
  0
LINE
  5
AD5
100
AcDbEntity
  8
0
  6
BYBLOCK
 62
     0
100
AcDbLine
 10
-60.647644
 20
-233.644115
 30
0.0
 11
-60.647644
 21
-231.144115
 31
0.0
  0
LINE
  5
AD6
100
AcDbEntity
  8
0
  6
BYBLOCK
 62
     0
100
AcDbLine
 10
-60.647644
 20
-240.144115
 30
0.0
 11
-60.647644
 21
-236.144115
 31
0.0
  0
SOLID
  5
AD7
100
AcDbEntity
  8
0
  6
BYBLOCK
 62
     0
100
AcDbTrace
 10
-61.064311
 20
-242.644115
 30
0.0
 11
-60.230978
 21
-242.644115
 31
0.0
 12
-60.647644
 22
-240.144115
 32
0.0
 13
-60.647644
 23
-240.144115
 33
0.0
  0
SOLID
  5
AD8
100
AcDbEntity
  8
0
  6
BYBLOCK
 62
     0
100
AcDbTrace
 10
-61.064311
 20
-233.644115
 30
0.0
 11
-60.230978
 21
-233.644115
 31
0.0
 12
-60.647644
 22
-236.144115
 32
0.0
 13
-60.647644
 23
-236.144115
 33
0.0
  0
MTEXT
  5
AD9
100
AcDbEntity
  8
0
  6
BYBLOCK
 62
     1
100
AcDbMText
 10
-62.522644
 20
-238.144115
 30
0.0
 40
2.5
 41
0.0
 71
     5
 72
     1
  1
\A1;4
 11
0.0
 21
1.0
 31
0.0
  0
POINT
  5
ADA
100
AcDbEntity
  8
DEFPOINTS
  6
BYBLOCK
 62
     0
100
AcDbPoint
 10
-68.870623
 20
-240.144115
 30
0.0
  0
POINT
  5
ADB
100
AcDbEntity
  8
DEFPOINTS
  6
BYBLOCK
 62
     0
100
AcDbPoint
 10
-68.870623
 20
-236.144115
 30
0.0
  0
POINT
  5
ADC
100
AcDbEntity
  8
DEFPOINTS
  6
BYBLOCK
 62
     0
100
AcDbPoint
 10
-60.647644
 20
-236.144115
 30
0.0
  0
ENDBLK
  5
ADD
100
AcDbEntity
  8
0
100
AcDbBlockEnd
  0
ENDSEC
  0
SECTION
  2
ENTITIES
  0
LINE
  5
985
100
AcDbEntity
  8
KUVA
100
AcDbLine
 10
-181.870623
 20
-276.144115
 30
0.0
 11
-123.870623
 21
-276.144115
 31
0.0
  0
LINE
  5
986
100
AcDbEntity
  8
KUVA
100
AcDbLine
 10
-123.870623
 20
-276.144115
 30
0.0
 11
-123.870623
 21
-236.144115
 31
0.0
  0
LINE
  5
987
100
AcDbEntity
  8
KUVA
100
AcDbLine
 10
-123.870623
 20
-236.144115
 30
0.0
 11
-181.870623
 21
-236.144115
 31
0.0
  0
LINE
  5
988
100
AcDbEntity
  8
KUVA
100
AcDbLine
 10
-181.870623
 20
-236.144115
 30
0.0
 11
-181.870623
 21
-276.144115
 31
0.0
  0
LINE
  5
989
100
AcDbEntity
  8
KUVA
100
AcDbLine
 10
-123.870623
 20
-240.144115
 30
0.0
 11
-181.870623
 21
-240.144115
 31
0.0
  0
CIRCLE
  5
98F
100
AcDbEntity
  8
KUVA
100
AcDbCircle
 10
-154.002114
 20
-249.144115
 30
0.0
 40
2.0
  0
CIRCLE
  5
990
100
AcDbEntity
  8
KUVA
100
AcDbCircle
 10
-172.870623
 20
-267.144115
 30
0.0
 40
2.0
  0
CIRCLE
  5
991
100
AcDbEntity
  8
KUVA
100
AcDbCircle
 10
-132.870623
 20
-267.144115
 30
0.0
 40
2.0
  0
LINE
  5
993
100
AcDbEntity
  8
KUVA
100
AcDbLine
 10
-131.870623
 20
-240.144115
 30
0.0
 11
-131.870623
 21
-236.144115
 31
0.0
  0
LINE
  5
994
100
AcDbEntity
  8
KUVA
100
AcDbLine
 10
-173.870623
 20
-236.144115
 30
0.0
 11
-173.870623
 21
-240.144115
 31
0.0
  0
CIRCLE
  5
995
100
AcDbEntity
  8
KUVA
100
AcDbCircle
 10
-172.870623
 20
-267.144115
 30
0.0
 40
2.0
  0
LINE
  5
999
100
AcDbEntity
  8
KUVA
100
AcDbLine
 10
-181.870623
 20
-284.144115
 30
0.0
 11
-123.870623
 21
-284.144115
 31
0.0
  0
LINE
  5
99A
100
AcDbEntity
  8
KUVA
100
AcDbLine
 10
-93.870623
 20
-276.144115
 30
0.0
 11
-93.870623
 21
-236.144115
 31
0.0
  0
LINE
  5
99B
100
AcDbEntity
  8
KUVA
100
AcDbLine
 10
-68.870623
 20
-240.144115
 30
0.0
 11
-68.870623
 21
-236.144115
 31
0.0
  0
LINE
  5
99C
100
AcDbEntity
  8
KUVA
100
AcDbLine
 10
-93.870623
 20
-236.144115
 30
0.0
 11
-68.870623
 21
-236.144115
 31
0.0
  0
LINE
  5
99E
100
AcDbEntity
  8
KUVA
100
AcDbLine
 10
-89.870623
 20
-240.144115
 30
0.0
 11
-68.870623
 21
-240.144115
 31
0.0
  0
LINE
  5
9A0
100
AcDbEntity
  8
KUVA
100
AcDbLine
 10
-93.870623
 20
-276.144115
 30
0.0
 11
-89.870623
 21
-276.144115
 31
0.0
  0
LINE
  5
9A1
100
AcDbEntity
  8
KUVA
100
AcDbLine
 10
-181.870623
 20
-309.144115
 30
0.0
 11
-173.870623
 21
-309.144115
 31
0.0
  0
LINE
  5
9A2
100
AcDbEntity
  8
KUVA
100
AcDbLine
 10
-181.870623
 20
-309.144115
 30
0.0
 11
-181.870623
 21
-284.144115
 31
0.0
  0
LINE
  5
9A3
100
AcDbEntity
  8
KUVA
100
AcDbLine
 10
-123.870623
 20
-309.144115
 30
0.0
 11
-123.870623
 21
-284.144115
 31
0.0
  0
LINE
  5
9A4
100
AcDbEntity
  8
KUVA
100
AcDbLine
 10
-173.870623
 20
-290.144115
 30
0.0
 11
-173.870623
 21
-309.144115
 31
0.0
  0
LINE
  5
9A5
100
AcDbEntity
  8
KUVA
100
AcDbLine
 10
-131.870623
 20
-290.144115
 30
0.0
 11
-131.870623
 21
-309.144115
 31
0.0
  0
LINE
  5
9AC
100
AcDbEntity
  8
KUVA
100
AcDbLine
 10
-171.870623
 20
-288.144115
 30
0.0
 11
-133.870623
 21
-288.144115
 31
0.0
  0
ARC
  5
9AD
100
AcDbEntity
  8
KUVA
100
AcDbCircle
 10
-171.870623
 20
-290.144115
 30
0.0
 40
2.0
100
AcDbArc
 50
90.0
 51
180.0
  0
ARC
  5
9AE
100
AcDbEntity
  8
KUVA
100
AcDbCircle
 10
-133.870623
 20
-290.144115
 30
0.0
 40
2.0
100
AcDbArc
 50
360.0
 51
90.0
  0
CIRCLE
  5
9B2
100
AcDbEntity
  8
KUVA
100
AcDbCircle
 10
-177.870623
 20
-305.644115
 30
0.0
 40
1.5
  0
CIRCLE
  5
9B3
100
AcDbEntity
  8
KUVA
100
AcDbCircle
 10
-177.870623
 20
-295.644115
 30
0.0
 40
1.5
  0
CIRCLE
  5
9B4
100
AcDbEntity
  8
KUVA
100
AcDbCircle
 10
-127.870623
 20
-295.644115
 30
0.0
 40
1.5
  0
CIRCLE
  5
9B5
100
AcDbEntity
  8
KUVA
100
AcDbCircle
 10
-127.870623
 20
-305.644115
 30
0.0
 40
1.5
  0
LINE
  5
9B6
100
AcDbEntity
  8
KUVA
100
AcDbLine
 10
-131.870623
 20
-309.144115
 30
0.0
 11
-123.870623
 21
-309.144115
 31
0.0
  0
DIMENSION
  5
9C3
100
AcDbEntity
  8
MITAT
100
AcDbDimension
  2
*D4
 10
-132.015014
 20
-268.951858
 30
0.0
 11
-138.573588
 21
-260.817016
 31
0.0
 70
   163
  3
MECH1
100
AcDbDiametricDimension
 15
-133.726232
 25
-265.336373
 35
0.0
 40
0.0
1001
ACAD
1000
DSTYLE
1002
{
1070
   288
1070
     1
1002
}
  0
CIRCLE
  5
9D0
100
AcDbEntity
  8
KUVA
100
AcDbCircle
 10
-172.870623
 20
-267.144115
 30
0.0
 40
4.3
  0
CIRCLE
  5
9D1
100
AcDbEntity
  8
KUVA
100
AcDbCircle
 10
-154.002114
 20
-249.144115
 30
0.0
 40
4.3
  0
CIRCLE
  5
9D2
100
AcDbEntity
  8
KUVA
100
AcDbCircle
 10
-132.870623
 20
-267.144115
 30
0.0
 40
4.3
  0
DIMENSION
  5
9E9
100
AcDbEntity
  8
MITAT
100
AcDbDimension
  2
*D7
 10
-128.909936
 20
-265.469912
 30
0.0
 11
-147.840644
 21
-271.534623
 31
0.0
 70
   163
  3
MECH1
100
AcDbDiametricDimension
 15
-136.831311
 25
-268.818319
 35
0.0
 40
0.0
1001
ACAD
1000
DSTYLE
1002
{
1070
   288
1070
     1
1002
}
  0
DIMENSION
  5
9F6
100
AcDbEntity
  8
MITAT
100
AcDbDimension
  2
*D8
 10
-123.870623
 20
-231.385035
 30
0.0
 11
-152.870623
 21
-229.510035
 31
0.0
 70
    32
  3
MECH1
100
AcDbAlignedDimension
 13
-181.870623
 23
-236.144115
 33
0.0
 14
-123.870623
 24
-236.144115
 34
0.0
100
AcDbRotatedDimension
  0
DIMENSION
  5
A03
100
AcDbEntity
  8
MITAT
100
AcDbDimension
  2
*D9
 10
-68.870623
 20
-232.663684
 30
0.0
 11
-81.370623
 21
-230.788684
 31
0.0
 70
    32
  3
MECH1
100
AcDbAlignedDimension
 13
-93.870623
 23
-236.144115
 33
0.0
 14
-68.870623
 24
-236.144115
 34
0.0
100
AcDbRotatedDimension
  0
DIMENSION
  5
A1D
100
AcDbEntity
  8
MITAT
100
AcDbDimension
  2
*D11
 10
-115.632998
 20
-236.144115
 30
0.0
 11
-117.507998
 21
-256.144115
 31
0.0
 70
    32
  3
MECH1
100
AcDbAlignedDimension
 13
-123.870623
 23
-276.144115
 33
0.0
 14
-123.870623
 24
-236.144115
 34
0.0
 50
90.0
100
AcDbRotatedDimension
  0
DIMENSION
  5
A2A
100
AcDbEntity
  8
MITAT
100
AcDbDimension
  2
*D12
 10
-173.870623
 20
-313.474321
 30
0.0
 11
-177.870623
 21
-311.599321
 31
0.0
 70
    32
  3
MECH1
100
AcDbAlignedDimension
 13
-181.870623
 23
-309.144115
 33
0.0
 14
-173.870623
 24
-309.144115
 34
0.0
100
AcDbRotatedDimension
  0
DIMENSION
  5
A37
100
AcDbEntity
  8
MITAT
100
AcDbDimension
  2
*D13
 10
-131.870623
 20
-313.474321
 30
0.0
 11
-127.870623
 21
-311.599321
 31
0.0
 70
    32
  3
MECH1
100
AcDbAlignedDimension
 13
-123.870623
 23
-309.144115
 33
0.0
 14
-131.870623
 24
-309.144115
 34
0.0
100
AcDbRotatedDimension
  0
DIMENSION
  5
A44
100
AcDbEntity
  8
MITAT
100
AcDbDimension
  2
*D14
 10
-127.870623
 20
-298.897719
 30
0.0
 11
-152.870623
 21
-297.022719
 31
0.0
 70
    32
  3
MECH1
100
AcDbAlignedDimension
 13
-177.870623
 23
-295.644115
 33
0.0
 14
-127.870623
 24
-295.644115
 34
0.0
100
AcDbRotatedDimension
  0
DIMENSION
  5
A51
100
AcDbEntity
  8
MITAT
100
AcDbDimension
  2
*D15
 10
-118.702367
 20
-305.644115
 30
0.0
 11
-120.577367
 21
-300.644115
 31
0.0
 70
    32
  3
MECH1
100
AcDbAlignedDimension
 13
-127.870623
 23
-295.644115
 33
0.0
 14
-127.870623
 24
-305.644115
 34
0.0
 50
90.0
100
AcDbRotatedDimension
  0
DIMENSION
  5
A61
100
AcDbEntity
  8
MITAT
100
AcDbDimension
  2
*D16
 10
-117.452367
 20
-305.644115
 30
0.0
 11
-114.119034
 21
-298.560782
 31
0.0
 70
    32
  3
MECH1
100
AcDbAlignedDimension
 13
-123.870623
 23
-309.144115
 33
0.0
 14
-127.870623
 24
-305.644115
 34
0.0
 50
90.0
100
AcDbRotatedDimension
  0
DIMENSION
  5
A6E
100
AcDbEntity
  8
MITAT
100
AcDbDimension
  2
*D17
 10
-176.390128
 20
-295.885223
 30
0.0
 11
-192.006165
 21
-293.783121
 31
0.0
 70
   163
  3
MECH1
100
AcDbDiametricDimension
 15
-179.351119
 25
-295.403007
 35
0.0
 40
0.0
1001
ACAD
1000
DSTYLE
1002
{
1070
   288
1070
     1
1002
}
  0
LEADER
  5
A6F
100
AcDbEntity
  8
MITAT
100
AcDbLeader
  3
MECH1
 73
     0
 75
     1
 40
3.333333
 41
37.083333
 76
     3
 10
-177.870623
 20
-305.644115
 30
0.0
 10
-192.169225
 20
-300.564386
 30
0.0
 10
-194.669225
 20
-300.564386
 30
0.0
 77
   256
340
A70
  0
MTEXT
  5
A70
102
{ACAD_REACTORS
330
A6F
102
}
100
AcDbEntity
  8
MITAT
 62
     1
100
AcDbMText
 10
-195.294225
 20
-298.272719
 30
0.0
 40
2.5
 41
0.0
 71
     6
 72
     1
  1
\A1;4 M3 fixing holes
  0
LEADER
  5
A75
100
AcDbEntity
  8
MITAT
100
AcDbLeader
  3
MECH1
 73
     0
 40
3.333333
 41
67.083333
 76
     2
 10
-177.017206
 20
-266.005759
 30
0.0
 10
-195.948128
 20
-262.716366
 30
0.0
 77
   256
340
A76
  0
MTEXT
  5
A76
102
{ACAD_REACTORS
330
A75
102
}
100
AcDbEntity
  8
MITAT
 62
     1
100
AcDbMText
 10
-196.573128
 20
-260.424699
 30
0.0
 40
2.5
 41
0.0
 71
     6
 72
     1
  1
\A1;3 csk holes for fixing screws
  0
MTEXT
  5
A86
100
AcDbEntity
  8
MITAT
100
AcDbMText
 10
-198.001864
 20
-318.334044
 30
0.0
 40
2.5
 41
130.9597
 71
     1
 72
     5
  1
Matl. Aluminium Angle 40*40*4
  7
ISOCP
  0
DIMENSION
  5
A93
100
AcDbEntity
  8
MITAT
100
AcDbDimension
  2
*D19
 10
-172.870623
 20
-280.741755
 30
0.0
 11
-177.370623
 21
-278.866755
 31
0.0
 70
    32
  3
MECH1
100
AcDbAlignedDimension
 13
-181.870623
 23
-276.144115
 33
0.0
 14
-172.870623
 24
-267.144115
 34
0.0
100
AcDbRotatedDimension
  0
DIMENSION
  5
AA0
100
AcDbEntity
  8
MITAT
100
AcDbDimension
  2
*D20
 10
-165.006156
 20
-249.144115
 30
0.0
 11
-166.881156
 21
-262.644115
 31
0.0
 70
    32
  3
MECH1
100
AcDbAlignedDimension
 13
-181.870623
 23
-276.144115
 33
0.0
 14
-154.002114
 24
-249.144115
 34
0.0
 50
90.0
100
AcDbRotatedDimension
  0
DIMENSION
  5
ABA
100
AcDbEntity
  8
MITAT
100
AcDbDimension
  2
*D22
 10
-186.235952
 20
-267.769115
 30
0.0
 11
-188.110952
 21
-272.269115
 31
0.0
 70
    32
  3
MECH1
100
AcDbAlignedDimension
 13
-181.870623
 23
-276.769115
 33
0.0
 14
-172.870623
 24
-267.769115
 34
0.0
 50
90.0
100
AcDbRotatedDimension
  0
MTEXT
  5
ABB
100
AcDbEntity
  8
MITAT
100
AcDbMText
 10
-137.893406
 20
-350.300278
 30
0.0
 40
2.5
 41
43.9943
 71
     1
 72
     5
  1
Servo fixing bracket
  7
ISOCP
  0
MTEXT
  5
AC1
100
AcDbEntity
  8
MITAT
100
AcDbMText
 10
-197.490301
 20
-323.960102
 30
0.0
 40
2.5
 41
120.4727
 71
     1
 72
     5
  1
Note European First Angle Projektion
  7
ISOCP
  0
LINE
  5
AC2
100
AcDbEntity
  8
KUVA
100
AcDbLine
 10
-89.870623
 20
-276.144115
 30
0.0
 11
-89.870623
 21
-240.144115
 31
0.0
  0
DIMENSION
  5
ACF
100
AcDbEntity
  8
MITAT
100
AcDbDimension
  2
*D23
 10
-99.526306
 20
-276.144115
 30
0.0
 11
-101.401306
 21
-256.144115
 31
0.0
 70
    32
  3
MECH1
100
AcDbAlignedDimension
 13
-93.870623
 23
-236.144115
 33
0.0
 14
-93.870623
 24
-276.144115
 34
0.0
 50
90.0
100
AcDbRotatedDimension
  0
DIMENSION
  5
ADE
100
AcDbEntity
  8
MITAT
100
AcDbDimension
  2
*D24
 10
-60.647644
 20
-236.144115
 30
0.0
 11
-62.522644
 21
-238.144115
 31
0.0
 70
    32
  3
MECH1
100
AcDbAlignedDimension
 13
-68.870623
 23
-240.144115
 33
0.0
 14
-68.870623
 24
-236.144115
 34
0.0
 50
90.0
100
AcDbRotatedDimension
  0
VIEWPORT
  5
63
100
AcDbEntity
 67
     1
  8
0
100
AcDbViewport
 10
121.495699
 20
-45.622468
 30
0.0
 40
453.896907
 41
204.673285
 68
     2
 69
     1
1001
ACAD
1000
MVIEW
1002
{
1070
    16
1010
0.0
1020
0.0
1030
0.0
1010
0.0
1020
0.0
1030
1.0
1040
0.0
1040
204.673285
1040
121.495699
1040
-45.622468
1040
50.0
1040
0.0
1040
0.0
1070
     0
1070
   100
1070
     1
1070
     1
1070
     0
1070
     0
1070
     0
1070
     0
1040
0.0
1040
0.0
1040
0.0
1040
10.0
1040
10.0
1040
10.0
1040
10.0
1070
     0
1002
{
1002
}
1002
}
  0
VIEWPORT
  5
CF
100
AcDbEntity
 67
     1
  8
0
100
AcDbViewport
 10
111.514873
 20
-54.731889
 30
0.0
 40
287.0
 41
200.0
 68
     1
 69
     2
1001
ACAD
1000
MVIEW
1002
{
1070
    16
1010
0.0
1020
0.0
1030
0.0
1010
0.0
1020
0.0
1030
1.0
1040
0.0
1040
158.816273
1040
-154.519149
1040
-301.459669
1040
50.0
1040
0.0
1040
0.0
1070
     0
1070
   100
1070
     1
1070
     1
1070
     0
1070
     0
1070
     0
1070
     0
1040
0.0
1040
0.0
1040
0.0
1040
10.0
1040
10.0
1040
10.0
1040
10.0
1070
     0
1002
{
1002
}
1002
}
  0
LINE
  5
108
100
AcDbEntity
 67
     1
  8
RAHMEN07
100
AcDbLine
 10
-31.985127
 20
-154.731889
 30
0.0
 11
255.014873
 21
-154.731889
 31
0.0
  0
LINE
  5
137
100
AcDbEntity
 67
     1
  8
RAHMEN07
100
AcDbLine
 10
255.014873
 20
-154.731889
 30
0.0
 11
255.014873
 21
45.268111
 31
0.0
  0
LINE
  5
138
100
AcDbEntity
 67
     1
  8
RAHMEN025
100
AcDbLine
 10
260.014873
 20
50.268111
 30
0.0
 11
-36.985127
 21
50.268111
 31
0.0
  0
LINE
  5
139
100
AcDbEntity
 67
     1
  8
RAHMEN025
100
AcDbLine
 10
260.014873
 20
-159.731889
 30
0.0
 11
260.014873
 21
50.268111
 31
0.0
  0
LINE
  5
13A
100
AcDbEntity
 67
     1
  8
RAHMEN025
100
AcDbLine
 10
-36.985127
 20
-159.731889
 30
0.0
 11
260.014873
 21
-159.731889
 31
0.0
  0
LINE
  5
13B
100
AcDbEntity
 67
     1
  8
RAHMEN025
100
AcDbLine
 10
-36.985127
 20
50.268111
 30
0.0
 11
-36.985127
 21
-159.731889
 31
0.0
  0
LINE
  5
140
100
AcDbEntity
 67
     1
  8
RAHMEN07
100
AcDbLine
 10
130.014873
 20
-134.731889
 30
0.0
 11
255.014873
 21
-134.731889
 31
0.0
  0
LINE
  5
143
100
AcDbEntity
 67
     1
  8
RAHMEN07
100
AcDbLine
 10
130.014873
 20
-154.731889
 30
0.0
 11
130.014873
 21
-110.731889
 31
0.0
  0
LINE
  5
159
100
AcDbEntity
 67
     1
  8
RAHMEN07
100
AcDbLine
 10
235.014873
 20
-134.731889
 30
0.0
 11
235.014873
 21
-110.731889
 31
0.0
  0
LINE
  5
15A
100
AcDbEntity
 67
     1
  8
RAHMEN07
100
AcDbLine
 10
220.014873
 20
-134.731889
 30
0.0
 11
220.014873
 21
-110.731889
 31
0.0
  0
LINE
  5
15B
100
AcDbEntity
 67
     1
  8
RAHMEN07
100
AcDbLine
 10
190.014873
 20
-154.731889
 30
0.0
 11
190.014873
 21
-110.731889
 31
0.0
  0
LINE
  5
15C
100
AcDbEntity
 67
     1
  8
RAHMEN07
100
AcDbLine
 10
205.014873
 20
-126.731889
 30
0.0
 11
255.014873
 21
-126.731889
 31
0.0
  0
LINE
  5
15D
100
AcDbEntity
 67
     1
  8
RAHMEN07
100
AcDbLine
 10
205.014873
 20
-118.731889
 30
0.0
 11
255.014873
 21
-118.731889
 31
0.0
  0
LINE
  5
15E
100
AcDbEntity
 67
     1
  8
RAHMEN07
100
AcDbLine
 10
56.511635
 20
-110.731889
 30
0.0
 11
255.014873
 21
-110.731889
 31
0.0
  0
LINE
  5
164
100
AcDbEntity
 67
     1
  8
RAHMEN07
100
AcDbLine
 10
56.511635
 20
-154.731889
 30
0.0
 11
56.511635
 21
-99.481889
 31
0.0
  0
LINE
  5
16D
100
AcDbEntity
 67
     1
  8
RAHMEN07
100
AcDbLine
 10
68.511635
 20
-110.731889
 30
0.0
 11
68.511635
 21
-99.481889
 31
0.0
  0
LINE
  5
16E
100
AcDbEntity
 67
     1
  8
RAHMEN07
100
AcDbLine
 10
80.511635
 20
-110.731889
 30
0.0
 11
80.511635
 21
-99.481889
 31
0.0
  0
LINE
  5
16F
100
AcDbEntity
 67
     1
  8
RAHMEN07
100
AcDbLine
 10
147.511635
 20
-110.731889
 30
0.0
 11
147.511635
 21
-99.481889
 31
0.0
  0
LINE
  5
170
100
AcDbEntity
 67
     1
  8
RAHMEN07
100
AcDbLine
 10
167.511635
 20
-110.731889
 30
0.0
 11
167.511635
 21
-99.481889
 31
0.0
  0
LINE
  5
171
100
AcDbEntity
 67
     1
  8
RAHMEN07
100
AcDbLine
 10
205.014873
 20
-122.731889
 30
0.0
 11
190.014873
 21
-122.731889
 31
0.0
  0
MTEXT
  5
173
100
AcDbEntity
 67
     1
  8
RAHMEN05
100
AcDbMText
 10
56.511635
 20
-107.911553
 30
0.0
 40
2.5
 41
12.0
 71
     1
 72
     5
  1
 OsaNo
  7
ISOCP
  0
MTEXT
  5
174
100
AcDbEntity
 67
     1
  8
RAHMEN05
100
AcDbMText
 10
68.893051
 20
-107.011698
 30
0.0
 40
2.5
 41
12.0
 71
     1
 72
     5
  1
 Kpl
  7
ISOCP
  0
MTEXT
  5
175
100
AcDbEntity
 67
     1
  8
RAHMEN05
100
AcDbMText
 10
80.511635
 20
-107.149629
 30
0.0
 40
2.5
 41
67.0
 71
     1
 72
     5
  1
 Nimitys
  7
ISOCP
  0
MTEXT
  5
176
100
AcDbEntity
 67
     1
  8
RAHMEN05
100
AcDbMText
 10
147.511635
 20
-108.231889
 30
0.0
 40
2.5
 41
20.0
 71
     1
 72
     5
  1
 Aine
  7
ISOCP
  0
LINE
  5
179
100
AcDbEntity
 67
     1
  8
RAHMEN07
100
AcDbLine
 10
220.014873
 20
-110.731889
 30
0.0
 11
220.014873
 21
-99.192429
 31
0.0
  0
MTEXT
  5
17A
100
AcDbEntity
 67
     1
  8
RAHMEN05
100
AcDbMText
 10
167.130218
 20
-107.766824
 30
0.0
 40
2.5
 41
52.5032
 71
     1
 72
     5
  1
 Mitat, muoto, malli
  7
ISOCP
  0
MTEXT
  5
17C
100
AcDbEntity
 67
     1
  8
RAHMEN05
100
AcDbMText
 10
220.014873
 20
-108.231889
 30
0.0
 40
2.5
 41
35.0
 71
     1
 72
     5
  1
 Lisätiedot
  7
ISOCP
  0
MTEXT
  5
17D
100
AcDbEntity
 67
     1
  8
RAHMEN05
100
AcDbMText
 10
130.661131
 20
-111.93043
 30
0.0
 40
2.5
 41
59.814
 71
     1
 72
     5
  1
 Nimike
  7
ISOCP
  0
MTEXT
  5
17E
100
AcDbEntity
 67
     1
  8
RAHMEN05
100
AcDbMText
 10
130.468872
 20
-136.053456
 30
0.0
 40
2.5
 41
59.814
 71
     1
 72
     5
  1
 Kokonaisuus
  7
ISOCP
  0
MTEXT
  5
17F
100
AcDbEntity
 67
     1
  8
RAHMEN05
100
AcDbMText
 10
57.928896
 20
-111.93043
 30
0.0
 40
2.5
 41
72.383596
 71
     1
 72
     5
  1
 Tilaaja
  7
ISOCP
  0
MTEXT
  5
180
100
AcDbEntity
 67
     1
  8
RAHMEN05
100
AcDbMText
 10
190.816817
 20
-112.702305
 30
0.0
 40
2.5
 41
14.0327
 71
     1
 72
     5
  1
Suhde
  7
ISOCP
  0
MTEXT
  5
181
100
AcDbEntity
 67
     1
  8
RAHMEN05
100
AcDbMText
 10
205.263271
 20
-112.38983
 30
0.0
 40
2.5
 41
13.513
 71
     1
 72
     5
  1
 Piirt.
  7
ISOCP
  0
MTEXT
  5
182
100
AcDbEntity
 67
     1
  8
RAHMEN05
100
AcDbMText
 10
204.743542
 20
-120.075701
 30
0.0
 40
2.5
 41
15.0721
 71
     1
 72
     5
  1
 Tark.
  7
ISOCP
  0
MTEXT
  5
183
100
AcDbEntity
 67
     1
  8
RAHMEN05
100
AcDbMText
 10
205.056388
 20
-127.650694
 30
0.0
 40
2.5
 41
15.0721
 71
     1
 72
     5
  1
 Hyv.
  7
ISOCP
  0
MTEXT
  5
184
100
AcDbEntity
 67
     1
  8
RAHMEN05
100
AcDbMText
 10
190.710854
 20
-136.062312
 30
0.0
 40
2.5
 41
28.5851
 71
     1
 72
     5
  1
 Tiedosto
  7
ISOCP
  0
LINE
  5
185
100
AcDbEntity
 67
     1
  8
RAHMEN07
100
AcDbLine
 10
220.014873
 20
-134.731889
 30
0.0
 11
220.014873
 21
-154.731889
 31
0.0
  0
LINE
  5
186
100
AcDbEntity
 67
     1
  8
RAHMEN07
100
AcDbLine
 10
235.014873
 20
-134.731889
 30
0.0
 11
235.014873
 21
-154.731889
 31
0.0
  0
MTEXT
  5
187
100
AcDbEntity
 67
     1
  8
RAHMEN05
100
AcDbMText
 10
220.491841
 20
-136.268949
 30
0.0
 40
2.5
 41
14.0327
 71
     1
 72
     5
  1
Sivu
  7
ISOCP
  0
MTEXT
  5
188
100
AcDbEntity
 67
     1
  8
RAHMEN05
100
AcDbMText
 10
235.407564
 20
-136.268949
 30
0.0
 40
2.5
 41
18.1905
 71
     1
 72
     5
  1
Sivuja
  7
ISOCP
  0
LINE
  5
189
100
AcDbEntity
 67
     1
  8
RAHMEN07
100
AcDbLine
 10
130.014873
 20
-134.731889
 30
0.0
 11
56.511635
 21
-134.731889
 31
0.0
  0
MTEXT
  5
18A
100
AcDbEntity
 67
     1
  8
RAHMEN05
 62
     5
100
AcDbMText
 10
57.725718
 20
-135.513076
 30
0.0
 40
3.0
 41
73.0712
 71
     1
 72
     5
  1
\fOld Style Bold Outline|b0|i0|c0|p82;Tmi M.Hakala\P\Fisocp2.shx;\H2.5;Pohjolankatu 40 50120 Mikkeli\Pp. 015-365244 / fax 015-365243\Pemail: mauri.hakala@pp1.inet.fi
  7
ISOCP
  0
LINE
  5
18E
100
AcDbEntity
 67
     1
  8
RAHMEN07
100
AcDbLine
 10
205.014873
 20
-122.731889
 30
0.0
 11
205.014873
 21
-110.731889
 31
0.0
  0
LINE
  5
18F
100
AcDbEntity
 67
     1
  8
RAHMEN07
100
AcDbLine
 10
205.014873
 20
-122.731889
 30
0.0
 11
205.014873
 21
-134.731889
 31
0.0
  0
LINE
  5
190
100
AcDbEntity
 67
     1
  8
RAHMEN07
100
AcDbLine
 10
205.014873
 20
-128.731889
 30
0.0
 11
190.014873
 21
-128.731889
 31
0.0
  0
LINE
  5
197
100
AcDbEntity
 67
     1
  8
RAHMEN025
100
AcDbLine
 10
191.014873
 20
-127.731889
 30
0.0
 11
197.014873
 21
-125.731889
 31
0.0
  0
LINE
  5
198
100
AcDbEntity
 67
     1
  8
RAHMEN025
100
AcDbLine
 10
197.014873
 20
-125.731889
 30
0.0
 11
197.014873
 21
-131.731889
 31
0.0
  0
LINE
  5
199
100
AcDbEntity
 67
     1
  8
RAHMEN025
100
AcDbLine
 10
197.014873
 20
-131.731889
 30
0.0
 11
191.014873
 21
-129.731889
 31
0.0
  0
LINE
  5
19A
100
AcDbEntity
 67
     1
  8
RAHMEN025
100
AcDbLine
 10
191.014873
 20
-129.731889
 30
0.0
 11
191.014873
 21
-127.731889
 31
0.0
  0
LINE
  5
19B
100
AcDbEntity
 67
     1
  8
RAHMEN025
100
AcDbLine
 10
201.014873
 20
-125.731889
 30
0.0
 11
201.014873
 21
-131.731889
 31
0.0
  0
CIRCLE
  5
19C
100
AcDbEntity
 67
     1
  8
RAHMEN025
100
AcDbCircle
 10
201.014873
 20
-128.731889
 30
0.0
 40
1.0
  0
CIRCLE
  5
19D
100
AcDbEntity
 67
     1
  8
RAHMEN025
100
AcDbCircle
 10
201.014873
 20
-128.731889
 30
0.0
 40
3.0
  0
LINE
  5
1A4
100
AcDbEntity
 67
     1
  8
RAHMEN07
100
AcDbLine
 10
56.511635
 20
-99.481889
 30
0.0
 11
255.014873
 21
-99.481889
 31
0.0
  0
LINE
  5
1B6
100
AcDbEntity
 67
     1
  8
RAHMEN07
100
AcDbLine
 10
-31.985127
 20
-154.731889
 30
0.0
 11
-31.985127
 21
45.268111
 31
0.0
  0
LINE
  5
1B8
100
AcDbEntity
 67
     1
  8
RAHMEN07
100
AcDbLine
 10
255.014873
 20
45.268111
 30
0.0
 11
-31.985127
 21
45.268111
 31
0.0
  0
LINE
  5
1BA
100
AcDbEntity
 67
     1
  8
RAHMEN07
100
AcDbLine
 10
56.511635
 20
-104.481889
 30
0.0
 11
255.014873
 21
-104.481889
 31
0.0
  0
ENDSEC
  0
SECTION
  2
OBJECTS
  0
DICTIONARY
  5
1B
100
AcDbDictionary
  3
ACAD_GROUP
350
19
  3
ACAD_MLINESTYLE
350
1A
  0
DICTIONARY
  5
19
102
{ACAD_REACTORS
330
1B
102
}
100
AcDbDictionary
  0
DICTIONARY
  5
1A
102
{ACAD_REACTORS
330
1B
102
}
100
AcDbDictionary
  3
STANDARD
350
1D
  0
MLINESTYLE
  5
1D
102
{ACAD_REACTORS
330
1A
102
}
100
AcDbMlineStyle
  2
STANDARD
 70
     0
  3

 62
     0
 51
90.0
 52
90.0
 71
     2
 49
0.5
 62
   256
  6
BYLAYER
 49
-0.5
 62
   256
  6
BYLAYER
  0
ENDSEC
  0
EOF
