  0
SECTION
  2
HEADER
  9
$ACADVER
  1
AC1014
  9
$ACADMAINTVER
 70
     9
  9
$DWGCODEPAGE
  3
ANSI_1252
  9
$INSBASE
 10
0.0
 20
0.0
 30
0.0
  9
$EXTMIN
 10
5.363054964925603
 20
-4.196974004867474
 30
0.0
  9
$EXTMAX
 10
19.87366270253494
 20
4.907940053617668
 30
0.0
  9
$LIMMIN
 10
0.0
 20
0.0
  9
$LIMMAX
 10
12.0
 20
9.0
  9
$ORTHOMODE
 70
     0
  9
$REGENMODE
 70
     1
  9
$FILLMODE
 70
     1
  9
$QTEXTMODE
 70
     0
  9
$MIRRTEXT
 70
     0
  9
$DRAGMODE
 70
     2
  9
$LTSCALE
 40
1.0
  9
$OSMODE
 70
   511
  9
$ATTMODE
 70
     1
  9
$TEXTSIZE
 40
0.2
  9
$TRACEWID
 40
0.05
  9
$TEXTSTYLE
  7
STANDARD
  9
$CLAYER
  8
0
  9
$CELTYPE
  6
BYLAYER
  9
$CECOLOR
 62
   256
  9
$CELTSCALE
 40
1.0
  9
$DELOBJ
 70
     1
  9
$DISPSILH
 70
     0
  9
$DIMSCALE
 40
1.0
  9
$DIMASZ
 40
0.18
  9
$DIMEXO
 40
0.0625
  9
$DIMDLI
 40
0.38
  9
$DIMRND
 40
0.0
  9
$DIMDLE
 40
0.0
  9
$DIMEXE
 40
0.18
  9
$DIMTP
 40
0.0
  9
$DIMTM
 40
0.0
  9
$DIMTXT
 40
0.18
  9
$DIMCEN
 40
0.09
  9
$DIMTSZ
 40
0.0
  9
$DIMTOL
 70
     0
  9
$DIMLIM
 70
     0
  9
$DIMTIH
 70
     1
  9
$DIMTOH
 70
     1
  9
$DIMSE1
 70
     0
  9
$DIMSE2
 70
     0
  9
$DIMTAD
 70
     0
  9
$DIMZIN
 70
     0
  9
$DIMBLK
  1

  9
$DIMASO
 70
     1
  9
$DIMSHO
 70
     1
  9
$DIMPOST
  1

  9
$DIMAPOST
  1

  9
$DIMALT
 70
     0
  9
$DIMALTD
 70
     2
  9
$DIMALTF
 40
25.4
  9
$DIMLFAC
 40
1.0
  9
$DIMTOFL
 70
     0
  9
$DIMTVP
 40
0.0
  9
$DIMTIX
 70
     0
  9
$DIMSOXD
 70
     0
  9
$DIMSAH
 70
     0
  9
$DIMBLK1
  1

  9
$DIMBLK2
  1

  9
$DIMSTYLE
  2
STANDARD
  9
$DIMCLRD
 70
     0
  9
$DIMCLRE
 70
     0
  9
$DIMCLRT
 70
     0
  9
$DIMTFAC
 40
1.0
  9
$DIMGAP
 40
0.09
  9
$DIMJUST
 70
     0
  9
$DIMSD1
 70
     0
  9
$DIMSD2
 70
     0
  9
$DIMTOLJ
 70
     1
  9
$DIMTZIN
 70
     0
  9
$DIMALTZ
 70
     0
  9
$DIMALTTZ
 70
     0
  9
$DIMFIT
 70
     5
  9
$DIMUPT
 70
     0
  9
$DIMUNIT
 70
     2
  9
$DIMDEC
 70
     4
  9
$DIMTDEC
 70
     4
  9
$DIMALTU
 70
     2
  9
$DIMALTTD
 70
     2
  9
$DIMTXSTY
  7
STANDARD
  9
$DIMAUNIT
 70
     0
  9
$LUNITS
 70
     2
  9
$LUPREC
 70
     4
  9
$SKETCHINC
 40
0.1
  9
$FILLETRAD
 40
0.125
  9
$AUNITS
 70
     0
  9
$AUPREC
 70
     0
  9
$MENU
  1
.
  9
$ELEVATION
 40
0.0
  9
$PELEVATION
 40
0.0
  9
$THICKNESS
 40
0.0
  9
$LIMCHECK
 70
     0
  9
$CHAMFERA
 40
0.0
  9
$CHAMFERB
 40
0.0
  9
$CHAMFERC
 40
0.0
  9
$CHAMFERD
 40
0.0
  9
$SKPOLY
 70
     0
  9
$TDCREATE
 40
2452642.896717593
  9
$TDUPDATE
 40
2458200.881605822
  9
$TDINDWG
 40
0.0687001273
  9
$TDUSRTIMER
 40
0.0049446644
  9
$USRTIMER
 70
     1
  9
$ANGBASE
 50
0.0
  9
$ANGDIR
 70
     0
  9
$PDMODE
 70
     0
  9
$PDSIZE
 40
0.0
  9
$PLINEWID
 40
0.0
  9
$COORDS
 70
     1
  9
$SPLFRAME
 70
     0
  9
$SPLINETYPE
 70
     6
  9
$SPLINESEGS
 70
     8
  9
$ATTDIA
 70
     0
  9
$ATTREQ
 70
     1
  9
$HANDLING
 70
     1
  9
$HANDSEED
  5
10AB
  9
$SURFTAB1
 70
     6
  9
$SURFTAB2
 70
     6
  9
$SURFTYPE
 70
     6
  9
$SURFU
 70
     6
  9
$SURFV
 70
     6
  9
$UCSNAME
  2

  9
$UCSORG
 10
0.0
 20
0.0
 30
0.0
  9
$UCSXDIR
 10
1.0
 20
0.0
 30
0.0
  9
$UCSYDIR
 10
0.0
 20
1.0
 30
0.0
  9
$PUCSNAME
  2

  9
$PUCSORG
 10
0.0
 20
0.0
 30
0.0
  9
$PUCSXDIR
 10
1.0
 20
0.0
 30
0.0
  9
$PUCSYDIR
 10
0.0
 20
1.0
 30
0.0
  9
$USERI1
 70
     0
  9
$USERI2
 70
     0
  9
$USERI3
 70
     0
  9
$USERI4
 70
     0
  9
$USERI5
 70
     0
  9
$USERR1
 40
0.0
  9
$USERR2
 40
0.0
  9
$USERR3
 40
0.0
  9
$USERR4
 40
0.0
  9
$USERR5
 40
0.0
  9
$WORLDVIEW
 70
     1
  9
$SHADEDGE
 70
     3
  9
$SHADEDIF
 70
    70
  9
$TILEMODE
 70
     1
  9
$MAXACTVP
 70
    64
  9
$PINSBASE
 10
0.0
 20
0.0
 30
0.0
  9
$PLIMCHECK
 70
     0
  9
$PEXTMIN
 10
0.0
 20
0.0
 30
0.0
  9
$PEXTMAX
 10
0.0
 20
0.0
 30
0.0
  9
$PLIMMIN
 10
0.0
 20
0.0
  9
$PLIMMAX
 10
0.0
 20
0.0
  9
$UNITMODE
 70
     0
  9
$VISRETAIN
 70
     1
  9
$PLINEGEN
 70
     0
  9
$PSLTSCALE
 70
     1
  9
$TREEDEPTH
 70
  3020
  9
$PICKSTYLE
 70
     1
  9
$CMLSTYLE
  2
STANDARD
  9
$CMLJUST
 70
     0
  9
$CMLSCALE
 40
1.0
  9
$PROXYGRAPHICS
 70
     1
  9
$MEASUREMENT
 70
     0
  0
ENDSEC
  0
SECTION
  2
CLASSES
  0
CLASS
  1
ACDBDICTIONARYWDFLT
  2
AcDbDictionaryWithDefault
  3
ObjectDBX Classes
 90
        0
280
     0
281
     0
  0
CLASS
  1
ACDBPLACEHOLDER
  2
AcDbPlaceHolder
  3
ObjectDBX Classes
 90
        0
280
     0
281
     0
  0
CLASS
  1
LAYOUT
  2
AcDbLayout
  3
ObjectDBX Classes
 90
        0
280
     0
281
     0
  0
CLASS
  1
DICTIONARYVAR
  2
AcDbDictionaryVar
  3
ObjectDBX Classes
 90
        0
280
     0
281
     0
  0
CLASS
  1
TABLESTYLE
  2
AcDbTableStyle
  3
ObjectDBX Classes
 90
     4095
280
     0
281
     0
  0
CLASS
  1
MATERIAL
  2
AcDbMaterial
  3
ObjectDBX Classes
 90
     1153
280
     0
281
     0
  0
CLASS
  1
VISUALSTYLE
  2
AcDbVisualStyle
  3
ObjectDBX Classes
 90
     4095
280
     0
281
     0
  0
CLASS
  1
SCALE
  2
AcDbScale
  3
ObjectDBX Classes
 90
     1153
280
     0
281
     0
  0
CLASS
  1
CELLSTYLEMAP
  2
AcDbCellStyleMap
  3
ObjectDBX Classes
 90
     1152
280
     0
281
     0
  0
CLASS
  1
RASTERVARIABLES
  2
AcDbRasterVariables
  3
ISM
 90
        0
280
     0
281
     0
  0
CLASS
  1
SUN
  2
AcDbSun
  3
SCENEOE
 90
     1153
280
     0
281
     0
  0
CLASS
  1
MLEADERSTYLE
  2
AcDbMLeaderStyle
  3
ACDB_MLEADERSTYLE_CLASS
 90
     4095
280
     0
281
     0
  0
CLASS
  1
XRECORD
  2
AcDbXrecord
  3
ObjectDBX Classes
 90
        0
280
     0
281
     0
  0
CLASS
  1
LWPOLYLINE
  2
AcDbPolyline
  3
ObjectDBX Classes
 90
        0
280
     0
281
     1
  0
CLASS
  1
HATCH
  2
AcDbHatch
  3
ObjectDBX Classes
 90
        0
280
     0
281
     1
  0
CLASS
  1
DIMASSOC
  2
AcDbDimAssoc
  3
"AcDbDimAssoc|Product Desc:     AcDim ARX App For Dimension|Company:          Autodesk, Inc.|WEB Address:      www.autodesk.com"
 90
        0
280
     0
281
     0
  0
ENDSEC
  0
SECTION
  2
TABLES
  0
TABLE
  2
VPORT
  5
8
330
0
100
AcDbSymbolTable
 70
     1
  0
VPORT
  5
94
330
8
100
AcDbSymbolTableRecord
100
AcDbViewportTableRecord
  2
*ACTIVE
 70
     0
 10
0.0
 20
0.0
 11
1.0
 21
1.0
 12
41.79440955509925
 22
20.41060703359343
 13
0.0
 23
0.0
 14
0.5
 24
0.5
 15
0.5
 25
0.5
 16
0.0
 26
0.0
 36
1.0
 17
-27.66959356598002
 27
-19.53870295786202
 37
0.0
 40
11.94843916913942
 41
2.476534296028881
 42
50.0
 43
0.0
 44
0.0
 50
0.0
 51
0.0
 71
    16
 72
  1000
 73
     1
 74
     0
 75
     0
 76
     0
 77
     0
 78
     2
  0
ENDTAB
  0
TABLE
  2
LTYPE
  5
5
330
0
100
AcDbSymbolTable
 70
     1
  0
LTYPE
  5
14
330
5
100
AcDbSymbolTableRecord
100
AcDbLinetypeTableRecord
  2
BYBLOCK
 70
     0
  3

 72
    65
 73
     0
 40
0.0
  0
LTYPE
  5
15
330
5
100
AcDbSymbolTableRecord
100
AcDbLinetypeTableRecord
  2
BYLAYER
 70
     0
  3

 72
    65
 73
     0
 40
0.0
  0
LTYPE
  5
16
330
5
100
AcDbSymbolTableRecord
100
AcDbLinetypeTableRecord
  2
CONTINUOUS
 70
     0
  3
Solid line
 72
    65
 73
     0
 40
0.0
  0
ENDTAB
  0
TABLE
  2
LAYER
  5
2
330
0
100
AcDbSymbolTable
 70
     2
  0
LAYER
  5
10
330
2
100
AcDbSymbolTableRecord
100
AcDbLayerTableRecord
  2
0
 70
     0
 62
     7
  6
CONTINUOUS
  0
LAYER
  5
34F
330
2
100
AcDbSymbolTableRecord
100
AcDbLayerTableRecord
  2
DEFPOINTS
 70
     0
 62
     7
  6
CONTINUOUS
  0
ENDTAB
  0
TABLE
  2
STYLE
  5
3
330
0
100
AcDbSymbolTable
 70
     1
  0
STYLE
  5
11
330
3
100
AcDbSymbolTableRecord
100
AcDbTextStyleTableRecord
  2
STANDARD
 70
     0
 40
0.0
 41
1.0
 50
0.0
 71
     0
 42
0.2
  3
arial.ttf
  4

1001
ACAD
1000
Arial
1071
        0
  0
ENDTAB
  0
TABLE
  2
VIEW
  5
6
330
0
100
AcDbSymbolTable
 70
     0
  0
ENDTAB
  0
TABLE
  2
UCS
  5
7
330
0
100
AcDbSymbolTable
 70
     0
  0
ENDTAB
  0
TABLE
  2
APPID
  5
9
330
0
100
AcDbSymbolTable
 70
     4
  0
APPID
  5
12
330
9
100
AcDbSymbolTableRecord
100
AcDbRegAppTableRecord
  2
ACAD
 70
     0
  0
APPID
  5
3C4
330
9
100
AcDbSymbolTableRecord
100
AcDbRegAppTableRecord
  2
ACAD_DSTYLE_DIMRADIAL_EXTE
 70
     0
  0
APPID
  5
C74
330
9
100
AcDbSymbolTableRecord
100
AcDbRegAppTableRecord
  2
ACAD_DSTYLE_DIMRADIAL_EXT0
 70
     0
  0
APPID
  5
E6F
330
9
100
AcDbSymbolTableRecord
100
AcDbRegAppTableRecord
  2
ACAD_DSTYLE_DIMRADIAL_EXT1
 70
     0
  0
ENDTAB
  0
TABLE
  2
DIMSTYLE
  5
A
330
0
100
AcDbSymbolTable
 70
     1
  0
DIMSTYLE
105
27
102
{ACAD_REACTORS
330
971
330
981
330
991
330
A0F
330
A1F
330
A2F
330
A3F
330
BA7
330
BB7
102
}
330
A
100
AcDbSymbolTableRecord
100
AcDbDimStyleTableRecord
  2
STANDARD
 70
     0
  3

  4

  5

  6

  7

 40
1.0
 41
0.18
 42
0.0625
 43
0.38
 44
0.18
 45
0.0
 46
0.0
 47
0.0
 48
0.0
140
0.18
141
0.09
142
0.0
143
25.4
144
1.0
145
0.0
146
1.0
147
0.09
 71
     0
 72
     0
 73
     1
 74
     1
 75
     0
 76
     0
 77
     0
 78
     0
170
     0
171
     2
172
     0
173
     0
174
     0
175
     0
176
     0
177
     0
178
     0
270
     2
271
     4
272
     4
273
     2
274
     2
340
11
275
     0
280
     0
281
     0
282
     0
283
     1
284
     0
285
     0
286
     0
287
     3
288
     0
  0
ENDTAB
  0
TABLE
  2
BLOCK_RECORD
  5
1
330
0
100
AcDbSymbolTable
 70
    49
  0
BLOCK_RECORD
  5
1F
330
1
100
AcDbSymbolTableRecord
100
AcDbBlockTableRecord
  2
*MODEL_SPACE
  0
BLOCK_RECORD
  5
58
330
1
100
AcDbSymbolTableRecord
100
AcDbBlockTableRecord
  2
*PAPER_SPACE
  0
BLOCK_RECORD
  5
5D
330
1
100
AcDbSymbolTableRecord
100
AcDbBlockTableRecord
  2
*PAPER_SPACE0
  0
BLOCK_RECORD
  5
1CF
330
1
100
AcDbSymbolTableRecord
100
AcDbBlockTableRecord
  2
A$C1029
  0
BLOCK_RECORD
  5
1FC
330
1
100
AcDbSymbolTableRecord
100
AcDbBlockTableRecord
  2
A$C18190
  0
BLOCK_RECORD
  5
229
330
1
100
AcDbSymbolTableRecord
100
AcDbBlockTableRecord
  2
A$C26811
  0
BLOCK_RECORD
  5
256
330
1
100
AcDbSymbolTableRecord
100
AcDbBlockTableRecord
  2
A$C904
  0
BLOCK_RECORD
  5
353
330
1
100
AcDbSymbolTableRecord
100
AcDbBlockTableRecord
  2
*D5
  0
BLOCK_RECORD
  5
363
330
1
100
AcDbSymbolTableRecord
100
AcDbBlockTableRecord
  2
*D6
  0
BLOCK_RECORD
  5
3A7
330
1
100
AcDbSymbolTableRecord
100
AcDbBlockTableRecord
  2
*D7
  0
BLOCK_RECORD
  5
3B7
330
1
100
AcDbSymbolTableRecord
100
AcDbBlockTableRecord
  2
*D8
  0
BLOCK_RECORD
  5
3C8
330
1
100
AcDbSymbolTableRecord
100
AcDbBlockTableRecord
  2
*D9
  0
BLOCK_RECORD
  5
408
330
1
100
AcDbSymbolTableRecord
100
AcDbBlockTableRecord
  2
*D10
  0
BLOCK_RECORD
  5
419
330
1
100
AcDbSymbolTableRecord
100
AcDbBlockTableRecord
  2
*D11
  0
BLOCK_RECORD
  5
42A
330
1
100
AcDbSymbolTableRecord
100
AcDbBlockTableRecord
  2
*D12
  0
BLOCK_RECORD
  5
444
330
1
100
AcDbSymbolTableRecord
100
AcDbBlockTableRecord
  2
*D13
  0
BLOCK_RECORD
  5
455
330
1
100
AcDbSymbolTableRecord
100
AcDbBlockTableRecord
  2
*D14
  0
BLOCK_RECORD
  5
465
330
1
100
AcDbSymbolTableRecord
100
AcDbBlockTableRecord
  2
*D15
  0
BLOCK_RECORD
  5
476
330
1
100
AcDbSymbolTableRecord
100
AcDbBlockTableRecord
  2
*D16
  0
BLOCK_RECORD
  5
57A
330
1
100
AcDbSymbolTableRecord
100
AcDbBlockTableRecord
  2
*D17
  0
BLOCK_RECORD
  5
639
330
1
100
AcDbSymbolTableRecord
100
AcDbBlockTableRecord
  2
*D18
  0
BLOCK_RECORD
  5
647
330
1
100
AcDbSymbolTableRecord
100
AcDbBlockTableRecord
  2
*D19
  0
BLOCK_RECORD
  5
655
330
1
100
AcDbSymbolTableRecord
100
AcDbBlockTableRecord
  2
*D20
  0
BLOCK_RECORD
  5
675
330
1
100
AcDbSymbolTableRecord
100
AcDbBlockTableRecord
  2
*D21
  0
BLOCK_RECORD
  5
682
330
1
100
AcDbSymbolTableRecord
100
AcDbBlockTableRecord
  2
*D22
  0
BLOCK_RECORD
  5
68F
330
1
100
AcDbSymbolTableRecord
100
AcDbBlockTableRecord
  2
*D23
  0
BLOCK_RECORD
  5
6E2
330
1
100
AcDbSymbolTableRecord
100
AcDbBlockTableRecord
  2
*D24
  0
BLOCK_RECORD
  5
767
330
1
100
AcDbSymbolTableRecord
100
AcDbBlockTableRecord
  2
*D25
  0
BLOCK_RECORD
  5
778
330
1
100
AcDbSymbolTableRecord
100
AcDbBlockTableRecord
  2
*D26
  0
BLOCK_RECORD
  5
788
330
1
100
AcDbSymbolTableRecord
100
AcDbBlockTableRecord
  2
*D27
  0
BLOCK_RECORD
  5
7D4
330
1
100
AcDbSymbolTableRecord
100
AcDbBlockTableRecord
  2
*D28
  0
BLOCK_RECORD
  5
7E4
330
1
100
AcDbSymbolTableRecord
100
AcDbBlockTableRecord
  2
*D29
  0
BLOCK_RECORD
  5
84E
330
1
100
AcDbSymbolTableRecord
100
AcDbBlockTableRecord
  2
A$C14019
  0
BLOCK_RECORD
  5
878
330
1
100
AcDbSymbolTableRecord
100
AcDbBlockTableRecord
  2
*D31
  0
BLOCK_RECORD
  5
888
330
1
100
AcDbSymbolTableRecord
100
AcDbBlockTableRecord
  2
*D32
  0
BLOCK_RECORD
  5
974
330
1
100
AcDbSymbolTableRecord
100
AcDbBlockTableRecord
  2
*D33
  0
BLOCK_RECORD
  5
984
330
1
100
AcDbSymbolTableRecord
100
AcDbBlockTableRecord
  2
*D34
  0
BLOCK_RECORD
  5
994
330
1
100
AcDbSymbolTableRecord
100
AcDbBlockTableRecord
  2
*D35
  0
BLOCK_RECORD
  5
A12
330
1
100
AcDbSymbolTableRecord
100
AcDbBlockTableRecord
  2
*D36
  0
BLOCK_RECORD
  5
A22
330
1
100
AcDbSymbolTableRecord
100
AcDbBlockTableRecord
  2
*D37
  0
BLOCK_RECORD
  5
A32
330
1
100
AcDbSymbolTableRecord
100
AcDbBlockTableRecord
  2
*D38
  0
BLOCK_RECORD
  5
A42
330
1
100
AcDbSymbolTableRecord
100
AcDbBlockTableRecord
  2
*D39
  0
BLOCK_RECORD
  5
BAA
330
1
100
AcDbSymbolTableRecord
100
AcDbBlockTableRecord
  2
*D40
  0
BLOCK_RECORD
  5
BBA
330
1
100
AcDbSymbolTableRecord
100
AcDbBlockTableRecord
  2
*D41
  0
BLOCK_RECORD
  5
BD1
330
1
100
AcDbSymbolTableRecord
100
AcDbBlockTableRecord
  2
*D42
  0
BLOCK_RECORD
  5
C67
330
1
100
AcDbSymbolTableRecord
100
AcDbBlockTableRecord
  2
*D43
  0
BLOCK_RECORD
  5
D71
330
1
100
AcDbSymbolTableRecord
100
AcDbBlockTableRecord
  2
*D44
  0
ENDTAB
  0
ENDSEC
  0
SECTION
  2
BLOCKS
  0
BLOCK
  5
20
330
1F
100
AcDbEntity
  8
0
100
AcDbBlockBegin
  2
*MODEL_SPACE
 70
     0
 10
0.0
 20
0.0
 30
0.0
  3
*MODEL_SPACE
  1

  0
ENDBLK
  5
21
330
1F
100
AcDbEntity
  8
0
100
AcDbBlockEnd
  0
BLOCK
  5
5A
330
58
100
AcDbEntity
 67
     1
  8
0
100
AcDbBlockBegin
  2
*PAPER_SPACE
 70
     0
 10
0.0
 20
0.0
 30
0.0
  3
*PAPER_SPACE
  1

  0
ENDBLK
  5
5B
330
58
100
AcDbEntity
 67
     1
  8
0
100
AcDbBlockEnd
  0
BLOCK
  5
5F
330
5D
100
AcDbEntity
  8
0
100
AcDbBlockBegin
  2
*PAPER_SPACE0
 70
     0
 10
0.0
 20
0.0
 30
0.0
  3
*PAPER_SPACE0
  1

  0
ENDBLK
  5
60
330
5D
100
AcDbEntity
  8
0
100
AcDbBlockEnd
  0
BLOCK
  5
1F9
330
1CF
100
AcDbEntity
  8
0
100
AcDbBlockBegin
  2
A$C1029
 70
     0
 10
0.0
 20
0.0
 30
0.0
  3
A$C1029
  1

  0
LINE
  5
1F1
330
1CF
100
AcDbEntity
  8
0
100
AcDbLine
 10
-0.375
 20
0.125
 30
0.0
 11
-0.375
 21
0.625
 31
0.0
  0
LINE
  5
1F2
330
1CF
100
AcDbEntity
  8
0
100
AcDbLine
 10
-0.25
 20
0.75
 30
0.0
 11
0.25
 21
0.75
 31
0.0
  0
LINE
  5
1F3
330
1CF
100
AcDbEntity
  8
0
100
AcDbLine
 10
0.375
 20
0.625
 30
0.0
 11
0.375
 21
0.125
 31
0.0
  0
LINE
  5
1F4
330
1CF
100
AcDbEntity
  8
0
100
AcDbLine
 10
0.25
 20
0.0
 30
0.0
 11
-0.25
 21
0.0
 31
0.0
  0
ARC
  5
1F5
330
1CF
100
AcDbEntity
  8
0
100
AcDbCircle
 10
-0.25
 20
0.625
 30
0.0
 40
0.1250000000000001
100
AcDbArc
 50
90.0
 51
180.0
  0
ARC
  5
1F6
330
1CF
100
AcDbEntity
  8
0
100
AcDbCircle
 10
0.25
 20
0.625
 30
0.0
 40
0.1250000000000001
100
AcDbArc
 50
0.0
 51
90.0
  0
ARC
  5
1F7
330
1CF
100
AcDbEntity
  8
0
100
AcDbCircle
 10
0.25
 20
0.125
 30
0.0
 40
0.1250000000000001
100
AcDbArc
 50
270.0
 51
0.0
  0
ARC
  5
1F8
330
1CF
100
AcDbEntity
  8
0
100
AcDbCircle
 10
-0.25
 20
0.125
 30
0.0
 40
0.1250000000000001
100
AcDbArc
 50
180.0
 51
270.0
  0
ENDBLK
  5
1FA
330
1CF
100
AcDbEntity
  8
0
100
AcDbBlockEnd
  0
BLOCK
  5
226
330
1FC
100
AcDbEntity
  8
0
100
AcDbBlockBegin
  2
A$C18190
 70
     0
 10
0.0
 20
0.0
 30
0.0
  3
A$C18190
  1

  0
LINE
  5
21E
330
1FC
100
AcDbEntity
  8
0
100
AcDbLine
 10
-0.375
 20
0.125
 30
0.0
 11
-0.375
 21
0.625
 31
0.0
  0
LINE
  5
21F
330
1FC
100
AcDbEntity
  8
0
100
AcDbLine
 10
-0.25
 20
0.75
 30
0.0
 11
0.25
 21
0.75
 31
0.0
  0
LINE
  5
220
330
1FC
100
AcDbEntity
  8
0
100
AcDbLine
 10
0.375
 20
0.625
 30
0.0
 11
0.375
 21
0.125
 31
0.0
  0
LINE
  5
221
330
1FC
100
AcDbEntity
  8
0
100
AcDbLine
 10
0.25
 20
0.0
 30
0.0
 11
-0.25
 21
0.0
 31
0.0
  0
ARC
  5
222
330
1FC
100
AcDbEntity
  8
0
100
AcDbCircle
 10
-0.25
 20
0.625
 30
0.0
 40
0.1250000000000001
100
AcDbArc
 50
90.0
 51
180.0
  0
ARC
  5
223
330
1FC
100
AcDbEntity
  8
0
100
AcDbCircle
 10
0.25
 20
0.625
 30
0.0
 40
0.1250000000000001
100
AcDbArc
 50
0.0
 51
90.0
  0
ARC
  5
224
330
1FC
100
AcDbEntity
  8
0
100
AcDbCircle
 10
0.25
 20
0.125
 30
0.0
 40
0.1250000000000001
100
AcDbArc
 50
270.0
 51
0.0
  0
ARC
  5
225
330
1FC
100
AcDbEntity
  8
0
100
AcDbCircle
 10
-0.25
 20
0.125
 30
0.0
 40
0.1250000000000001
100
AcDbArc
 50
180.0
 51
270.0
  0
ENDBLK
  5
227
330
1FC
100
AcDbEntity
  8
0
100
AcDbBlockEnd
  0
BLOCK
  5
253
330
229
100
AcDbEntity
  8
0
100
AcDbBlockBegin
  2
A$C26811
 70
     0
 10
0.0
 20
0.0
 30
0.0
  3
A$C26811
  1

  0
LINE
  5
24B
330
229
100
AcDbEntity
  8
0
100
AcDbLine
 10
-0.375
 20
0.125
 30
0.0
 11
-0.375
 21
0.625
 31
0.0
  0
LINE
  5
24C
330
229
100
AcDbEntity
  8
0
100
AcDbLine
 10
-0.25
 20
0.75
 30
0.0
 11
0.25
 21
0.75
 31
0.0
  0
LINE
  5
24D
330
229
100
AcDbEntity
  8
0
100
AcDbLine
 10
0.375
 20
0.625
 30
0.0
 11
0.375
 21
0.125
 31
0.0
  0
LINE
  5
24E
330
229
100
AcDbEntity
  8
0
100
AcDbLine
 10
0.25
 20
0.0
 30
0.0
 11
-0.25
 21
0.0
 31
0.0
  0
ARC
  5
24F
330
229
100
AcDbEntity
  8
0
100
AcDbCircle
 10
-0.25
 20
0.625
 30
0.0
 40
0.1250000000000001
100
AcDbArc
 50
90.0
 51
180.0
  0
ARC
  5
250
330
229
100
AcDbEntity
  8
0
100
AcDbCircle
 10
0.25
 20
0.625
 30
0.0
 40
0.1250000000000001
100
AcDbArc
 50
0.0
 51
90.0
  0
ARC
  5
251
330
229
100
AcDbEntity
  8
0
100
AcDbCircle
 10
0.25
 20
0.125
 30
0.0
 40
0.1250000000000001
100
AcDbArc
 50
270.0
 51
0.0
  0
ARC
  5
252
330
229
100
AcDbEntity
  8
0
100
AcDbCircle
 10
-0.25
 20
0.125
 30
0.0
 40
0.1250000000000001
100
AcDbArc
 50
180.0
 51
270.0
  0
ENDBLK
  5
254
330
229
100
AcDbEntity
  8
0
100
AcDbBlockEnd
  0
BLOCK
  5
280
330
256
100
AcDbEntity
  8
0
100
AcDbBlockBegin
  2
A$C904
 70
     0
 10
0.0
 20
0.0
 30
0.0
  3
A$C904
  1

  0
LINE
  5
278
330
256
100
AcDbEntity
  8
0
100
AcDbLine
 10
-0.375
 20
0.125
 30
0.0
 11
-0.375
 21
0.625
 31
0.0
  0
LINE
  5
279
330
256
100
AcDbEntity
  8
0
100
AcDbLine
 10
-0.25
 20
0.75
 30
0.0
 11
0.25
 21
0.75
 31
0.0
  0
LINE
  5
27A
330
256
100
AcDbEntity
  8
0
100
AcDbLine
 10
0.375
 20
0.625
 30
0.0
 11
0.375
 21
0.125
 31
0.0
  0
LINE
  5
27B
330
256
100
AcDbEntity
  8
0
100
AcDbLine
 10
0.25
 20
0.0
 30
0.0
 11
-0.25
 21
0.0
 31
0.0
  0
ARC
  5
27C
330
256
100
AcDbEntity
  8
0
100
AcDbCircle
 10
-0.25
 20
0.625
 30
0.0
 40
0.1250000000000001
100
AcDbArc
 50
90.0
 51
180.0
  0
ARC
  5
27D
330
256
100
AcDbEntity
  8
0
100
AcDbCircle
 10
0.25
 20
0.625
 30
0.0
 40
0.1250000000000001
100
AcDbArc
 50
0.0
 51
90.0
  0
ARC
  5
27E
330
256
100
AcDbEntity
  8
0
100
AcDbCircle
 10
0.25
 20
0.125
 30
0.0
 40
0.1250000000000001
100
AcDbArc
 50
270.0
 51
0.0
  0
ARC
  5
27F
330
256
100
AcDbEntity
  8
0
100
AcDbCircle
 10
-0.25
 20
0.125
 30
0.0
 40
0.1250000000000001
100
AcDbArc
 50
180.0
 51
270.0
  0
ENDBLK
  5
281
330
256
100
AcDbEntity
  8
0
100
AcDbBlockEnd
  0
BLOCK
  5
354
330
353
100
AcDbEntity
  8
0
100
AcDbBlockBegin
  2
*D5
 70
     1
 10
0.0
 20
0.0
 30
0.0
  3
*D5
  1

  0
LINE
  5
356
330
353
100
AcDbEntity
  8
0
 62
     0
100
AcDbLine
 10
4.700086105675145
 20
2.23237084148728
 30
0.0
 11
4.700086105675145
 21
1.679712590648814
 31
0.0
  0
LINE
  5
357
330
353
100
AcDbEntity
  8
0
 62
     0
100
AcDbLine
 10
7.325086105675145
 20
2.23237084148728
 30
0.0
 11
7.325086105675145
 21
1.679712590648814
 31
0.0
  0
LINE
  5
358
330
353
100
AcDbEntity
  8
0
 62
     0
100
AcDbLine
 10
4.880086105675145
 20
1.859712590648814
 30
0.0
 11
5.548186105675145
 21
1.859712590648814
 31
0.0
  0
LINE
  5
359
330
353
100
AcDbEntity
  8
0
 62
     0
100
AcDbLine
 10
7.145086105675145
 20
1.859712590648814
 30
0.0
 11
6.476986105675144
 21
1.859712590648814
 31
0.0
  0
SOLID
  5
35A
330
353
100
AcDbEntity
  8
0
 62
     0
100
AcDbTrace
 10
4.880086105675145
 20
1.889712590648814
 30
0.0
 11
4.880086105675145
 21
1.829712590648814
 31
0.0
 12
4.700086105675145
 22
1.859712590648814
 32
0.0
 13
4.700086105675145
 23
1.859712590648814
 33
0.0
  0
SOLID
  5
35B
330
353
100
AcDbEntity
  8
0
 62
     0
100
AcDbTrace
 10
7.145086105675145
 20
1.829712590648814
 30
0.0
 11
7.145086105675145
 21
1.889712590648814
 31
0.0
 12
7.325086105675145
 22
1.859712590648814
 32
0.0
 13
7.325086105675145
 23
1.859712590648814
 33
0.0
  0
MTEXT
  5
35C
330
353
100
AcDbEntity
  8
0
 62
     0
100
AcDbMText
 10
6.012586105675145
 20
1.859712590648814
 30
0.0
 40
0.18
 41
0.0
 71
     5
 72
     1
  1
\A1;2.6250
  0
POINT
  5
35D
330
353
100
AcDbEntity
  8
DEFPOINTS
 62
     0
100
AcDbPoint
 10
4.700086105675145
 20
2.29487084148728
 30
0.0
  0
POINT
  5
35E
330
353
100
AcDbEntity
  8
DEFPOINTS
 62
     0
100
AcDbPoint
 10
7.325086105675145
 20
2.29487084148728
 30
0.0
  0
POINT
  5
35F
330
353
100
AcDbEntity
  8
DEFPOINTS
 62
     0
100
AcDbPoint
 10
7.325086105675145
 20
1.859712590648814
 30
0.0
  0
ENDBLK
  5
355
330
353
100
AcDbEntity
  8
0
100
AcDbBlockEnd
  0
BLOCK
  5
364
330
363
100
AcDbEntity
  8
0
100
AcDbBlockBegin
  2
*D6
 70
     1
 10
0.0
 20
0.0
 30
0.0
  3
*D6
  1

  0
LINE
  5
366
330
363
100
AcDbEntity
  8
0
 62
     0
100
AcDbLine
 10
7.262586105675145
 20
2.16987084148728
 30
0.0
 11
8.176482243359152
 21
2.16987084148728
 31
0.0
  0
LINE
  5
367
330
363
100
AcDbEntity
  8
0
 62
     0
100
AcDbLine
 10
7.262586105675145
 20
3.85737084148728
 30
0.0
 11
8.176482243359152
 21
3.85737084148728
 31
0.0
  0
LINE
  5
368
330
363
100
AcDbEntity
  8
0
 62
     0
100
AcDbLine
 10
7.996482243359152
 20
2.34987084148728
 30
0.0
 11
7.996482243359152
 21
2.831730841487281
 31
0.0
  0
LINE
  5
369
330
363
100
AcDbEntity
  8
0
 62
     0
100
AcDbLine
 10
7.996482243359152
 20
3.67737084148728
 30
0.0
 11
7.996482243359152
 21
3.19551084148728
 31
0.0
  0
SOLID
  5
36A
330
363
100
AcDbEntity
  8
0
 62
     0
100
AcDbTrace
 10
7.966482243359152
 20
2.34987084148728
 30
0.0
 11
8.026482243359151
 21
2.34987084148728
 31
0.0
 12
7.996482243359152
 22
2.16987084148728
 32
0.0
 13
7.996482243359152
 23
2.16987084148728
 33
0.0
  0
SOLID
  5
36B
330
363
100
AcDbEntity
  8
0
 62
     0
100
AcDbTrace
 10
8.026482243359151
 20
3.67737084148728
 30
0.0
 11
7.966482243359152
 21
3.67737084148728
 31
0.0
 12
7.996482243359152
 22
3.85737084148728
 32
0.0
 13
7.996482243359152
 23
3.85737084148728
 33
0.0
  0
MTEXT
  5
36C
330
363
100
AcDbEntity
  8
0
 62
     0
100
AcDbMText
 10
7.996482243359152
 20
3.01362084148728
 30
0.0
 40
0.18
 41
0.0
 71
     5
 72
     1
  1
\A1;1.6875
  0
POINT
  5
36D
330
363
100
AcDbEntity
  8
DEFPOINTS
 62
     0
100
AcDbPoint
 10
7.200086105675145
 20
2.16987084148728
 30
0.0
  0
POINT
  5
36E
330
363
100
AcDbEntity
  8
DEFPOINTS
 62
     0
100
AcDbPoint
 10
7.200086105675145
 20
3.85737084148728
 30
0.0
  0
POINT
  5
36F
330
363
100
AcDbEntity
  8
DEFPOINTS
 62
     0
100
AcDbPoint
 10
7.996482243359152
 20
3.85737084148728
 30
0.0
  0
ENDBLK
  5
365
330
363
100
AcDbEntity
  8
0
100
AcDbBlockEnd
  0
BLOCK
  5
3A8
330
3A7
100
AcDbEntity
  8
0
100
AcDbBlockBegin
  2
*D7
 70
     1
 10
0.0
 20
0.0
 30
0.0
  3
*D7
  1

  0
LINE
  5
3AA
330
3A7
100
AcDbEntity
  8
0
 62
     0
100
AcDbLine
 10
6.970592521174773
 20
7.949546997309194
 30
0.0
 11
6.970592521174773
 21
8.66823242734744
 31
0.0
  0
LINE
  5
3AB
330
3A7
100
AcDbEntity
  8
0
 62
     0
100
AcDbLine
 10
10.34559252117478
 20
7.949546997309194
 30
0.0
 11
10.34559252117478
 21
8.66823242734744
 31
0.0
  0
LINE
  5
3AC
330
3A7
100
AcDbEntity
  8
0
 62
     0
100
AcDbLine
 10
7.150592521174772
 20
8.488232427347441
 30
0.0
 11
8.195312521174774
 21
8.488232427347441
 31
0.0
  0
LINE
  5
3AD
330
3A7
100
AcDbEntity
  8
0
 62
     0
100
AcDbLine
 10
10.16559252117478
 20
8.488232427347441
 30
0.0
 11
9.120872521174775
 21
8.488232427347441
 31
0.0
  0
SOLID
  5
3AE
330
3A7
100
AcDbEntity
  8
0
 62
     0
100
AcDbTrace
 10
7.150592521174772
 20
8.51823242734744
 30
0.0
 11
7.150592521174772
 21
8.458232427347442
 31
0.0
 12
6.970592521174773
 22
8.488232427347441
 32
0.0
 13
6.970592521174773
 23
8.488232427347441
 33
0.0
  0
SOLID
  5
3AF
330
3A7
100
AcDbEntity
  8
0
 62
     0
100
AcDbTrace
 10
10.16559252117478
 20
8.458232427347442
 30
0.0
 11
10.16559252117478
 21
8.51823242734744
 31
0.0
 12
10.34559252117478
 22
8.488232427347441
 32
0.0
 13
10.34559252117478
 23
8.488232427347441
 33
0.0
  0
MTEXT
  5
3B0
330
3A7
100
AcDbEntity
  8
0
 62
     0
100
AcDbMText
 10
8.658092521174774
 20
8.488232427347441
 30
0.0
 40
0.18
 41
0.0
 71
     5
 72
     1
  1
\A1;3.3750
  0
POINT
  5
3B1
330
3A7
100
AcDbEntity
  8
DEFPOINTS
 62
     0
100
AcDbPoint
 10
6.970592521174773
 20
7.887046997309194
 30
0.0
  0
POINT
  5
3B2
330
3A7
100
AcDbEntity
  8
DEFPOINTS
 62
     0
100
AcDbPoint
 10
10.34559252117478
 20
7.887046997309194
 30
0.0
  0
POINT
  5
3B3
330
3A7
100
AcDbEntity
  8
DEFPOINTS
 62
     0
100
AcDbPoint
 10
10.34559252117478
 20
8.488232427347441
 30
0.0
  0
ENDBLK
  5
3A9
330
3A7
100
AcDbEntity
  8
0
100
AcDbBlockEnd
  0
BLOCK
  5
3B8
330
3B7
100
AcDbEntity
  8
0
100
AcDbBlockBegin
  2
*D8
 70
     1
 10
0.0
 20
0.0
 30
0.0
  3
*D8
  1

  0
LINE
  5
3BA
330
3B7
100
AcDbEntity
  8
0
 62
     0
100
AcDbLine
 10
7.220592521174773
 20
8.199546997309195
 30
0.0
 11
6.294227780894008
 21
8.199546997309195
 31
0.0
  0
LINE
  5
3BB
330
3B7
100
AcDbEntity
  8
0
 62
     0
100
AcDbLine
 10
7.220592521174773
 20
5.762046997309193
 30
0.0
 11
6.294227780894008
 21
5.762046997309193
 31
0.0
  0
LINE
  5
3BC
330
3B7
100
AcDbEntity
  8
0
 62
     0
100
AcDbLine
 10
6.474227780894008
 20
8.019546997309195
 30
0.0
 11
6.474227780894008
 21
7.162686997309194
 31
0.0
  0
LINE
  5
3BD
330
3B7
100
AcDbEntity
  8
0
 62
     0
100
AcDbLine
 10
6.474227780894008
 20
5.942046997309193
 30
0.0
 11
6.474227780894008
 21
6.798906997309194
 31
0.0
  0
SOLID
  5
3BE
330
3B7
100
AcDbEntity
  8
0
 62
     0
100
AcDbTrace
 10
6.504227780894008
 20
8.019546997309195
 30
0.0
 11
6.444227780894008
 21
8.019546997309195
 31
0.0
 12
6.474227780894008
 22
8.199546997309195
 32
0.0
 13
6.474227780894008
 23
8.199546997309195
 33
0.0
  0
SOLID
  5
3BF
330
3B7
100
AcDbEntity
  8
0
 62
     0
100
AcDbTrace
 10
6.444227780894008
 20
5.942046997309193
 30
0.0
 11
6.504227780894008
 21
5.942046997309193
 31
0.0
 12
6.474227780894008
 22
5.762046997309193
 32
0.0
 13
6.474227780894008
 23
5.762046997309193
 33
0.0
  0
MTEXT
  5
3C0
330
3B7
100
AcDbEntity
  8
0
 62
     0
100
AcDbMText
 10
6.474227780894008
 20
6.980796997309194
 30
0.0
 40
0.18
 41
0.0
 71
     5
 72
     1
  1
\A1;2.4375
  0
POINT
  5
3C1
330
3B7
100
AcDbEntity
  8
DEFPOINTS
 62
     0
100
AcDbPoint
 10
7.283092521174773
 20
8.199546997309195
 30
0.0
  0
POINT
  5
3C2
330
3B7
100
AcDbEntity
  8
DEFPOINTS
 62
     0
100
AcDbPoint
 10
7.283092521174773
 20
5.762046997309193
 30
0.0
  0
POINT
  5
3C3
330
3B7
100
AcDbEntity
  8
DEFPOINTS
 62
     0
100
AcDbPoint
 10
6.474227780894008
 20
5.762046997309193
 30
0.0
  0
ENDBLK
  5
3B9
330
3B7
100
AcDbEntity
  8
0
100
AcDbBlockEnd
  0
BLOCK
  5
3C9
330
3C8
100
AcDbEntity
  8
0
100
AcDbBlockBegin
  2
*D9
 70
     1
 10
0.0
 20
0.0
 30
0.0
  3
*D9
  1

  0
LINE
  5
3CB
330
3C8
100
AcDbEntity
  8
0
 62
     0
100
AcDbLine
 10
10.93402676328148
 20
8.333850900928654
 30
0.0
 11
10.75402676328148
 21
8.333850900928654
 31
0.0
  0
LINE
  5
3CC
330
3C8
100
AcDbEntity
  8
0
 62
     0
100
AcDbLine
 10
10.75402676328148
 20
8.333850900928654
 30
0.0
 11
10.45171518407008
 21
8.146491242013987
 31
0.0
  0
MTEXT
  5
3CD
330
3C8
100
AcDbEntity
  8
0
 62
     0
100
AcDbMText
 10
11.48392676328148
 20
8.333850900928654
 30
0.0
 40
0.18
 41
0.0
 71
     5
 72
     1
  1
\A1;R0.3125
  0
SOLID
  5
3CE
330
3C8
100
AcDbEntity
  8
0
 62
     0
100
AcDbTrace
 10
10.43591147373273
 20
8.17199109965228
 30
0.0
 11
10.46751889440743
 21
8.120991384375694
 31
0.0
 12
10.29871603824033
 22
8.0516689799899
 32
0.0
 13
10.29871603824033
 23
8.0516689799899
 33
0.0
  0
LINE
  5
3CF
330
3C8
100
AcDbEntity
  8
0
 62
     0
100
AcDbLine
 10
9.988092521174776
 20
7.887046997309194
 30
0.0
 11
10.07809252117478
 21
7.887046997309194
 31
0.0
  0
LINE
  5
3D0
330
3C8
100
AcDbEntity
  8
0
 62
     0
100
AcDbLine
 10
10.03309252117478
 20
7.842046997309194
 30
0.0
 11
10.03309252117478
 21
7.932046997309194
 31
0.0
  0
POINT
  5
3D1
330
3C8
100
AcDbEntity
  8
DEFPOINTS
 62
     0
100
AcDbPoint
 10
10.29871603824033
 20
8.0516689799899
 30
0.0
  0
POINT
  5
3D2
330
3C8
100
AcDbEntity
  8
DEFPOINTS
 62
     0
100
AcDbPoint
 10
10.03309252117478
 20
7.887046997309194
 30
0.0
  0
ENDBLK
  5
3CA
330
3C8
100
AcDbEntity
  8
0
100
AcDbBlockEnd
  0
BLOCK
  5
409
330
408
100
AcDbEntity
  8
0
100
AcDbBlockBegin
  2
*D10
 70
     1
 10
0.0
 20
0.0
 30
0.0
  3
*D10
  1

  0
LINE
  5
40B
330
408
100
AcDbEntity
  8
0
 62
     0
100
AcDbLine
 10
2.274706457925635
 20
1.879939984124702
 30
0.0
 11
2.274706457925635
 21
2.726089157096156
 31
0.0
  0
LINE
  5
40C
330
408
100
AcDbEntity
  8
0
 62
     0
100
AcDbLine
 10
5.649706457925635
 20
1.879939984124702
 30
0.0
 11
5.649706457925635
 21
2.726089157096156
 31
0.0
  0
LINE
  5
40D
330
408
100
AcDbEntity
  8
0
 62
     0
100
AcDbLine
 10
2.454706457925635
 20
2.546089157096155
 30
0.0
 11
3.499426457925636
 21
2.546089157096155
 31
0.0
  0
LINE
  5
40E
330
408
100
AcDbEntity
  8
0
 62
     0
100
AcDbLine
 10
5.469706457925636
 20
2.546089157096155
 30
0.0
 11
4.424986457925635
 21
2.546089157096155
 31
0.0
  0
SOLID
  5
40F
330
408
100
AcDbEntity
  8
0
 62
     0
100
AcDbTrace
 10
2.454706457925635
 20
2.576089157096155
 30
0.0
 11
2.454706457925635
 21
2.516089157096156
 31
0.0
 12
2.274706457925635
 22
2.546089157096155
 32
0.0
 13
2.274706457925635
 23
2.546089157096155
 33
0.0
  0
SOLID
  5
410
330
408
100
AcDbEntity
  8
0
 62
     0
100
AcDbTrace
 10
5.469706457925636
 20
2.516089157096156
 30
0.0
 11
5.469706457925636
 21
2.576089157096155
 31
0.0
 12
5.649706457925635
 22
2.546089157096155
 32
0.0
 13
5.649706457925635
 23
2.546089157096155
 33
0.0
  0
MTEXT
  5
411
330
408
100
AcDbEntity
  8
0
 62
     0
100
AcDbMText
 10
3.962206457925635
 20
2.546089157096155
 30
0.0
 40
0.18
 41
0.0
 71
     5
 72
     1
  1
\A1;3.3750
  0
POINT
  5
412
330
408
100
AcDbEntity
  8
DEFPOINTS
 62
     0
100
AcDbPoint
 10
2.274706457925635
 20
1.817439984124702
 30
0.0
  0
POINT
  5
413
330
408
100
AcDbEntity
  8
DEFPOINTS
 62
     0
100
AcDbPoint
 10
5.649706457925635
 20
1.817439984124702
 30
0.0
  0
POINT
  5
414
330
408
100
AcDbEntity
  8
DEFPOINTS
 62
     0
100
AcDbPoint
 10
5.649706457925635
 20
2.546089157096155
 30
0.0
  0
ENDBLK
  5
40A
330
408
100
AcDbEntity
  8
0
100
AcDbBlockEnd
  0
BLOCK
  5
41A
330
419
100
AcDbEntity
  8
0
100
AcDbBlockBegin
  2
*D11
 70
     1
 10
0.0
 20
0.0
 30
0.0
  3
*D11
  1

  0
LINE
  5
41C
330
419
100
AcDbEntity
  8
0
 62
     0
100
AcDbLine
 10
2.462206457925635
 20
1.879939984124702
 30
0.0
 11
2.462206457925635
 21
2.453348460422966
 31
0.0
  0
LINE
  5
41D
330
419
100
AcDbEntity
  8
0
 62
     0
100
AcDbLine
 10
5.462206457925635
 20
1.879939984124702
 30
0.0
 11
5.462206457925635
 21
2.453348460422966
 31
0.0
  0
LINE
  5
41E
330
419
100
AcDbEntity
  8
0
 62
     0
100
AcDbLine
 10
2.642206457925635
 20
2.273348460422966
 30
0.0
 11
3.499426457925636
 21
2.273348460422966
 31
0.0
  0
LINE
  5
41F
330
419
100
AcDbEntity
  8
0
 62
     0
100
AcDbLine
 10
5.282206457925636
 20
2.273348460422966
 30
0.0
 11
4.424986457925635
 21
2.273348460422966
 31
0.0
  0
SOLID
  5
420
330
419
100
AcDbEntity
  8
0
 62
     0
100
AcDbTrace
 10
2.642206457925635
 20
2.303348460422966
 30
0.0
 11
2.642206457925635
 21
2.243348460422966
 31
0.0
 12
2.462206457925635
 22
2.273348460422966
 32
0.0
 13
2.462206457925635
 23
2.273348460422966
 33
0.0
  0
SOLID
  5
421
330
419
100
AcDbEntity
  8
0
 62
     0
100
AcDbTrace
 10
5.282206457925636
 20
2.243348460422966
 30
0.0
 11
5.282206457925636
 21
2.303348460422966
 31
0.0
 12
5.462206457925635
 22
2.273348460422966
 32
0.0
 13
5.462206457925635
 23
2.273348460422966
 33
0.0
  0
MTEXT
  5
422
330
419
100
AcDbEntity
  8
0
 62
     0
100
AcDbMText
 10
3.962206457925635
 20
2.273348460422966
 30
0.0
 40
0.18
 41
0.0
 71
     5
 72
     1
  1
\A1;3.0000
  0
POINT
  5
423
330
419
100
AcDbEntity
  8
DEFPOINTS
 62
     0
100
AcDbPoint
 10
2.462206457925635
 20
1.817439984124702
 30
0.0
  0
POINT
  5
424
330
419
100
AcDbEntity
  8
DEFPOINTS
 62
     0
100
AcDbPoint
 10
5.462206457925635
 20
1.817439984124702
 30
0.0
  0
POINT
  5
425
330
419
100
AcDbEntity
  8
DEFPOINTS
 62
     0
100
AcDbPoint
 10
5.462206457925635
 20
2.273348460422966
 30
0.0
  0
ENDBLK
  5
41B
330
419
100
AcDbEntity
  8
0
100
AcDbBlockEnd
  0
BLOCK
  5
42B
330
42A
100
AcDbEntity
  8
0
100
AcDbBlockBegin
  2
*D12
 70
     1
 10
0.0
 20
0.0
 30
0.0
  3
*D12
  1

  0
LINE
  5
42D
330
42A
100
AcDbEntity
  8
0
 62
     0
100
AcDbLine
 10
2.587206457925635
 20
1.629939984124702
 30
0.0
 11
2.587206457925635
 21
1.201366307781087
 31
0.0
  0
LINE
  5
42E
330
42A
100
AcDbEntity
  8
0
 62
     0
100
AcDbLine
 10
5.337206457925635
 20
1.629939984124702
 30
0.0
 11
5.337206457925635
 21
1.201366307781087
 31
0.0
  0
LINE
  5
42F
330
42A
100
AcDbEntity
  8
0
 62
     0
100
AcDbLine
 10
2.767206457925635
 20
1.381366307781087
 30
0.0
 11
3.497806457925636
 21
1.381366307781087
 31
0.0
  0
LINE
  5
430
330
42A
100
AcDbEntity
  8
0
 62
     0
100
AcDbLine
 10
5.157206457925636
 20
1.381366307781087
 30
0.0
 11
4.426606457925635
 21
1.381366307781087
 31
0.0
  0
SOLID
  5
431
330
42A
100
AcDbEntity
  8
0
 62
     0
100
AcDbTrace
 10
2.767206457925635
 20
1.411366307781087
 30
0.0
 11
2.767206457925635
 21
1.351366307781087
 31
0.0
 12
2.587206457925635
 22
1.381366307781087
 32
0.0
 13
2.587206457925635
 23
1.381366307781087
 33
0.0
  0
SOLID
  5
432
330
42A
100
AcDbEntity
  8
0
 62
     0
100
AcDbTrace
 10
5.157206457925636
 20
1.351366307781087
 30
0.0
 11
5.157206457925636
 21
1.411366307781087
 31
0.0
 12
5.337206457925635
 22
1.381366307781087
 32
0.0
 13
5.337206457925635
 23
1.381366307781087
 33
0.0
  0
MTEXT
  5
433
330
42A
100
AcDbEntity
  8
0
 62
     0
100
AcDbMText
 10
3.962206457925635
 20
1.381366307781087
 30
0.0
 40
0.18
 41
0.0
 71
     5
 72
     1
  1
\A1;2.7500
  0
POINT
  5
434
330
42A
100
AcDbEntity
  8
DEFPOINTS
 62
     0
100
AcDbPoint
 10
2.587206457925635
 20
1.692439984124702
 30
0.0
  0
POINT
  5
435
330
42A
100
AcDbEntity
  8
DEFPOINTS
 62
     0
100
AcDbPoint
 10
5.337206457925635
 20
1.692439984124702
 30
0.0
  0
POINT
  5
436
330
42A
100
AcDbEntity
  8
DEFPOINTS
 62
     0
100
AcDbPoint
 10
5.337206457925635
 20
1.381366307781087
 30
0.0
  0
ENDBLK
  5
42C
330
42A
100
AcDbEntity
  8
0
100
AcDbBlockEnd
  0
BLOCK
  5
445
330
444
100
AcDbEntity
  8
0
100
AcDbBlockBegin
  2
*D13
 70
     1
 10
0.0
 20
0.0
 30
0.0
  3
*D13
  1

  0
LINE
  5
447
330
444
100
AcDbEntity
  8
0
 62
     0
100
AcDbLine
 10
5.399706457925635
 20
-0.8922597497304823
 30
0.0
 11
6.523099805970126
 21
-0.8922597497304823
 31
0.0
  0
LINE
  5
448
330
444
100
AcDbEntity
  8
0
 62
     0
100
AcDbLine
 10
5.399706457925634
 20
-1.902259749730486
 30
0.0
 11
6.523099805970126
 21
-1.902259749730486
 31
0.0
  0
LINE
  5
449
330
444
100
AcDbEntity
  8
0
 62
     0
100
AcDbLine
 10
6.343099805970126
 20
-1.072259749730482
 30
0.0
 11
6.343099805970126
 21
-1.215369749730484
 31
0.0
  0
LINE
  5
44A
330
444
100
AcDbEntity
  8
0
 62
     0
100
AcDbLine
 10
6.343099805970126
 20
-1.722259749730486
 30
0.0
 11
6.343099805970126
 21
-1.579149749730484
 31
0.0
  0
SOLID
  5
44B
330
444
100
AcDbEntity
  8
0
 62
     0
100
AcDbTrace
 10
6.373099805970126
 20
-1.072259749730482
 30
0.0
 11
6.313099805970126
 21
-1.072259749730482
 31
0.0
 12
6.343099805970126
 22
-0.8922597497304823
 32
0.0
 13
6.343099805970126
 23
-0.8922597497304823
 33
0.0
  0
SOLID
  5
44C
330
444
100
AcDbEntity
  8
0
 62
     0
100
AcDbTrace
 10
6.313099805970126
 20
-1.722259749730486
 30
0.0
 11
6.373099805970126
 21
-1.722259749730486
 31
0.0
 12
6.343099805970126
 22
-1.902259749730486
 32
0.0
 13
6.343099805970126
 23
-1.902259749730486
 33
0.0
  0
MTEXT
  5
44D
330
444
100
AcDbEntity
  8
0
 62
     0
100
AcDbMText
 10
6.343099805970126
 20
-1.397259749730484
 30
0.0
 40
0.18
 41
0.0
 71
     5
 72
     1
  1
\A1;1.0100
  0
POINT
  5
44E
330
444
100
AcDbEntity
  8
DEFPOINTS
 62
     0
100
AcDbPoint
 10
5.337206457925635
 20
-0.8922597497304823
 30
0.0
  0
POINT
  5
44F
330
444
100
AcDbEntity
  8
DEFPOINTS
 62
     0
100
AcDbPoint
 10
5.337206457925634
 20
-1.902259749730486
 30
0.0
  0
POINT
  5
450
330
444
100
AcDbEntity
  8
DEFPOINTS
 62
     0
100
AcDbPoint
 10
6.343099805970126
 20
-1.902259749730486
 30
0.0
  0
ENDBLK
  5
446
330
444
100
AcDbEntity
  8
0
100
AcDbBlockEnd
  0
BLOCK
  5
456
330
455
100
AcDbEntity
  8
0
100
AcDbBlockBegin
  2
*D14
 70
     1
 10
0.0
 20
0.0
 30
0.0
  3
*D14
  1

  0
LINE
  5
458
330
455
100
AcDbEntity
  8
0
 62
     0
100
AcDbLine
 10
6.400073385518585
 20
-0.7772597497304847
 30
0.0
 11
4.919004868244875
 21
-0.7772597497304847
 31
0.0
  0
LINE
  5
459
330
455
100
AcDbEntity
  8
0
 62
     0
100
AcDbLine
 10
6.400073385518585
 20
-2.027259749730486
 30
0.0
 11
4.919004868244875
 21
-2.027259749730486
 31
0.0
  0
LINE
  5
45A
330
455
100
AcDbEntity
  8
0
 62
     0
100
AcDbLine
 10
5.099004868244875
 20
-0.9572597497304847
 30
0.0
 11
5.099004868244875
 21
-1.220369749730485
 31
0.0
  0
LINE
  5
45B
330
455
100
AcDbEntity
  8
0
 62
     0
100
AcDbLine
 10
5.099004868244875
 20
-1.847259749730486
 30
0.0
 11
5.099004868244875
 21
-1.584149749730486
 31
0.0
  0
SOLID
  5
45C
330
455
100
AcDbEntity
  8
0
 62
     0
100
AcDbTrace
 10
5.129004868244875
 20
-0.9572597497304847
 30
0.0
 11
5.069004868244875
 21
-0.9572597497304847
 31
0.0
 12
5.099004868244875
 22
-0.7772597497304847
 32
0.0
 13
5.099004868244875
 23
-0.7772597497304847
 33
0.0
  0
SOLID
  5
45D
330
455
100
AcDbEntity
  8
0
 62
     0
100
AcDbTrace
 10
5.069004868244875
 20
-1.847259749730486
 30
0.0
 11
5.129004868244875
 21
-1.847259749730486
 31
0.0
 12
5.099004868244875
 22
-2.027259749730486
 32
0.0
 13
5.099004868244875
 23
-2.027259749730486
 33
0.0
  0
MTEXT
  5
45E
330
455
100
AcDbEntity
  8
0
 62
     0
100
AcDbMText
 10
5.099004868244875
 20
-1.402259749730485
 30
0.0
 40
0.18
 41
0.0
 71
     5
 72
     1
  1
\A1;1.2500
  0
POINT
  5
45F
330
455
100
AcDbEntity
  8
DEFPOINTS
 62
     0
100
AcDbPoint
 10
6.462573385518585
 20
-0.7772597497304847
 30
0.0
  0
POINT
  5
460
330
455
100
AcDbEntity
  8
DEFPOINTS
 62
     0
100
AcDbPoint
 10
6.462573385518585
 20
-2.027259749730486
 30
0.0
  0
POINT
  5
461
330
455
100
AcDbEntity
  8
DEFPOINTS
 62
     0
100
AcDbPoint
 10
5.099004868244875
 20
-2.027259749730486
 30
0.0
  0
ENDBLK
  5
457
330
455
100
AcDbEntity
  8
0
100
AcDbBlockEnd
  0
BLOCK
  5
466
330
465
100
AcDbEntity
  8
0
100
AcDbBlockBegin
  2
*D15
 70
     1
 10
0.0
 20
0.0
 30
0.0
  3
*D15
  1

  0
LINE
  5
468
330
465
100
AcDbEntity
  8
0
 62
     0
100
AcDbLine
 10
6.587573385518586
 20
-0.8922597497304823
 30
0.0
 11
5.540926559047223
 21
-0.8922597497304823
 31
0.0
  0
LINE
  5
469
330
465
100
AcDbEntity
  8
0
 62
     0
100
AcDbLine
 10
6.400073385518585
 20
-0.7772597497304847
 30
0.0
 11
5.540926559047223
 21
-0.7772597497304847
 31
0.0
  0
LINE
  5
46A
330
465
100
AcDbEntity
  8
0
 62
     0
100
AcDbLine
 10
5.720926559047223
 20
-0.4172597497304848
 30
0.0
 11
5.900926559047223
 21
-0.4172597497304848
 31
0.0
  0
LINE
  5
46B
330
465
100
AcDbEntity
  8
0
 62
     0
100
AcDbLine
 10
5.720926559047223
 20
-1.072259749730482
 30
0.0
 11
5.720926559047223
 21
-1.252259749730482
 31
0.0
  0
LINE
  5
46C
330
465
100
AcDbEntity
  8
0
 62
     0
100
AcDbLine
 10
5.720926559047223
 20
-0.5972597497304848
 30
0.0
 11
5.720926559047223
 21
-0.4172597497304848
 31
0.0
  0
SOLID
  5
46D
330
465
100
AcDbEntity
  8
0
 62
     0
100
AcDbTrace
 10
5.750926559047223
 20
-1.072259749730482
 30
0.0
 11
5.690926559047223
 21
-1.072259749730482
 31
0.0
 12
5.720926559047223
 22
-0.8922597497304823
 32
0.0
 13
5.720926559047223
 23
-0.8922597497304823
 33
0.0
  0
SOLID
  5
46E
330
465
100
AcDbEntity
  8
0
 62
     0
100
AcDbTrace
 10
5.690926559047223
 20
-0.5972597497304848
 30
0.0
 11
5.750926559047223
 21
-0.5972597497304848
 31
0.0
 12
5.720926559047223
 22
-0.7772597497304847
 32
0.0
 13
5.720926559047223
 23
-0.7772597497304847
 33
0.0
  0
MTEXT
  5
46F
330
465
100
AcDbEntity
  8
0
 62
     0
100
AcDbMText
 10
6.363796559047223
 20
-0.4172597497304847
 30
0.0
 40
0.18
 41
0.0
 71
     5
 72
     1
  1
\A1;0.1150
  0
POINT
  5
470
330
465
100
AcDbEntity
  8
DEFPOINTS
 62
     0
100
AcDbPoint
 10
6.650073385518586
 20
-0.8922597497304823
 30
0.0
  0
POINT
  5
471
330
465
100
AcDbEntity
  8
DEFPOINTS
 62
     0
100
AcDbPoint
 10
6.462573385518585
 20
-0.7772597497304847
 30
0.0
  0
POINT
  5
472
330
465
100
AcDbEntity
  8
DEFPOINTS
 62
     0
100
AcDbPoint
 10
5.720926559047223
 20
-0.7772597497304847
 30
0.0
  0
ENDBLK
  5
467
330
465
100
AcDbEntity
  8
0
100
AcDbBlockEnd
  0
BLOCK
  5
477
330
476
100
AcDbEntity
  8
0
100
AcDbBlockBegin
  2
*D16
 70
     1
 10
0.0
 20
0.0
 30
0.0
  3
*D16
  1

  0
LINE
  5
479
330
476
100
AcDbEntity
  8
0
 62
     0
100
AcDbLine
 10
9.587573385518585
 20
-1.892259749730486
 30
0.0
 11
10.69704597979086
 21
-1.892259749730486
 31
0.0
  0
LINE
  5
47A
330
476
100
AcDbEntity
  8
0
 62
     0
100
AcDbLine
 10
9.900073385518585
 20
-0.7772597497304847
 30
0.0
 11
10.69704597979086
 21
-0.7772597497304847
 31
0.0
  0
LINE
  5
47B
330
476
100
AcDbEntity
  8
0
 62
     0
100
AcDbLine
 10
10.51704597979086
 20
-1.712259749730486
 30
0.0
 11
10.51704597979086
 21
-1.516649749730485
 31
0.0
  0
LINE
  5
47C
330
476
100
AcDbEntity
  8
0
 62
     0
100
AcDbLine
 10
10.51704597979086
 20
-0.9572597497304847
 30
0.0
 11
10.51704597979086
 21
-1.152869749730485
 31
0.0
  0
SOLID
  5
47D
330
476
100
AcDbEntity
  8
0
 62
     0
100
AcDbTrace
 10
10.48704597979086
 20
-1.712259749730486
 30
0.0
 11
10.54704597979086
 21
-1.712259749730486
 31
0.0
 12
10.51704597979086
 22
-1.892259749730486
 32
0.0
 13
10.51704597979086
 23
-1.892259749730486
 33
0.0
  0
SOLID
  5
47E
330
476
100
AcDbEntity
  8
0
 62
     0
100
AcDbTrace
 10
10.54704597979086
 20
-0.9572597497304847
 30
0.0
 11
10.48704597979086
 21
-0.9572597497304847
 31
0.0
 12
10.51704597979086
 22
-0.7772597497304847
 32
0.0
 13
10.51704597979086
 23
-0.7772597497304847
 33
0.0
  0
MTEXT
  5
47F
330
476
100
AcDbEntity
  8
0
 62
     0
100
AcDbMText
 10
10.51704597979086
 20
-1.334759749730485
 30
0.0
 40
0.18
 41
0.0
 71
     5
 72
     1
  1
\A1;1.1150
  0
POINT
  5
480
330
476
100
AcDbEntity
  8
DEFPOINTS
 62
     0
100
AcDbPoint
 10
9.525073385518585
 20
-1.892259749730486
 30
0.0
  0
POINT
  5
481
330
476
100
AcDbEntity
  8
DEFPOINTS
 62
     0
100
AcDbPoint
 10
9.837573385518585
 20
-0.7772597497304847
 30
0.0
  0
POINT
  5
482
330
476
100
AcDbEntity
  8
DEFPOINTS
 62
     0
100
AcDbPoint
 10
10.51704597979086
 20
-0.7772597497304847
 30
0.0
  0
ENDBLK
  5
478
330
476
100
AcDbEntity
  8
0
100
AcDbBlockEnd
  0
BLOCK
  5
57B
330
57A
100
AcDbEntity
  8
0
100
AcDbBlockBegin
  2
*D17
 70
     1
 10
0.0
 20
0.0
 30
0.0
  3
*D17
  1

  0
LINE
  5
57D
330
57A
100
AcDbEntity
  8
0
 62
     0
100
AcDbLine
 10
15.07628583951749
 20
2.343673079557605
 30
0.0
 11
15.07628583951749
 21
3.953777050464063
 31
0.0
  0
LINE
  5
57E
330
57A
100
AcDbEntity
  8
0
 62
     0
100
AcDbLine
 10
18.0762858395175
 20
2.343673079557605
 30
0.0
 11
18.0762858395175
 21
3.953777050464063
 31
0.0
  0
LINE
  5
57F
330
57A
100
AcDbEntity
  8
0
 62
     0
100
AcDbLine
 10
15.25628583951749
 20
3.773777050464063
 30
0.0
 11
16.1135058395175
 21
3.773777050464063
 31
0.0
  0
LINE
  5
580
330
57A
100
AcDbEntity
  8
0
 62
     0
100
AcDbLine
 10
17.8962858395175
 20
3.773777050464063
 30
0.0
 11
17.03906583951749
 21
3.773777050464063
 31
0.0
  0
SOLID
  5
581
330
57A
100
AcDbEntity
  8
0
 62
     0
100
AcDbTrace
 10
15.25628583951749
 20
3.803777050464063
 30
0.0
 11
15.25628583951749
 21
3.743777050464063
 31
0.0
 12
15.07628583951749
 22
3.773777050464063
 32
0.0
 13
15.07628583951749
 23
3.773777050464063
 33
0.0
  0
SOLID
  5
582
330
57A
100
AcDbEntity
  8
0
 62
     0
100
AcDbTrace
 10
17.8962858395175
 20
3.743777050464063
 30
0.0
 11
17.8962858395175
 21
3.803777050464063
 31
0.0
 12
18.0762858395175
 22
3.773777050464063
 32
0.0
 13
18.0762858395175
 23
3.773777050464063
 33
0.0
  0
MTEXT
  5
583
330
57A
100
AcDbEntity
  8
0
 62
     0
100
AcDbMText
 10
16.5762858395175
 20
3.773777050464063
 30
0.0
 40
0.18
 41
0.0
 71
     5
 72
     1
  1
\A1;3.0000
  0
POINT
  5
584
330
57A
100
AcDbEntity
  8
DEFPOINTS
 62
     0
100
AcDbPoint
 10
15.07628583951749
 20
2.281173079557605
 30
0.0
  0
POINT
  5
585
330
57A
100
AcDbEntity
  8
DEFPOINTS
 62
     0
100
AcDbPoint
 10
18.0762858395175
 20
2.281173079557605
 30
0.0
  0
POINT
  5
586
330
57A
100
AcDbEntity
  8
DEFPOINTS
 62
     0
100
AcDbPoint
 10
18.0762858395175
 20
3.773777050464063
 30
0.0
  0
ENDBLK
  5
57C
330
57A
100
AcDbEntity
  8
0
100
AcDbBlockEnd
  0
BLOCK
  5
63A
330
639
100
AcDbEntity
  8
0
100
AcDbBlockBegin
  2
*D18
 70
     1
 10
0.0
 20
0.0
 30
0.0
  3
*D18
  1

  0
LINE
  5
63B
330
639
100
AcDbEntity
  8
0
 62
     0
100
AcDbLine
 10
-1.631201710818014
 20
0.6371679817281022
 30
0.0
 11
-1.631201710818014
 21
1.355853411766349
 31
0.0
  0
LINE
  5
63C
330
639
100
AcDbEntity
  8
0
 62
     0
100
AcDbLine
 10
1.743798289181985
 20
0.6371679817281022
 30
0.0
 11
1.743798289181985
 21
1.355853411766349
 31
0.0
  0
LINE
  5
63D
330
639
100
AcDbEntity
  8
0
 62
     0
100
AcDbLine
 10
-1.451201710818014
 20
1.175853411766349
 30
0.0
 11
-0.4064817108180145
 21
1.175853411766349
 31
0.0
  0
LINE
  5
63E
330
639
100
AcDbEntity
  8
0
 62
     0
100
AcDbLine
 10
1.563798289181985
 20
1.175853411766349
 30
0.0
 11
0.5190782891819854
 21
1.175853411766349
 31
0.0
  0
SOLID
  5
63F
330
639
100
AcDbEntity
  8
0
 62
     0
100
AcDbTrace
 10
-1.451201710818014
 20
1.205853411766349
 30
0.0
 11
-1.451201710818014
 21
1.145853411766349
 31
0.0
 12
-1.631201710818014
 22
1.175853411766349
 32
0.0
 13
-1.631201710818014
 23
1.175853411766349
 33
0.0
  0
SOLID
  5
640
330
639
100
AcDbEntity
  8
0
 62
     0
100
AcDbTrace
 10
1.563798289181985
 20
1.145853411766349
 30
0.0
 11
1.563798289181985
 21
1.205853411766349
 31
0.0
 12
1.743798289181985
 22
1.175853411766349
 32
0.0
 13
1.743798289181985
 23
1.175853411766349
 33
0.0
  0
MTEXT
  5
641
330
639
100
AcDbEntity
  8
0
 62
     0
100
AcDbMText
 10
0.0562982891819854
 20
1.175853411766349
 30
0.0
 40
0.18
 41
0.0
 71
     5
 72
     1
  1
\A1;3.3750
  0
POINT
  5
642
330
639
100
AcDbEntity
  8
DEFPOINTS
 62
     0
100
AcDbPoint
 10
-1.631201710818014
 20
0.5746679817281022
 30
0.0
  0
POINT
  5
643
330
639
100
AcDbEntity
  8
DEFPOINTS
 62
     0
100
AcDbPoint
 10
1.743798289181985
 20
0.5746679817281022
 30
0.0
  0
POINT
  5
644
330
639
100
AcDbEntity
  8
DEFPOINTS
 62
     0
100
AcDbPoint
 10
1.743798289181985
 20
1.175853411766349
 30
0.0
  0
ENDBLK
  5
645
330
639
100
AcDbEntity
  8
0
100
AcDbBlockEnd
  0
BLOCK
  5
648
330
647
100
AcDbEntity
  8
0
100
AcDbBlockBegin
  2
*D19
 70
     1
 10
0.0
 20
0.0
 30
0.0
  3
*D19
  1

  0
LINE
  5
649
330
647
100
AcDbEntity
  8
0
 62
     0
100
AcDbLine
 10
-1.381201710818014
 20
0.8871679817281022
 30
0.0
 11
-2.307566451098781
 21
0.8871679817281022
 31
0.0
  0
LINE
  5
64A
330
647
100
AcDbEntity
  8
0
 62
     0
100
AcDbLine
 10
-1.381201710818014
 20
-1.550332018271899
 30
0.0
 11
-2.307566451098781
 21
-1.550332018271899
 31
0.0
  0
LINE
  5
64B
330
647
100
AcDbEntity
  8
0
 62
     0
100
AcDbLine
 10
-2.127566451098781
 20
0.7071679817281022
 30
0.0
 11
-2.127566451098781
 21
-0.1496920182718982
 31
0.0
  0
LINE
  5
64C
330
647
100
AcDbEntity
  8
0
 62
     0
100
AcDbLine
 10
-2.127566451098781
 20
-1.370332018271899
 30
0.0
 11
-2.127566451098781
 21
-0.5134720182718984
 31
0.0
  0
SOLID
  5
64D
330
647
100
AcDbEntity
  8
0
 62
     0
100
AcDbTrace
 10
-2.097566451098781
 20
0.7071679817281022
 30
0.0
 11
-2.157566451098781
 21
0.7071679817281022
 31
0.0
 12
-2.127566451098781
 22
0.8871679817281022
 32
0.0
 13
-2.127566451098781
 23
0.8871679817281022
 33
0.0
  0
SOLID
  5
64E
330
647
100
AcDbEntity
  8
0
 62
     0
100
AcDbTrace
 10
-2.157566451098781
 20
-1.370332018271899
 30
0.0
 11
-2.097566451098781
 21
-1.370332018271899
 31
0.0
 12
-2.127566451098781
 22
-1.550332018271899
 32
0.0
 13
-2.127566451098781
 23
-1.550332018271899
 33
0.0
  0
MTEXT
  5
64F
330
647
100
AcDbEntity
  8
0
 62
     0
100
AcDbMText
 10
-2.127566451098781
 20
-0.3315820182718983
 30
0.0
 40
0.18
 41
0.0
 71
     5
 72
     1
  1
\A1;2.4375
  0
POINT
  5
650
330
647
100
AcDbEntity
  8
DEFPOINTS
 62
     0
100
AcDbPoint
 10
-1.318701710818014
 20
0.8871679817281022
 30
0.0
  0
POINT
  5
651
330
647
100
AcDbEntity
  8
DEFPOINTS
 62
     0
100
AcDbPoint
 10
-1.318701710818014
 20
-1.550332018271899
 30
0.0
  0
POINT
  5
652
330
647
100
AcDbEntity
  8
DEFPOINTS
 62
     0
100
AcDbPoint
 10
-2.127566451098781
 20
-1.550332018271899
 30
0.0
  0
ENDBLK
  5
653
330
647
100
AcDbEntity
  8
0
100
AcDbBlockEnd
  0
BLOCK
  5
656
330
655
100
AcDbEntity
  8
0
100
AcDbBlockBegin
  2
*D20
 70
     1
 10
0.0
 20
0.0
 30
0.0
  3
*D20
  1

  0
LINE
  5
657
330
655
100
AcDbEntity
  8
0
 62
     0
100
AcDbLine
 10
2.332232531288698
 20
1.021471885347562
 30
0.0
 11
2.152232531288698
 21
1.021471885347562
 31
0.0
  0
LINE
  5
658
330
655
100
AcDbEntity
  8
0
 62
     0
100
AcDbLine
 10
2.152232531288698
 20
1.021471885347562
 30
0.0
 11
1.849920952077296
 21
0.8341122264328946
 31
0.0
  0
MTEXT
  5
659
330
655
100
AcDbEntity
  8
0
 62
     0
100
AcDbMText
 10
2.882132531288698
 20
1.021471885347562
 30
0.0
 40
0.18
 41
0.0
 71
     5
 72
     1
  1
\A1;R0.3125
  0
SOLID
  5
65A
330
655
100
AcDbEntity
  8
0
 62
     0
100
AcDbTrace
 10
1.834117241739948
 20
0.8596120840711876
 30
0.0
 11
1.865724662414643
 21
0.8086123687946016
 31
0.0
 12
1.696921806247538
 22
0.7392899644088082
 32
0.0
 13
1.696921806247538
 23
0.7392899644088082
 33
0.0
  0
LINE
  5
65B
330
655
100
AcDbEntity
  8
0
 62
     0
100
AcDbLine
 10
1.386298289181985
 20
0.5746679817281022
 30
0.0
 11
1.476298289181985
 21
0.5746679817281022
 31
0.0
  0
LINE
  5
65C
330
655
100
AcDbEntity
  8
0
 62
     0
100
AcDbLine
 10
1.431298289181985
 20
0.5296679817281021
 30
0.0
 11
1.431298289181985
 21
0.6196679817281022
 31
0.0
  0
POINT
  5
65D
330
655
100
AcDbEntity
  8
DEFPOINTS
 62
     0
100
AcDbPoint
 10
1.696921806247538
 20
0.7392899644088082
 30
0.0
  0
POINT
  5
65E
330
655
100
AcDbEntity
  8
DEFPOINTS
 62
     0
100
AcDbPoint
 10
1.431298289181985
 20
0.5746679817281022
 30
0.0
  0
ENDBLK
  5
65F
330
655
100
AcDbEntity
  8
0
100
AcDbBlockEnd
  0
BLOCK
  5
676
330
675
100
AcDbEntity
  8
0
100
AcDbBlockBegin
  2
*D21
 70
     1
 10
0.0
 20
0.0
 30
0.0
  3
*D21
  1

  0
LINE
  5
678
330
675
100
AcDbEntity
  8
0
 62
     0
100
AcDbLine
 10
27.9044520547945
 20
5.772265166340509
 30
0.0
 11
27.9044520547945
 21
6.490950596378756
 31
0.0
  0
LINE
  5
679
330
675
100
AcDbEntity
  8
0
 62
     0
100
AcDbLine
 10
31.2794520547945
 20
5.772265166340509
 30
0.0
 11
31.2794520547945
 21
6.490950596378756
 31
0.0
  0
LINE
  5
67A
330
675
100
AcDbEntity
  8
0
 62
     0
100
AcDbLine
 10
28.0844520547945
 20
6.310950596378756
 30
0.0
 11
29.1291720547945
 21
6.310950596378756
 31
0.0
  0
LINE
  5
67B
330
675
100
AcDbEntity
  8
0
 62
     0
100
AcDbLine
 10
31.0994520547945
 20
6.310950596378756
 30
0.0
 11
30.0547320547945
 21
6.310950596378756
 31
0.0
  0
SOLID
  5
67C
330
675
100
AcDbEntity
  8
0
 62
     0
100
AcDbTrace
 10
28.0844520547945
 20
6.340950596378756
 30
0.0
 11
28.0844520547945
 21
6.280950596378756
 31
0.0
 12
27.9044520547945
 22
6.310950596378756
 32
0.0
 13
27.9044520547945
 23
6.310950596378756
 33
0.0
  0
SOLID
  5
67D
330
675
100
AcDbEntity
  8
0
 62
     0
100
AcDbTrace
 10
31.0994520547945
 20
6.280950596378756
 30
0.0
 11
31.0994520547945
 21
6.340950596378756
 31
0.0
 12
31.2794520547945
 22
6.310950596378756
 32
0.0
 13
31.2794520547945
 23
6.310950596378756
 33
0.0
  0
MTEXT
  5
67E
330
675
100
AcDbEntity
  8
0
 62
     0
100
AcDbMText
 10
29.5919520547945
 20
6.310950596378756
 30
0.0
 40
0.18
 41
0.0
 71
     5
 72
     1
  1
\A1;3.3750
  0
POINT
  5
67F
330
675
100
AcDbEntity
  8
DEFPOINTS
 62
     0
100
AcDbPoint
 10
27.9044520547945
 20
5.709765166340509
 30
0.0
  0
POINT
  5
680
330
675
100
AcDbEntity
  8
DEFPOINTS
 62
     0
100
AcDbPoint
 10
31.2794520547945
 20
5.709765166340509
 30
0.0
  0
POINT
  5
681
330
675
100
AcDbEntity
  8
DEFPOINTS
 62
     0
100
AcDbPoint
 10
31.2794520547945
 20
6.310950596378756
 30
0.0
  0
ENDBLK
  5
677
330
675
100
AcDbEntity
  8
0
100
AcDbBlockEnd
  0
BLOCK
  5
683
330
682
100
AcDbEntity
  8
0
100
AcDbBlockBegin
  2
*D22
 70
     1
 10
0.0
 20
0.0
 30
0.0
  3
*D22
  1

  0
LINE
  5
685
330
682
100
AcDbEntity
  8
0
 62
     0
100
AcDbLine
 10
28.1544520547945
 20
6.022265166340509
 30
0.0
 11
27.22808731451374
 21
6.022265166340509
 31
0.0
  0
LINE
  5
686
330
682
100
AcDbEntity
  8
0
 62
     0
100
AcDbLine
 10
28.1544520547945
 20
3.584765166340508
 30
0.0
 11
27.22808731451374
 21
3.584765166340508
 31
0.0
  0
LINE
  5
687
330
682
100
AcDbEntity
  8
0
 62
     0
100
AcDbLine
 10
27.40808731451374
 20
5.84226516634051
 30
0.0
 11
27.40808731451374
 21
4.985405166340509
 31
0.0
  0
LINE
  5
688
330
682
100
AcDbEntity
  8
0
 62
     0
100
AcDbLine
 10
27.40808731451374
 20
3.764765166340509
 30
0.0
 11
27.40808731451374
 21
4.621625166340508
 31
0.0
  0
SOLID
  5
689
330
682
100
AcDbEntity
  8
0
 62
     0
100
AcDbTrace
 10
27.43808731451374
 20
5.84226516634051
 30
0.0
 11
27.37808731451373
 21
5.84226516634051
 31
0.0
 12
27.40808731451374
 22
6.022265166340509
 32
0.0
 13
27.40808731451374
 23
6.022265166340509
 33
0.0
  0
SOLID
  5
68A
330
682
100
AcDbEntity
  8
0
 62
     0
100
AcDbTrace
 10
27.37808731451373
 20
3.764765166340509
 30
0.0
 11
27.43808731451374
 21
3.764765166340509
 31
0.0
 12
27.40808731451374
 22
3.584765166340508
 32
0.0
 13
27.40808731451374
 23
3.584765166340508
 33
0.0
  0
MTEXT
  5
68B
330
682
100
AcDbEntity
  8
0
 62
     0
100
AcDbMText
 10
27.40808731451374
 20
4.803515166340508
 30
0.0
 40
0.18
 41
0.0
 71
     5
 72
     1
  1
\A1;2.4375
  0
POINT
  5
68C
330
682
100
AcDbEntity
  8
DEFPOINTS
 62
     0
100
AcDbPoint
 10
28.2169520547945
 20
6.022265166340509
 30
0.0
  0
POINT
  5
68D
330
682
100
AcDbEntity
  8
DEFPOINTS
 62
     0
100
AcDbPoint
 10
28.2169520547945
 20
3.584765166340508
 30
0.0
  0
POINT
  5
68E
330
682
100
AcDbEntity
  8
DEFPOINTS
 62
     0
100
AcDbPoint
 10
27.40808731451374
 20
3.584765166340508
 30
0.0
  0
ENDBLK
  5
684
330
682
100
AcDbEntity
  8
0
100
AcDbBlockEnd
  0
BLOCK
  5
690
330
68F
100
AcDbEntity
  8
0
100
AcDbBlockBegin
  2
*D23
 70
     1
 10
0.0
 20
0.0
 30
0.0
  3
*D23
  1

  0
LINE
  5
692
330
68F
100
AcDbEntity
  8
0
 62
     0
100
AcDbLine
 10
31.86788629690121
 20
6.15656906995997
 30
0.0
 11
31.68788629690122
 21
6.15656906995997
 31
0.0
  0
LINE
  5
693
330
68F
100
AcDbEntity
  8
0
 62
     0
100
AcDbLine
 10
31.68788629690122
 20
6.15656906995997
 30
0.0
 11
31.38557471768981
 21
5.969209411045302
 31
0.0
  0
MTEXT
  5
694
330
68F
100
AcDbEntity
  8
0
 62
     0
100
AcDbMText
 10
32.41778629690121
 20
6.15656906995997
 30
0.0
 40
0.18
 41
0.0
 71
     5
 72
     1
  1
\A1;R0.3125
  0
SOLID
  5
695
330
68F
100
AcDbEntity
  8
0
 62
     0
100
AcDbTrace
 10
31.36977100735246
 20
5.994709268683595
 30
0.0
 11
31.40137842802716
 21
5.943709553407009
 31
0.0
 12
31.23257557186005
 22
5.874387149021215
 32
0.0
 13
31.23257557186005
 23
5.874387149021215
 33
0.0
  0
LINE
  5
696
330
68F
100
AcDbEntity
  8
0
 62
     0
100
AcDbLine
 10
30.9219520547945
 20
5.709765166340509
 30
0.0
 11
31.0119520547945
 21
5.709765166340509
 31
0.0
  0
LINE
  5
697
330
68F
100
AcDbEntity
  8
0
 62
     0
100
AcDbLine
 10
30.9669520547945
 20
5.664765166340509
 30
0.0
 11
30.9669520547945
 21
5.754765166340509
 31
0.0
  0
POINT
  5
698
330
68F
100
AcDbEntity
  8
DEFPOINTS
 62
     0
100
AcDbPoint
 10
31.23257557186005
 20
5.874387149021215
 30
0.0
  0
POINT
  5
699
330
68F
100
AcDbEntity
  8
DEFPOINTS
 62
     0
100
AcDbPoint
 10
30.9669520547945
 20
5.709765166340509
 30
0.0
  0
ENDBLK
  5
691
330
68F
100
AcDbEntity
  8
0
100
AcDbBlockEnd
  0
BLOCK
  5
6E3
330
6E2
100
AcDbEntity
  8
0
100
AcDbBlockBegin
  2
*D24
 70
     1
 10
0.0
 20
0.0
 30
0.0
  3
*D24
  1

  0
LINE
  5
6E5
330
6E2
100
AcDbEntity
  8
0
 62
     0
100
AcDbLine
 10
9.587573385518585
 20
-0.8922597497304823
 30
0.0
 11
11.96432387577562
 21
-0.8922597497304825
 31
0.0
  0
LINE
  5
6E6
330
6E2
100
AcDbEntity
  8
0
 62
     0
100
AcDbLine
 10
9.587573385518585
 20
-1.892259749730486
 30
0.0
 11
11.96432387577562
 21
-1.892259749730486
 31
0.0
  0
LINE
  5
6E7
330
6E2
100
AcDbEntity
  8
0
 62
     0
100
AcDbLine
 10
11.78432387577562
 20
-1.072259749730482
 30
0.0
 11
11.78432387577562
 21
-1.210369749730484
 31
0.0
  0
LINE
  5
6E8
330
6E2
100
AcDbEntity
  8
0
 62
     0
100
AcDbLine
 10
11.78432387577562
 20
-1.712259749730486
 30
0.0
 11
11.78432387577562
 21
-1.574149749730485
 31
0.0
  0
SOLID
  5
6E9
330
6E2
100
AcDbEntity
  8
0
 62
     0
100
AcDbTrace
 10
11.81432387577562
 20
-1.072259749730482
 30
0.0
 11
11.75432387577562
 21
-1.072259749730482
 31
0.0
 12
11.78432387577562
 22
-0.8922597497304825
 32
0.0
 13
11.78432387577562
 23
-0.8922597497304825
 33
0.0
  0
SOLID
  5
6EA
330
6E2
100
AcDbEntity
  8
0
 62
     0
100
AcDbTrace
 10
11.75432387577562
 20
-1.712259749730486
 30
0.0
 11
11.81432387577562
 21
-1.712259749730486
 31
0.0
 12
11.78432387577562
 22
-1.892259749730486
 32
0.0
 13
11.78432387577562
 23
-1.892259749730486
 33
0.0
  0
MTEXT
  5
6EB
330
6E2
100
AcDbEntity
  8
0
 62
     0
100
AcDbMText
 10
11.78432387577562
 20
-1.392259749730484
 30
0.0
 40
0.18
 41
0.0
 71
     5
 72
     1
  1
\A1;1.0000
  0
POINT
  5
6EC
330
6E2
100
AcDbEntity
  8
DEFPOINTS
 62
     0
100
AcDbPoint
 10
9.525073385518585
 20
-0.8922597497304823
 30
0.0
  0
POINT
  5
6ED
330
6E2
100
AcDbEntity
  8
DEFPOINTS
 62
     0
100
AcDbPoint
 10
9.525073385518585
 20
-1.892259749730486
 30
0.0
  0
POINT
  5
6EE
330
6E2
100
AcDbEntity
  8
DEFPOINTS
 62
     0
100
AcDbPoint
 10
11.78432387577562
 20
-1.892259749730486
 30
0.0
  0
ENDBLK
  5
6E4
330
6E2
100
AcDbEntity
  8
0
100
AcDbBlockEnd
  0
BLOCK
  5
768
330
767
100
AcDbEntity
  8
0
100
AcDbBlockBegin
  2
*D25
 70
     1
 10
0.0
 20
0.0
 30
0.0
  3
*D25
  1

  0
LINE
  5
76A
330
767
100
AcDbEntity
  8
0
 62
     0
100
AcDbLine
 10
16.3211292837445
 20
7.44967356879439
 30
0.0
 11
16.3211292837445
 21
7.874148210635729
 31
0.0
  0
LINE
  5
76B
330
767
100
AcDbEntity
  8
0
 62
     0
100
AcDbLine
 10
17.52112928374451
 20
7.44967356879439
 30
0.0
 11
17.52112928374451
 21
7.874148210635729
 31
0.0
  0
LINE
  5
76C
330
767
100
AcDbEntity
  8
0
 62
     0
100
AcDbLine
 10
16.1411292837445
 20
7.69414821063573
 30
0.0
 11
15.9611292837445
 21
7.69414821063573
 31
0.0
  0
LINE
  5
76D
330
767
100
AcDbEntity
  8
0
 62
     0
100
AcDbLine
 10
17.70112928374451
 20
7.69414821063573
 30
0.0
 11
17.88112928374451
 21
7.69414821063573
 31
0.0
  0
SOLID
  5
76E
330
767
100
AcDbEntity
  8
0
 62
     0
100
AcDbTrace
 10
16.1411292837445
 20
7.664148210635729
 30
0.0
 11
16.1411292837445
 21
7.72414821063573
 31
0.0
 12
16.3211292837445
 22
7.69414821063573
 32
0.0
 13
16.3211292837445
 23
7.69414821063573
 33
0.0
  0
SOLID
  5
76F
330
767
100
AcDbEntity
  8
0
 62
     0
100
AcDbTrace
 10
17.70112928374451
 20
7.72414821063573
 30
0.0
 11
17.70112928374451
 21
7.664148210635729
 31
0.0
 12
17.52112928374451
 22
7.69414821063573
 32
0.0
 13
17.52112928374451
 23
7.69414821063573
 33
0.0
  0
MTEXT
  5
770
330
767
100
AcDbEntity
  8
0
 62
     0
100
AcDbMText
 10
16.92112928374451
 20
7.69414821063573
 30
0.0
 40
0.18
 41
0.0
 71
     5
 72
     1
  1
\A1;1.2000
  0
POINT
  5
771
330
767
100
AcDbEntity
  8
DEFPOINTS
 62
     0
100
AcDbPoint
 10
16.3211292837445
 20
7.38717356879439
 30
0.0
  0
POINT
  5
772
330
767
100
AcDbEntity
  8
DEFPOINTS
 62
     0
100
AcDbPoint
 10
17.52112928374451
 20
7.38717356879439
 30
0.0
  0
POINT
  5
773
330
767
100
AcDbEntity
  8
DEFPOINTS
 62
     0
100
AcDbPoint
 10
17.52112928374451
 20
7.69414821063573
 30
0.0
  0
ENDBLK
  5
769
330
767
100
AcDbEntity
  8
0
100
AcDbBlockEnd
  0
BLOCK
  5
779
330
778
100
AcDbEntity
  8
0
100
AcDbBlockBegin
  2
*D26
 70
     1
 10
0.0
 20
0.0
 30
0.0
  3
*D26
  1

  0
LINE
  5
77B
330
778
100
AcDbEntity
  8
0
 62
     0
100
AcDbLine
 10
6.775073385518585
 20
1.754939984124702
 30
0.0
 11
6.775073385518585
 21
2.500773686868606
 31
0.0
  0
LINE
  5
77C
330
778
100
AcDbEntity
  8
0
 62
     0
100
AcDbLine
 10
9.525073385518585
 20
1.754939984124702
 30
0.0
 11
9.525073385518585
 21
2.500773686868606
 31
0.0
  0
LINE
  5
77D
330
778
100
AcDbEntity
  8
0
 62
     0
100
AcDbLine
 10
6.955073385518585
 20
2.320773686868606
 30
0.0
 11
7.685673385518585
 21
2.320773686868606
 31
0.0
  0
LINE
  5
77E
330
778
100
AcDbEntity
  8
0
 62
     0
100
AcDbLine
 10
9.345073385518585
 20
2.320773686868606
 30
0.0
 11
8.614473385518584
 21
2.320773686868606
 31
0.0
  0
SOLID
  5
77F
330
778
100
AcDbEntity
  8
0
 62
     0
100
AcDbTrace
 10
6.955073385518585
 20
2.350773686868606
 30
0.0
 11
6.955073385518585
 21
2.290773686868606
 31
0.0
 12
6.775073385518585
 22
2.320773686868606
 32
0.0
 13
6.775073385518585
 23
2.320773686868606
 33
0.0
  0
SOLID
  5
780
330
778
100
AcDbEntity
  8
0
 62
     0
100
AcDbTrace
 10
9.345073385518585
 20
2.290773686868606
 30
0.0
 11
9.345073385518585
 21
2.350773686868606
 31
0.0
 12
9.525073385518585
 22
2.320773686868606
 32
0.0
 13
9.525073385518585
 23
2.320773686868606
 33
0.0
  0
MTEXT
  5
781
330
778
100
AcDbEntity
  8
0
 62
     0
100
AcDbMText
 10
8.150073385518585
 20
2.320773686868606
 30
0.0
 40
0.18
 41
0.0
 71
     5
 72
     1
  1
\A1;2.7500
  0
POINT
  5
782
330
778
100
AcDbEntity
  8
DEFPOINTS
 62
     0
100
AcDbPoint
 10
6.775073385518585
 20
1.692439984124702
 30
0.0
  0
POINT
  5
783
330
778
100
AcDbEntity
  8
DEFPOINTS
 62
     0
100
AcDbPoint
 10
9.525073385518585
 20
1.692439984124702
 30
0.0
  0
POINT
  5
784
330
778
100
AcDbEntity
  8
DEFPOINTS
 62
     0
100
AcDbPoint
 10
9.525073385518585
 20
2.320773686868606
 30
0.0
  0
ENDBLK
  5
77A
330
778
100
AcDbEntity
  8
0
100
AcDbBlockEnd
  0
BLOCK
  5
789
330
788
100
AcDbEntity
  8
0
100
AcDbBlockBegin
  2
*D27
 70
     1
 10
0.0
 20
0.0
 30
0.0
  3
*D27
  1

  0
LINE
  5
78B
330
788
100
AcDbEntity
  8
0
 62
     0
100
AcDbLine
 10
6.837573385518585
 20
1.817439984124702
 30
0.0
 11
5.451153709857818
 21
1.817439984124702
 31
0.0
  0
LINE
  5
78C
330
788
100
AcDbEntity
  8
0
 62
     0
100
AcDbLine
 10
6.837573385518585
 20
0.004939984124701
 30
0.0
 11
5.451153709857818
 21
0.0049399841247011
 31
0.0
  0
LINE
  5
78D
330
788
100
AcDbEntity
  8
0
 62
     0
100
AcDbLine
 10
5.631153709857817
 20
1.637439984124702
 30
0.0
 11
5.631153709857817
 21
1.093079984124702
 31
0.0
  0
LINE
  5
78E
330
788
100
AcDbEntity
  8
0
 62
     0
100
AcDbLine
 10
5.631153709857817
 20
0.1849399841247011
 30
0.0
 11
5.631153709857817
 21
0.7292999841247014
 31
0.0
  0
SOLID
  5
78F
330
788
100
AcDbEntity
  8
0
 62
     0
100
AcDbTrace
 10
5.661153709857818
 20
1.637439984124702
 30
0.0
 11
5.601153709857817
 21
1.637439984124702
 31
0.0
 12
5.631153709857817
 22
1.817439984124702
 32
0.0
 13
5.631153709857817
 23
1.817439984124702
 33
0.0
  0
SOLID
  5
790
330
788
100
AcDbEntity
  8
0
 62
     0
100
AcDbTrace
 10
5.601153709857817
 20
0.1849399841247011
 30
0.0
 11
5.661153709857818
 21
0.1849399841247011
 31
0.0
 12
5.631153709857817
 22
0.0049399841247011
 32
0.0
 13
5.631153709857817
 23
0.0049399841247011
 33
0.0
  0
MTEXT
  5
791
330
788
100
AcDbEntity
  8
0
 62
     0
100
AcDbMText
 10
5.631153709857817
 20
0.9111899841247015
 30
0.0
 40
0.18
 41
0.0
 71
     5
 72
     1
  1
\A1;1.8125
  0
POINT
  5
792
330
788
100
AcDbEntity
  8
DEFPOINTS
 62
     0
100
AcDbPoint
 10
6.900073385518585
 20
1.817439984124702
 30
0.0
  0
POINT
  5
793
330
788
100
AcDbEntity
  8
DEFPOINTS
 62
     0
100
AcDbPoint
 10
6.900073385518585
 20
0.004939984124701
 30
0.0
  0
POINT
  5
794
330
788
100
AcDbEntity
  8
DEFPOINTS
 62
     0
100
AcDbPoint
 10
5.631153709857817
 20
0.0049399841247011
 30
0.0
  0
ENDBLK
  5
78A
330
788
100
AcDbEntity
  8
0
100
AcDbBlockEnd
  0
BLOCK
  5
7D5
330
7D4
100
AcDbEntity
  8
0
100
AcDbBlockBegin
  2
*D28
 70
     1
 10
0.0
 20
0.0
 30
0.0
  3
*D28
  1

  0
LINE
  5
7D7
330
7D4
100
AcDbEntity
  8
0
 62
     0
100
AcDbLine
 10
6.650073385518585
 20
-3.145742767542882
 30
0.0
 11
6.650073385518585
 21
-2.328557193757617
 31
0.0
  0
LINE
  5
7D8
330
7D4
100
AcDbEntity
  8
0
 62
     0
100
AcDbLine
 10
9.650073385518585
 20
-3.145742767542882
 30
0.0
 11
9.650073385518585
 21
-2.328557193757617
 31
0.0
  0
LINE
  5
7D9
330
7D4
100
AcDbEntity
  8
0
 62
     0
100
AcDbLine
 10
6.830073385518585
 20
-2.508557193757617
 30
0.0
 11
7.687293385518585
 21
-2.508557193757617
 31
0.0
  0
LINE
  5
7DA
330
7D4
100
AcDbEntity
  8
0
 62
     0
100
AcDbLine
 10
9.470073385518585
 20
-2.508557193757617
 30
0.0
 11
8.612853385518585
 21
-2.508557193757617
 31
0.0
  0
SOLID
  5
7DB
330
7D4
100
AcDbEntity
  8
0
 62
     0
100
AcDbTrace
 10
6.830073385518585
 20
-2.478557193757617
 30
0.0
 11
6.830073385518585
 21
-2.538557193757617
 31
0.0
 12
6.650073385518585
 22
-2.508557193757617
 32
0.0
 13
6.650073385518585
 23
-2.508557193757617
 33
0.0
  0
SOLID
  5
7DC
330
7D4
100
AcDbEntity
  8
0
 62
     0
100
AcDbTrace
 10
9.470073385518585
 20
-2.538557193757617
 30
0.0
 11
9.470073385518585
 21
-2.478557193757617
 31
0.0
 12
9.650073385518585
 22
-2.508557193757617
 32
0.0
 13
9.650073385518585
 23
-2.508557193757617
 33
0.0
  0
MTEXT
  5
7DD
330
7D4
100
AcDbEntity
  8
0
 62
     0
100
AcDbMText
 10
8.150073385518585
 20
-2.508557193757617
 30
0.0
 40
0.18
 41
0.0
 71
     5
 72
     1
  1
\A1;3.0000
  0
POINT
  5
7DE
330
7D4
100
AcDbEntity
  8
DEFPOINTS
 62
     0
100
AcDbPoint
 10
6.650073385518585
 20
-3.208242767542882
 30
0.0
  0
POINT
  5
7DF
330
7D4
100
AcDbEntity
  8
DEFPOINTS
 62
     0
100
AcDbPoint
 10
9.650073385518585
 20
-3.208242767542882
 30
0.0
  0
POINT
  5
7E0
330
7D4
100
AcDbEntity
  8
DEFPOINTS
 62
     0
100
AcDbPoint
 10
9.650073385518585
 20
-2.508557193757617
 30
0.0
  0
ENDBLK
  5
7D6
330
7D4
100
AcDbEntity
  8
0
100
AcDbBlockEnd
  0
BLOCK
  5
7E5
330
7E4
100
AcDbEntity
  8
0
100
AcDbBlockBegin
  2
*D29
 70
     1
 10
0.0
 20
0.0
 30
0.0
  3
*D29
  1

  0
LINE
  5
7E7
330
7E4
100
AcDbEntity
  8
0
 62
     0
100
AcDbLine
 10
6.712573385518585
 20
-3.083242767542882
 30
0.0
 11
5.718783533732571
 21
-3.083242767542882
 31
0.0
  0
LINE
  5
7E8
330
7E4
100
AcDbEntity
  8
0
 62
     0
100
AcDbLine
 10
6.712573385518585
 20
-5.145742767542883
 30
0.0
 11
5.718783533732571
 21
-5.145742767542883
 31
0.0
  0
LINE
  5
7E9
330
7E4
100
AcDbEntity
  8
0
 62
     0
100
AcDbLine
 10
5.898783533732571
 20
-3.263242767542883
 30
0.0
 11
5.898783533732571
 21
-3.932602767542883
 31
0.0
  0
LINE
  5
7EA
330
7E4
100
AcDbEntity
  8
0
 62
     0
100
AcDbLine
 10
5.898783533732571
 20
-4.965742767542883
 30
0.0
 11
5.898783533732571
 21
-4.296382767542883
 31
0.0
  0
SOLID
  5
7EB
330
7E4
100
AcDbEntity
  8
0
 62
     0
100
AcDbTrace
 10
5.928783533732571
 20
-3.263242767542883
 30
0.0
 11
5.868783533732571
 21
-3.263242767542883
 31
0.0
 12
5.898783533732571
 22
-3.083242767542882
 32
0.0
 13
5.898783533732571
 23
-3.083242767542882
 33
0.0
  0
SOLID
  5
7EC
330
7E4
100
AcDbEntity
  8
0
 62
     0
100
AcDbTrace
 10
5.868783533732571
 20
-4.965742767542883
 30
0.0
 11
5.928783533732571
 21
-4.965742767542883
 31
0.0
 12
5.898783533732571
 22
-5.145742767542883
 32
0.0
 13
5.898783533732571
 23
-5.145742767542883
 33
0.0
  0
MTEXT
  5
7ED
330
7E4
100
AcDbEntity
  8
0
 62
     0
100
AcDbMText
 10
5.898783533732571
 20
-4.114492767542883
 30
0.0
 40
0.18
 41
0.0
 71
     5
 72
     1
  1
\A1;2.0625
  0
POINT
  5
7EE
330
7E4
100
AcDbEntity
  8
DEFPOINTS
 62
     0
100
AcDbPoint
 10
6.775073385518585
 20
-3.083242767542882
 30
0.0
  0
POINT
  5
7EF
330
7E4
100
AcDbEntity
  8
DEFPOINTS
 62
     0
100
AcDbPoint
 10
6.775073385518585
 20
-5.145742767542883
 30
0.0
  0
POINT
  5
7F0
330
7E4
100
AcDbEntity
  8
DEFPOINTS
 62
     0
100
AcDbPoint
 10
5.898783533732571
 20
-5.145742767542883
 30
0.0
  0
ENDBLK
  5
7E6
330
7E4
100
AcDbEntity
  8
0
100
AcDbBlockEnd
  0
BLOCK
  5
872
330
84E
100
AcDbEntity
  8
0
100
AcDbBlockBegin
  2
A$C14019
 70
     0
 10
0.0
 20
0.0
 30
0.0
  3
A$C14019
  1

  0
LWPOLYLINE
  5
870
330
84E
100
AcDbEntity
  8
0
100
AcDbPolyline
 90
        4
 70
     1
 43
0.0
 10
0.0
 20
0.0
 10
0.0
 20
0.7089999999999979
 10
1.899999999999999
 20
0.7089999999999979
 10
1.899999999999999
 20
0.0
  0
TEXT
  5
871
330
84E
100
AcDbEntity
  8
0
100
AcDbText
 10
0.1473152701193712
 20
0.2597262886177898
 30
0.0
 40
0.2
  1
ARD MICRO
100
AcDbText
  0
ENDBLK
  5
873
330
84E
100
AcDbEntity
  8
0
100
AcDbBlockEnd
  0
BLOCK
  5
879
330
878
100
AcDbEntity
  8
0
100
AcDbBlockBegin
  2
*D31
 70
     1
 10
0.0
 20
0.0
 30
0.0
  3
*D31
  1

  0
LINE
  5
87B
330
878
100
AcDbEntity
  8
0
 62
     0
100
AcDbLine
 10
3.955665362035224
 20
-5.887429166760102
 30
0.0
 11
4.263940972155779
 21
-5.887429166760102
 31
0.0
  0
LINE
  5
87C
330
878
100
AcDbEntity
  8
0
 62
     0
100
AcDbLine
 10
3.955665362035224
 20
-6.5964291667601
 30
0.0
 11
4.263940972155779
 21
-6.5964291667601
 31
0.0
  0
LINE
  5
87D
330
878
100
AcDbEntity
  8
0
 62
     0
100
AcDbLine
 10
4.083940972155779
 20
-6.067429166760101
 30
0.0
 11
4.083940972155779
 21
-6.4164291667601
 31
0.0
  0
LINE
  5
87E
330
878
100
AcDbEntity
  8
0
 62
     0
100
AcDbLine
 10
4.083940972155779
 20
-6.4164291667601
 30
0.0
 11
4.083940972155779
 21
-6.067429166760101
 31
0.0
  0
SOLID
  5
87F
330
878
100
AcDbEntity
  8
0
 62
     0
100
AcDbTrace
 10
4.113940972155779
 20
-6.067429166760101
 30
0.0
 11
4.053940972155779
 21
-6.067429166760101
 31
0.0
 12
4.083940972155779
 22
-5.887429166760102
 32
0.0
 13
4.083940972155779
 23
-5.887429166760102
 33
0.0
  0
SOLID
  5
880
330
878
100
AcDbEntity
  8
0
 62
     0
100
AcDbTrace
 10
4.053940972155779
 20
-6.4164291667601
 30
0.0
 11
4.113940972155779
 21
-6.4164291667601
 31
0.0
 12
4.083940972155779
 22
-6.5964291667601
 32
0.0
 13
4.083940972155779
 23
-6.5964291667601
 33
0.0
  0
MTEXT
  5
881
330
878
100
AcDbEntity
  8
0
 62
     0
100
AcDbMText
 10
4.67461097215578
 20
-6.241929166760101
 30
0.0
 40
0.18
 41
0.0
 71
     5
 72
     1
  1
\A1;0.7090
  0
POINT
  5
882
330
878
100
AcDbEntity
  8
DEFPOINTS
 62
     0
100
AcDbPoint
 10
3.893165362035224
 20
-5.887429166760102
 30
0.0
  0
POINT
  5
883
330
878
100
AcDbEntity
  8
DEFPOINTS
 62
     0
100
AcDbPoint
 10
3.893165362035224
 20
-6.5964291667601
 30
0.0
  0
POINT
  5
884
330
878
100
AcDbEntity
  8
DEFPOINTS
 62
     0
100
AcDbPoint
 10
4.083940972155779
 20
-6.5964291667601
 30
0.0
  0
ENDBLK
  5
87A
330
878
100
AcDbEntity
  8
0
100
AcDbBlockEnd
  0
BLOCK
  5
889
330
888
100
AcDbEntity
  8
0
100
AcDbBlockBegin
  2
*D32
 70
     1
 10
0.0
 20
0.0
 30
0.0
  3
*D32
  1

  0
LINE
  5
88B
330
888
100
AcDbEntity
  8
0
 62
     0
100
AcDbLine
 10
3.893165362035224
 20
-5.824929166760102
 30
0.0
 11
3.893165362035224
 21
-5.526440321830135
 31
0.0
  0
LINE
  5
88C
330
888
100
AcDbEntity
  8
0
 62
     0
100
AcDbLine
 10
1.993165362035225
 20
-5.824929166760102
 30
0.0
 11
1.993165362035225
 21
-5.526440321830135
 31
0.0
  0
LINE
  5
88D
330
888
100
AcDbEntity
  8
0
 62
     0
100
AcDbLine
 10
3.713165362035224
 20
-5.706440321830135
 30
0.0
 11
3.397575362035224
 21
-5.706440321830135
 31
0.0
  0
LINE
  5
88E
330
888
100
AcDbEntity
  8
0
 62
     0
100
AcDbLine
 10
2.173165362035225
 20
-5.706440321830135
 30
0.0
 11
2.488755362035224
 21
-5.706440321830135
 31
0.0
  0
SOLID
  5
88F
330
888
100
AcDbEntity
  8
0
 62
     0
100
AcDbTrace
 10
3.713165362035224
 20
-5.736440321830135
 30
0.0
 11
3.713165362035224
 21
-5.676440321830134
 31
0.0
 12
3.893165362035224
 22
-5.706440321830135
 32
0.0
 13
3.893165362035224
 23
-5.706440321830135
 33
0.0
  0
SOLID
  5
890
330
888
100
AcDbEntity
  8
0
 62
     0
100
AcDbTrace
 10
2.173165362035225
 20
-5.676440321830134
 30
0.0
 11
2.173165362035225
 21
-5.736440321830135
 31
0.0
 12
1.993165362035225
 22
-5.706440321830135
 32
0.0
 13
1.993165362035225
 23
-5.706440321830135
 33
0.0
  0
MTEXT
  5
891
330
888
100
AcDbEntity
  8
0
 62
     0
100
AcDbMText
 10
2.943165362035224
 20
-5.706440321830135
 30
0.0
 40
0.18
 41
0.0
 71
     5
 72
     1
  1
\A1;1.9000
  0
POINT
  5
892
330
888
100
AcDbEntity
  8
DEFPOINTS
 62
     0
100
AcDbPoint
 10
3.893165362035224
 20
-5.887429166760102
 30
0.0
  0
POINT
  5
893
330
888
100
AcDbEntity
  8
DEFPOINTS
 62
     0
100
AcDbPoint
 10
1.993165362035225
 20
-5.887429166760102
 30
0.0
  0
POINT
  5
894
330
888
100
AcDbEntity
  8
DEFPOINTS
 62
     0
100
AcDbPoint
 10
1.993165362035225
 20
-5.706440321830135
 30
0.0
  0
ENDBLK
  5
88A
330
888
100
AcDbEntity
  8
0
100
AcDbBlockEnd
  0
BLOCK
  5
975
330
974
100
AcDbEntity
  8
0
100
AcDbBlockBegin
  2
*D33
 70
     1
 10
0.0
 20
0.0
 30
0.0
  3
*D33
  1

  0
LINE
  5
977
330
974
100
AcDbEntity
  8
0
 62
     0
100
AcDbLine
 10
7.220592521174773
 20
-0.6975216019362316
 30
0.0
 11
5.510499545653584
 21
-0.6975216019362316
 31
0.0
  0
LINE
  5
978
330
974
100
AcDbEntity
  8
0
 62
     0
100
AcDbLine
 10
7.220592521174773
 20
-3.135021601936232
 30
0.0
 11
5.510499545653584
 21
-3.135021601936232
 31
0.0
  0
LINE
  5
979
330
974
100
AcDbEntity
  8
0
 62
     0
100
AcDbLine
 10
5.690499545653584
 20
-0.8775216019362315
 30
0.0
 11
5.690499545653584
 21
-1.734381601936232
 31
0.0
  0
LINE
  5
97A
330
974
100
AcDbEntity
  8
0
 62
     0
100
AcDbLine
 10
5.690499545653584
 20
-2.955021601936232
 30
0.0
 11
5.690499545653584
 21
-2.098161601936232
 31
0.0
  0
SOLID
  5
97B
330
974
100
AcDbEntity
  8
0
 62
     0
100
AcDbTrace
 10
5.720499545653584
 20
-0.8775216019362315
 30
0.0
 11
5.660499545653583
 21
-0.8775216019362315
 31
0.0
 12
5.690499545653584
 22
-0.6975216019362316
 32
0.0
 13
5.690499545653584
 23
-0.6975216019362316
 33
0.0
  0
SOLID
  5
97C
330
974
100
AcDbEntity
  8
0
 62
     0
100
AcDbTrace
 10
5.660499545653583
 20
-2.955021601936232
 30
0.0
 11
5.720499545653584
 21
-2.955021601936232
 31
0.0
 12
5.690499545653584
 22
-3.135021601936232
 32
0.0
 13
5.690499545653584
 23
-3.135021601936232
 33
0.0
  0
MTEXT
  5
97D
330
974
100
AcDbEntity
  8
0
 62
     0
100
AcDbMText
 10
5.690499545653584
 20
-1.916271601936232
 30
0.0
 40
0.18
 41
0.0
 71
     5
 72
     1
  1
\A1;2.438
  0
POINT
  5
97E
330
974
100
AcDbEntity
  8
DEFPOINTS
 62
     0
100
AcDbPoint
 10
7.283092521174773
 20
-0.6975216019362316
 30
0.0
  0
POINT
  5
97F
330
974
100
AcDbEntity
  8
DEFPOINTS
 62
     0
100
AcDbPoint
 10
7.283092521174773
 20
-3.135021601936232
 30
0.0
  0
POINT
  5
980
330
974
100
AcDbEntity
  8
DEFPOINTS
 62
     0
100
AcDbPoint
 10
5.690499545653584
 20
-3.135021601936232
 30
0.0
  0
ENDBLK
  5
976
330
974
100
AcDbEntity
  8
0
100
AcDbBlockEnd
  0
BLOCK
  5
985
330
984
100
AcDbEntity
  8
0
100
AcDbBlockBegin
  2
*D34
 70
     1
 10
0.0
 20
0.0
 30
0.0
  3
*D34
  1

  0
LINE
  5
987
330
984
100
AcDbEntity
  8
0
 62
     0
100
AcDbLine
 10
6.908092521174773
 20
-3.336974004867475
 30
0.0
 11
5.525645231070417
 21
-3.336974004867475
 31
0.0
  0
LINE
  5
988
330
984
100
AcDbEntity
  8
0
 62
     0
100
AcDbLine
 10
6.908092521174773
 20
-3.836974004867475
 30
0.0
 11
5.525645231070417
 21
-3.836974004867475
 31
0.0
  0
LINE
  5
989
330
984
100
AcDbEntity
  8
0
 62
     0
100
AcDbLine
 10
5.705645231070417
 20
-3.156974004867475
 30
0.0
 11
5.705645231070417
 21
-2.976974004867475
 31
0.0
  0
LINE
  5
98A
330
984
100
AcDbEntity
  8
0
 62
     0
100
AcDbLine
 10
5.705645231070417
 20
-4.016974004867475
 30
0.0
 11
5.705645231070417
 21
-4.196974004867474
 31
0.0
  0
SOLID
  5
98B
330
984
100
AcDbEntity
  8
0
 62
     0
100
AcDbTrace
 10
5.675645231070416
 20
-3.156974004867475
 30
0.0
 11
5.735645231070417
 21
-3.156974004867475
 31
0.0
 12
5.705645231070417
 22
-3.336974004867475
 32
0.0
 13
5.705645231070417
 23
-3.336974004867475
 33
0.0
  0
SOLID
  5
98C
330
984
100
AcDbEntity
  8
0
 62
     0
100
AcDbTrace
 10
5.735645231070417
 20
-4.016974004867475
 30
0.0
 11
5.675645231070416
 21
-4.016974004867475
 31
0.0
 12
5.705645231070417
 22
-3.836974004867475
 32
0.0
 13
5.705645231070417
 23
-3.836974004867475
 33
0.0
  0
MTEXT
  5
98D
330
984
100
AcDbEntity
  8
0
 62
     0
100
AcDbMText
 10
5.705645231070417
 20
-3.586974004867475
 30
0.0
 40
0.18
 41
0.0
 71
     5
 72
     1
  1
\A1;0.500
  0
POINT
  5
98E
330
984
100
AcDbEntity
  8
DEFPOINTS
 62
     0
100
AcDbPoint
 10
6.970592521174773
 20
-3.336974004867475
 30
0.0
  0
POINT
  5
98F
330
984
100
AcDbEntity
  8
DEFPOINTS
 62
     0
100
AcDbPoint
 10
6.970592521174773
 20
-3.836974004867475
 30
0.0
  0
POINT
  5
990
330
984
100
AcDbEntity
  8
DEFPOINTS
 62
     0
100
AcDbPoint
 10
5.705645231070417
 20
-3.836974004867475
 30
0.0
  0
ENDBLK
  5
986
330
984
100
AcDbEntity
  8
0
100
AcDbBlockEnd
  0
BLOCK
  5
995
330
994
100
AcDbEntity
  8
0
100
AcDbBlockBegin
  2
*D35
 70
     1
 10
0.0
 20
0.0
 30
0.0
  3
*D35
  1

  0
LINE
  5
997
330
994
100
AcDbEntity
  8
0
 62
     0
100
AcDbLine
 10
6.908092521174773
 20
0.9209614158761643
 30
0.0
 11
5.486084964925602
 21
0.9209614158761644
 31
0.0
  0
LINE
  5
998
330
994
100
AcDbEntity
  8
0
 62
     0
100
AcDbLine
 10
6.908092521174773
 20
1.420961415876166
 30
0.0
 11
5.486084964925602
 21
1.420961415876166
 31
0.0
  0
LINE
  5
999
330
994
100
AcDbEntity
  8
0
 62
     0
100
AcDbLine
 10
5.666084964925602
 20
0.7409614158761644
 30
0.0
 11
5.666084964925602
 21
0.5609614158761644
 31
0.0
  0
LINE
  5
99A
330
994
100
AcDbEntity
  8
0
 62
     0
100
AcDbLine
 10
5.666084964925602
 20
1.600961415876166
 30
0.0
 11
5.666084964925602
 21
1.780961415876166
 31
0.0
  0
SOLID
  5
99B
330
994
100
AcDbEntity
  8
0
 62
     0
100
AcDbTrace
 10
5.696084964925602
 20
0.7409614158761644
 30
0.0
 11
5.636084964925602
 21
0.7409614158761644
 31
0.0
 12
5.666084964925602
 22
0.9209614158761644
 32
0.0
 13
5.666084964925602
 23
0.9209614158761644
 33
0.0
  0
SOLID
  5
99C
330
994
100
AcDbEntity
  8
0
 62
     0
100
AcDbTrace
 10
5.636084964925602
 20
1.600961415876166
 30
0.0
 11
5.696084964925602
 21
1.600961415876166
 31
0.0
 12
5.666084964925602
 22
1.420961415876166
 32
0.0
 13
5.666084964925602
 23
1.420961415876166
 33
0.0
  0
MTEXT
  5
99D
330
994
100
AcDbEntity
  8
0
 62
     0
100
AcDbMText
 10
5.666084964925602
 20
1.170961415876165
 30
0.0
 40
0.18
 41
0.0
 71
     5
 72
     1
  1
\A1;0.500
  0
POINT
  5
99E
330
994
100
AcDbEntity
  8
DEFPOINTS
 62
     0
100
AcDbPoint
 10
6.970592521174773
 20
0.9209614158761643
 30
0.0
  0
POINT
  5
99F
330
994
100
AcDbEntity
  8
DEFPOINTS
 62
     0
100
AcDbPoint
 10
6.970592521174773
 20
1.420961415876166
 30
0.0
  0
POINT
  5
9A0
330
994
100
AcDbEntity
  8
DEFPOINTS
 62
     0
100
AcDbPoint
 10
5.666084964925602
 20
1.420961415876166
 30
0.0
  0
ENDBLK
  5
996
330
994
100
AcDbEntity
  8
0
100
AcDbBlockEnd
  0
BLOCK
  5
A13
330
A12
100
AcDbEntity
  8
0
100
AcDbBlockBegin
  2
*D36
 70
     1
 10
0.0
 20
0.0
 30
0.0
  3
*D36
  1

  0
LINE
  5
A15
330
A12
100
AcDbEntity
  8
0
 62
     0
100
AcDbLine
 10
10.22059252117478
 20
1.420961415876166
 30
0.0
 11
10.92749756209506
 21
1.420961415876166
 31
0.0
  0
LINE
  5
A16
330
A12
100
AcDbEntity
  8
0
 62
     0
100
AcDbLine
 10
10.22059252117478
 20
1.305961415876168
 30
0.0
 11
10.92749756209506
 21
1.305961415876168
 31
0.0
  0
LINE
  5
A17
330
A12
100
AcDbEntity
  8
0
 62
     0
100
AcDbLine
 10
10.74749756209506
 20
1.600961415876166
 30
0.0
 11
10.74749756209506
 21
1.780961415876166
 31
0.0
  0
LINE
  5
A18
330
A12
100
AcDbEntity
  8
0
 62
     0
100
AcDbLine
 10
10.74749756209506
 20
1.125961415876168
 30
0.0
 11
10.74749756209506
 21
0.9459614158761682
 31
0.0
  0
SOLID
  5
A19
330
A12
100
AcDbEntity
  8
0
 62
     0
100
AcDbTrace
 10
10.71749756209506
 20
1.600961415876166
 30
0.0
 11
10.77749756209506
 21
1.600961415876166
 31
0.0
 12
10.74749756209506
 22
1.420961415876166
 32
0.0
 13
10.74749756209506
 23
1.420961415876166
 33
0.0
  0
SOLID
  5
A1A
330
A12
100
AcDbEntity
  8
0
 62
     0
100
AcDbTrace
 10
10.77749756209506
 20
1.125961415876168
 30
0.0
 11
10.71749756209506
 21
1.125961415876168
 31
0.0
 12
10.74749756209506
 22
1.305961415876168
 32
0.0
 13
10.74749756209506
 23
1.305961415876168
 33
0.0
  0
MTEXT
  5
A1B
330
A12
100
AcDbEntity
  8
0
 62
     0
100
AcDbMText
 10
11.33816756209506
 20
1.363461415876167
 30
0.0
 40
0.18
 41
0.0
 71
     5
 72
     1
  1
\A1;0.115
  0
POINT
  5
A1C
330
A12
100
AcDbEntity
  8
DEFPOINTS
 62
     0
100
AcDbPoint
 10
10.15809252117478
 20
1.420961415876166
 30
0.0
  0
POINT
  5
A1D
330
A12
100
AcDbEntity
  8
DEFPOINTS
 62
     0
100
AcDbPoint
 10
10.15809252117478
 20
1.305961415876168
 30
0.0
  0
POINT
  5
A1E
330
A12
100
AcDbEntity
  8
DEFPOINTS
 62
     0
100
AcDbPoint
 10
10.74749756209506
 20
1.305961415876168
 30
0.0
  0
ENDBLK
  5
A14
330
A12
100
AcDbEntity
  8
0
100
AcDbBlockEnd
  0
BLOCK
  5
A23
330
A22
100
AcDbEntity
  8
0
100
AcDbBlockBegin
  2
*D37
 70
     1
 10
0.0
 20
0.0
 30
0.0
  3
*D37
  1

  0
LINE
  5
A25
330
A22
100
AcDbEntity
  8
0
 62
     0
100
AcDbLine
 10
10.22059252117478
 20
-3.336974004867475
 30
0.0
 11
10.78147836835729
 21
-3.336974004867475
 31
0.0
  0
LINE
  5
A26
330
A22
100
AcDbEntity
  8
0
 62
     0
100
AcDbLine
 10
10.22059252117478
 20
-3.386974004867475
 30
0.0
 11
10.78147836835729
 21
-3.386974004867475
 31
0.0
  0
LINE
  5
A27
330
A22
100
AcDbEntity
  8
0
 62
     0
100
AcDbLine
 10
10.60147836835729
 20
-3.156974004867475
 30
0.0
 11
10.60147836835729
 21
-2.976974004867475
 31
0.0
  0
LINE
  5
A28
330
A22
100
AcDbEntity
  8
0
 62
     0
100
AcDbLine
 10
10.60147836835729
 20
-3.566974004867475
 30
0.0
 11
10.60147836835729
 21
-3.746974004867475
 31
0.0
  0
SOLID
  5
A29
330
A22
100
AcDbEntity
  8
0
 62
     0
100
AcDbTrace
 10
10.57147836835729
 20
-3.156974004867475
 30
0.0
 11
10.63147836835729
 21
-3.156974004867475
 31
0.0
 12
10.60147836835729
 22
-3.336974004867475
 32
0.0
 13
10.60147836835729
 23
-3.336974004867475
 33
0.0
  0
SOLID
  5
A2A
330
A22
100
AcDbEntity
  8
0
 62
     0
100
AcDbTrace
 10
10.63147836835729
 20
-3.566974004867475
 30
0.0
 11
10.57147836835729
 21
-3.566974004867475
 31
0.0
 12
10.60147836835729
 22
-3.386974004867475
 32
0.0
 13
10.60147836835729
 23
-3.386974004867475
 33
0.0
  0
MTEXT
  5
A2B
330
A22
100
AcDbEntity
  8
0
 62
     0
100
AcDbMText
 10
11.19214836835729
 20
-3.361974004867475
 30
0.0
 40
0.18
 41
0.0
 71
     5
 72
     1
  1
\A1;0.050
  0
POINT
  5
A2C
330
A22
100
AcDbEntity
  8
DEFPOINTS
 62
     0
100
AcDbPoint
 10
10.15809252117478
 20
-3.336974004867475
 30
0.0
  0
POINT
  5
A2D
330
A22
100
AcDbEntity
  8
DEFPOINTS
 62
     0
100
AcDbPoint
 10
10.15809252117478
 20
-3.386974004867475
 30
0.0
  0
POINT
  5
A2E
330
A22
100
AcDbEntity
  8
DEFPOINTS
 62
     0
100
AcDbPoint
 10
10.60147836835729
 20
-3.386974004867475
 30
0.0
  0
ENDBLK
  5
A24
330
A22
100
AcDbEntity
  8
0
100
AcDbBlockEnd
  0
BLOCK
  5
A33
330
A32
100
AcDbEntity
  8
0
100
AcDbBlockBegin
  2
*D38
 70
     1
 10
0.0
 20
0.0
 30
0.0
  3
*D38
  1

  0
LINE
  5
A35
330
A32
100
AcDbEntity
  8
0
 62
     0
100
AcDbLine
 10
10.09559252117478
 20
-3.576974004867475
 30
0.0
 11
11.86564300741795
 21
-3.576974004867475
 31
0.0
  0
LINE
  5
A36
330
A32
100
AcDbEntity
  8
0
 62
     0
100
AcDbLine
 10
10.22059252117478
 20
-3.336974004867475
 30
0.0
 11
11.86564300741795
 21
-3.336974004867475
 31
0.0
  0
LINE
  5
A37
330
A32
100
AcDbEntity
  8
0
 62
     0
100
AcDbLine
 10
11.68564300741795
 20
-3.756974004867475
 30
0.0
 11
11.68564300741795
 21
-3.936974004867476
 31
0.0
  0
LINE
  5
A38
330
A32
100
AcDbEntity
  8
0
 62
     0
100
AcDbLine
 10
11.68564300741795
 20
-3.156974004867475
 30
0.0
 11
11.68564300741795
 21
-2.976974004867475
 31
0.0
  0
SOLID
  5
A39
330
A32
100
AcDbEntity
  8
0
 62
     0
100
AcDbTrace
 10
11.71564300741795
 20
-3.756974004867475
 30
0.0
 11
11.65564300741795
 21
-3.756974004867475
 31
0.0
 12
11.68564300741795
 22
-3.576974004867475
 32
0.0
 13
11.68564300741795
 23
-3.576974004867475
 33
0.0
  0
SOLID
  5
A3A
330
A32
100
AcDbEntity
  8
0
 62
     0
100
AcDbTrace
 10
11.65564300741795
 20
-3.156974004867475
 30
0.0
 11
11.71564300741795
 21
-3.156974004867475
 31
0.0
 12
11.68564300741795
 22
-3.336974004867475
 32
0.0
 13
11.68564300741795
 23
-3.336974004867475
 33
0.0
  0
MTEXT
  5
A3B
330
A32
100
AcDbEntity
  8
0
 62
     0
100
AcDbMText
 10
12.27631300741795
 20
-3.456974004867475
 30
0.0
 40
0.18
 41
0.0
 71
     5
 72
     1
  1
\A1;0.240
  0
POINT
  5
A3C
330
A32
100
AcDbEntity
  8
DEFPOINTS
 62
     0
100
AcDbPoint
 10
10.03309252117478
 20
-3.576974004867475
 30
0.0
  0
POINT
  5
A3D
330
A32
100
AcDbEntity
  8
DEFPOINTS
 62
     0
100
AcDbPoint
 10
10.15809252117478
 20
-3.336974004867475
 30
0.0
  0
POINT
  5
A3E
330
A32
100
AcDbEntity
  8
DEFPOINTS
 62
     0
100
AcDbPoint
 10
11.68564300741795
 20
-3.336974004867475
 30
0.0
  0
ENDBLK
  5
A34
330
A32
100
AcDbEntity
  8
0
100
AcDbBlockEnd
  0
BLOCK
  5
A43
330
A42
100
AcDbEntity
  8
0
100
AcDbBlockBegin
  2
*D39
 70
     1
 10
0.0
 20
0.0
 30
0.0
  3
*D39
  1

  0
LINE
  5
A45
330
A42
100
AcDbEntity
  8
0
 62
     0
100
AcDbLine
 10
9.220592521174776
 20
-3.701974004867475
 30
0.0
 11
13.43598719310563
 21
-3.701974004867476
 31
0.0
  0
LINE
  5
A46
330
A42
100
AcDbEntity
  8
0
 62
     0
100
AcDbLine
 10
10.22059252117478
 20
-3.336974004867475
 30
0.0
 11
13.43598719310563
 21
-3.336974004867475
 31
0.0
  0
LINE
  5
A47
330
A42
100
AcDbEntity
  8
0
 62
     0
100
AcDbLine
 10
13.25598719310563
 20
-3.881974004867476
 30
0.0
 11
13.25598719310563
 21
-4.061974004867476
 31
0.0
  0
LINE
  5
A48
330
A42
100
AcDbEntity
  8
0
 62
     0
100
AcDbLine
 10
13.25598719310563
 20
-3.156974004867475
 30
0.0
 11
13.25598719310563
 21
-2.976974004867475
 31
0.0
  0
SOLID
  5
A49
330
A42
100
AcDbEntity
  8
0
 62
     0
100
AcDbTrace
 10
13.28598719310563
 20
-3.881974004867476
 30
0.0
 11
13.22598719310563
 21
-3.881974004867476
 31
0.0
 12
13.25598719310563
 22
-3.701974004867476
 32
0.0
 13
13.25598719310563
 23
-3.701974004867476
 33
0.0
  0
SOLID
  5
A4A
330
A42
100
AcDbEntity
  8
0
 62
     0
100
AcDbTrace
 10
13.22598719310563
 20
-3.156974004867475
 30
0.0
 11
13.28598719310563
 21
-3.156974004867475
 31
0.0
 12
13.25598719310563
 22
-3.336974004867475
 32
0.0
 13
13.25598719310563
 23
-3.336974004867475
 33
0.0
  0
MTEXT
  5
A4B
330
A42
100
AcDbEntity
  8
0
 62
     0
100
AcDbMText
 10
13.25598719310563
 20
-3.519474004867475
 30
0.0
 40
0.18
 41
0.0
 71
     5
 72
     1
  1
\A1;0.365
  0
POINT
  5
A4C
330
A42
100
AcDbEntity
  8
DEFPOINTS
 62
     0
100
AcDbPoint
 10
9.158092521174776
 20
-3.701974004867475
 30
0.0
  0
POINT
  5
A4D
330
A42
100
AcDbEntity
  8
DEFPOINTS
 62
     0
100
AcDbPoint
 10
10.15809252117478
 20
-3.336974004867475
 30
0.0
  0
POINT
  5
A4E
330
A42
100
AcDbEntity
  8
DEFPOINTS
 62
     0
100
AcDbPoint
 10
13.25598719310563
 20
-3.336974004867475
 30
0.0
  0
ENDBLK
  5
A44
330
A42
100
AcDbEntity
  8
0
100
AcDbBlockEnd
  0
BLOCK
  5
BAB
330
BAA
100
AcDbEntity
  8
0
100
AcDbBlockBegin
  2
*D40
 70
     1
 10
0.0
 20
0.0
 30
0.0
  3
*D40
  1

  0
LINE
  5
BAD
330
BAA
100
AcDbEntity
  8
0
 62
     0
100
AcDbLine
 10
15.82267732017462
 20
0.575258408111651
 30
0.0
 11
15.04276707751317
 21
0.575258408111651
 31
0.0
  0
LINE
  5
BAE
330
BAA
100
AcDbEntity
  8
0
 62
     0
100
AcDbLine
 10
15.82267732017462
 20
2.637758408111653
 30
0.0
 11
15.04276707751317
 21
2.637758408111653
 31
0.0
  0
LINE
  5
BAF
330
BAA
100
AcDbEntity
  8
0
 62
     0
100
AcDbLine
 10
15.22276707751317
 20
0.7552584081116509
 30
0.0
 11
15.22276707751317
 21
1.424618408111652
 31
0.0
  0
LINE
  5
BB0
330
BAA
100
AcDbEntity
  8
0
 62
     0
100
AcDbLine
 10
15.22276707751317
 20
2.457758408111653
 30
0.0
 11
15.22276707751317
 21
1.788398408111652
 31
0.0
  0
SOLID
  5
BB1
330
BAA
100
AcDbEntity
  8
0
 62
     0
100
AcDbTrace
 10
15.19276707751317
 20
0.7552584081116509
 30
0.0
 11
15.25276707751317
 21
0.7552584081116509
 31
0.0
 12
15.22276707751317
 22
0.575258408111651
 32
0.0
 13
15.22276707751317
 23
0.575258408111651
 33
0.0
  0
SOLID
  5
BB2
330
BAA
100
AcDbEntity
  8
0
 62
     0
100
AcDbTrace
 10
15.25276707751317
 20
2.457758408111653
 30
0.0
 11
15.19276707751317
 21
2.457758408111653
 31
0.0
 12
15.22276707751317
 22
2.637758408111653
 32
0.0
 13
15.22276707751317
 23
2.637758408111653
 33
0.0
  0
MTEXT
  5
BB3
330
BAA
100
AcDbEntity
  8
0
 62
     0
100
AcDbMText
 10
15.22276707751317
 20
1.606508408111652
 30
0.0
 40
0.18
 41
0.0
 71
     5
 72
     1
  1
\A1;2.063
  0
POINT
  5
BB4
330
BAA
100
AcDbEntity
  8
DEFPOINTS
 62
     0
100
AcDbPoint
 10
15.88517732017462
 20
0.575258408111651
 30
0.0
  0
POINT
  5
BB5
330
BAA
100
AcDbEntity
  8
DEFPOINTS
 62
     0
100
AcDbPoint
 10
15.88517732017462
 20
2.637758408111653
 30
0.0
  0
POINT
  5
BB6
330
BAA
100
AcDbEntity
  8
DEFPOINTS
 62
     0
100
AcDbPoint
 10
15.22276707751317
 20
2.637758408111653
 30
0.0
  0
ENDBLK
  5
BAC
330
BAA
100
AcDbEntity
  8
0
100
AcDbBlockEnd
  0
BLOCK
  5
BBB
330
BBA
100
AcDbEntity
  8
0
100
AcDbBlockBegin
  2
*D41
 70
     1
 10
0.0
 20
0.0
 30
0.0
  3
*D41
  1

  0
LINE
  5
BBD
330
BBA
100
AcDbEntity
  8
0
 62
     0
100
AcDbLine
 10
7.220592521174773
 20
2.078161149731351
 30
0.0
 11
5.869204207328703
 21
2.078161149731351
 31
0.0
  0
LINE
  5
BBE
330
BBA
100
AcDbEntity
  8
0
 62
     0
100
AcDbLine
 10
7.220592521174773
 20
4.140661149731352
 30
0.0
 11
5.869204207328703
 21
4.140661149731352
 31
0.0
  0
LINE
  5
BBF
330
BBA
100
AcDbEntity
  8
0
 62
     0
100
AcDbLine
 10
6.049204207328703
 20
2.258161149731351
 30
0.0
 11
6.049204207328703
 21
2.927521149731352
 31
0.0
  0
LINE
  5
BC0
330
BBA
100
AcDbEntity
  8
0
 62
     0
100
AcDbLine
 10
6.049204207328703
 20
3.960661149731352
 30
0.0
 11
6.049204207328703
 21
3.291301149731351
 31
0.0
  0
SOLID
  5
BC1
330
BBA
100
AcDbEntity
  8
0
 62
     0
100
AcDbTrace
 10
6.019204207328703
 20
2.258161149731351
 30
0.0
 11
6.079204207328703
 21
2.258161149731351
 31
0.0
 12
6.049204207328703
 22
2.078161149731351
 32
0.0
 13
6.049204207328703
 23
2.078161149731351
 33
0.0
  0
SOLID
  5
BC2
330
BBA
100
AcDbEntity
  8
0
 62
     0
100
AcDbTrace
 10
6.079204207328703
 20
3.960661149731352
 30
0.0
 11
6.019204207328703
 21
3.960661149731352
 31
0.0
 12
6.049204207328703
 22
4.140661149731352
 32
0.0
 13
6.049204207328703
 23
4.140661149731352
 33
0.0
  0
MTEXT
  5
BC3
330
BBA
100
AcDbEntity
  8
0
 62
     0
100
AcDbMText
 10
6.049204207328703
 20
3.109411149731351
 30
0.0
 40
0.18
 41
0.0
 71
     5
 72
     1
  1
\A1;2.063
  0
POINT
  5
BC4
330
BBA
100
AcDbEntity
  8
DEFPOINTS
 62
     0
100
AcDbPoint
 10
7.283092521174773
 20
2.078161149731351
 30
0.0
  0
POINT
  5
BC5
330
BBA
100
AcDbEntity
  8
DEFPOINTS
 62
     0
100
AcDbPoint
 10
7.283092521174773
 20
4.140661149731352
 30
0.0
  0
POINT
  5
BC6
330
BBA
100
AcDbEntity
  8
DEFPOINTS
 62
     0
100
AcDbPoint
 10
6.049204207328703
 20
4.140661149731352
 30
0.0
  0
ENDBLK
  5
BBC
330
BBA
100
AcDbEntity
  8
0
100
AcDbBlockEnd
  0
BLOCK
  5
BD2
330
BD1
100
AcDbEntity
  8
0
100
AcDbBlockBegin
  2
*D42
 70
     1
 10
0.0
 20
0.0
 30
0.0
  3
*D42
  1

  0
LINE
  5
BD4
330
BD1
100
AcDbEntity
  8
0
 62
     0
100
AcDbLine
 10
22.40920579957949
 20
1.526173079557605
 30
0.0
 11
23.12272436388444
 21
1.526173079557605
 31
0.0
  0
LINE
  5
BD5
330
BD1
100
AcDbEntity
  8
0
 62
     0
100
AcDbLine
 10
22.4092057995795
 20
2.266173079557605
 30
0.0
 11
23.12272436388444
 21
2.266173079557605
 31
0.0
  0
LINE
  5
BD6
330
BD1
100
AcDbEntity
  8
0
 62
     0
100
AcDbLine
 10
22.94272436388444
 20
1.706173079557604
 30
0.0
 11
22.94272436388444
 21
2.086173079557605
 31
0.0
  0
LINE
  5
BD7
330
BD1
100
AcDbEntity
  8
0
 62
     0
100
AcDbLine
 10
22.94272436388444
 20
2.086173079557605
 30
0.0
 11
22.94272436388444
 21
1.706173079557604
 31
0.0
  0
SOLID
  5
BD8
330
BD1
100
AcDbEntity
  8
0
 62
     0
100
AcDbTrace
 10
22.91272436388444
 20
1.706173079557604
 30
0.0
 11
22.97272436388444
 21
1.706173079557604
 31
0.0
 12
22.94272436388444
 22
1.526173079557605
 32
0.0
 13
22.94272436388444
 23
1.526173079557605
 33
0.0
  0
SOLID
  5
BD9
330
BD1
100
AcDbEntity
  8
0
 62
     0
100
AcDbTrace
 10
22.97272436388444
 20
2.086173079557605
 30
0.0
 11
22.91272436388444
 21
2.086173079557605
 31
0.0
 12
22.94272436388444
 22
2.266173079557605
 32
0.0
 13
22.94272436388444
 23
2.266173079557605
 33
0.0
  0
MTEXT
  5
BDA
330
BD1
100
AcDbEntity
  8
0
 62
     0
100
AcDbMText
 10
23.53339436388444
 20
1.896173079557605
 30
0.0
 40
0.18
 41
0.0
 71
     5
 72
     1
  1
\A1;0.7400
  0
POINT
  5
BDB
330
BD1
100
AcDbEntity
  8
DEFPOINTS
 62
     0
100
AcDbPoint
 10
22.34670579957949
 20
1.526173079557605
 30
0.0
  0
POINT
  5
BDC
330
BD1
100
AcDbEntity
  8
DEFPOINTS
 62
     0
100
AcDbPoint
 10
22.3467057995795
 20
2.266173079557605
 30
0.0
  0
POINT
  5
BDD
330
BD1
100
AcDbEntity
  8
DEFPOINTS
 62
     0
100
AcDbPoint
 10
22.94272436388444
 20
2.266173079557605
 30
0.0
  0
ENDBLK
  5
BD3
330
BD1
100
AcDbEntity
  8
0
100
AcDbBlockEnd
  0
BLOCK
  5
C68
330
C67
100
AcDbEntity
  8
0
100
AcDbBlockBegin
  2
*D43
 70
     1
 10
0.0
 20
0.0
 30
0.0
  3
*D43
  1

  0
LINE
  5
C6A
330
C67
100
AcDbEntity
  8
0
 62
     0
100
AcDbLine
 10
31.19497221515644
 20
1.591407196146721
 30
0.0
 11
31.19497221515644
 21
2.235615885336538
 31
0.0
  0
LINE
  5
C6B
330
C67
100
AcDbEntity
  8
0
 62
     0
100
AcDbLine
 10
30.92622221515644
 20
1.591407196146721
 30
0.0
 11
30.92622221515644
 21
2.235615885336538
 31
0.0
  0
LINE
  5
C6C
330
C67
100
AcDbEntity
  8
0
 62
     0
100
AcDbLine
 10
31.37497221515644
 20
2.055615885336538
 30
0.0
 11
31.55497221515644
 21
2.055615885336538
 31
0.0
  0
LINE
  5
C6D
330
C67
100
AcDbEntity
  8
0
 62
     0
100
AcDbLine
 10
30.74622221515644
 20
2.055615885336538
 30
0.0
 11
30.56622221515644
 21
2.055615885336538
 31
0.0
  0
SOLID
  5
C6E
330
C67
100
AcDbEntity
  8
0
 62
     0
100
AcDbTrace
 10
31.37497221515644
 20
2.085615885336538
 30
0.0
 11
31.37497221515644
 21
2.025615885336538
 31
0.0
 12
31.19497221515644
 22
2.055615885336538
 32
0.0
 13
31.19497221515644
 23
2.055615885336538
 33
0.0
  0
SOLID
  5
C6F
330
C67
100
AcDbEntity
  8
0
 62
     0
100
AcDbTrace
 10
30.74622221515644
 20
2.025615885336538
 30
0.0
 11
30.74622221515644
 21
2.085615885336538
 31
0.0
 12
30.92622221515644
 22
2.055615885336538
 32
0.0
 13
30.92622221515644
 23
2.055615885336538
 33
0.0
  0
MTEXT
  5
C70
330
C67
100
AcDbEntity
  8
0
 62
     0
100
AcDbMText
 10
31.06059721515643
 20
2.462505885336538
 30
0.0
 40
0.18
 41
0.0
 71
     5
 72
     1
  1
\A1;0.2688
  0
POINT
  5
C71
330
C67
100
AcDbEntity
  8
DEFPOINTS
 62
     0
100
AcDbPoint
 10
31.19497221515644
 20
1.528907196146721
 30
0.0
  0
POINT
  5
C72
330
C67
100
AcDbEntity
  8
DEFPOINTS
 62
     0
100
AcDbPoint
 10
30.92622221515644
 20
1.528907196146721
 30
0.0
  0
POINT
  5
C73
330
C67
100
AcDbEntity
  8
DEFPOINTS
 62
     0
100
AcDbPoint
 10
30.92622221515644
 20
2.055615885336538
 30
0.0
  0
ENDBLK
  5
C69
330
C67
100
AcDbEntity
  8
0
100
AcDbBlockEnd
  0
BLOCK
  5
D72
330
D71
100
AcDbEntity
  8
0
100
AcDbBlockBegin
  2
*D44
 70
     1
 10
0.0
 20
0.0
 30
0.0
  3
*D44
  1

  0
LINE
  5
D74
330
D71
100
AcDbEntity
  8
0
 62
     0
100
AcDbLine
 10
30.04480807098591
 20
-1.157808850820003
 30
0.0
 11
30.04480807098591
 21
-0.8717707399585377
 31
0.0
  0
LINE
  5
D75
330
D71
100
AcDbEntity
  8
0
 62
     0
100
AcDbLine
 10
30.12149624191014
 20
-1.157808850820003
 30
0.0
 11
30.12149624191014
 21
-0.8717707399585377
 31
0.0
  0
LINE
  5
D76
330
D71
100
AcDbEntity
  8
0
 62
     0
100
AcDbLine
 10
29.86480807098591
 20
-1.051770739958538
 30
0.0
 11
29.68480807098591
 21
-1.051770739958538
 31
0.0
  0
LINE
  5
D77
330
D71
100
AcDbEntity
  8
0
 62
     0
100
AcDbLine
 10
30.30149624191014
 20
-1.051770739958538
 30
0.0
 11
30.48149624191014
 21
-1.051770739958538
 31
0.0
  0
SOLID
  5
D78
330
D71
100
AcDbEntity
  8
0
 62
     0
100
AcDbTrace
 10
29.86480807098591
 20
-1.081770739958538
 30
0.0
 11
29.86480807098591
 21
-1.021770739958538
 31
0.0
 12
30.04480807098591
 22
-1.051770739958538
 32
0.0
 13
30.04480807098591
 23
-1.051770739958538
 33
0.0
  0
SOLID
  5
D79
330
D71
100
AcDbEntity
  8
0
 62
     0
100
AcDbTrace
 10
30.30149624191014
 20
-1.021770739958538
 30
0.0
 11
30.30149624191014
 21
-1.081770739958538
 31
0.0
 12
30.12149624191014
 22
-1.051770739958538
 32
0.0
 13
30.12149624191014
 23
-1.051770739958538
 33
0.0
  0
MTEXT
  5
D7A
330
D71
100
AcDbEntity
  8
0
 62
     0
100
AcDbMText
 10
30.08315215644802
 20
-0.6448807399585377
 30
0.0
 40
0.18
 41
0.0
 71
     5
 72
     1
  1
\A1;0.0767
  0
POINT
  5
D7B
330
D71
100
AcDbEntity
  8
DEFPOINTS
 62
     0
100
AcDbPoint
 10
30.04480807098591
 20
-1.220308850820003
 30
0.0
  0
POINT
  5
D7C
330
D71
100
AcDbEntity
  8
DEFPOINTS
 62
     0
100
AcDbPoint
 10
30.12149624191014
 20
-1.220308850820003
 30
0.0
  0
POINT
  5
D7D
330
D71
100
AcDbEntity
  8
DEFPOINTS
 62
     0
100
AcDbPoint
 10
30.12149624191014
 20
-1.051770739958538
 30
0.0
  0
ENDBLK
  5
D73
330
D71
100
AcDbEntity
  8
0
100
AcDbBlockEnd
  0
ENDSEC
  0
SECTION
  2
ENTITIES
  0
LWPOLYLINE
  5
3FA
330
1F
100
AcDbEntity
  8
0
100
AcDbPolyline
 90
        8
 70
     1
 43
0.0
 10
7.283092521174773
 20
4.140661149731352
 10
10.03309252117478
 20
4.140661149731352
 42
-0.414213562373095
 10
10.15809252117478
 20
4.015661149731352
 10
10.15809252117478
 20
2.203161149731351
 42
-0.414213562373095
 10
10.03309252117478
 20
2.078161149731351
 10
7.283092521174773
 20
2.078161149731351
 42
-0.414213562373095
 10
7.158092521174773
 20
2.203161149731351
 10
7.158092521174773
 20
4.015661149731352
 42
-0.414213562373095
  0
LWPOLYLINE
  5
3FB
330
1F
100
AcDbEntity
  8
0
100
AcDbPolyline
 90
        8
 70
     1
 43
0.0
 10
7.283092521174773
 20
4.328161149731352
 10
10.03309252117478
 20
4.328161149731352
 42
-0.414213562373095
 10
10.34559252117478
 20
4.015661149731352
 10
10.34559252117478
 20
2.203161149731351
 42
-0.414213562373095
 10
10.03309252117478
 20
1.890661149731351
 10
7.283092521174773
 20
1.890661149731351
 42
-0.414213562373095
 10
6.970592521174773
 20
2.203161149731351
 10
6.970592521174773
 20
4.015661149731352
 42
-0.414213562373095
  0
LINE
  5
3FD
330
1F
100
AcDbEntity
  8
0
100
AcDbLine
 10
7.408092521174773
 20
4.015661149731352
 30
0.0
 11
9.908092521174776
 21
4.015661149731352
 31
0.0
  0
LINE
  5
3FE
330
1F
100
AcDbEntity
  8
0
100
AcDbLine
 10
10.03309252117478
 20
3.890661149731352
 30
0.0
 11
10.03309252117478
 21
2.328161149731351
 31
0.0
  0
LINE
  5
3FF
330
1F
100
AcDbEntity
  8
0
100
AcDbLine
 10
9.908092521174776
 20
2.203161149731351
 30
0.0
 11
7.408092521174773
 21
2.203161149731351
 31
0.0
  0
LINE
  5
400
330
1F
100
AcDbEntity
  8
0
100
AcDbLine
 10
7.283092521174773
 20
2.328161149731351
 30
0.0
 11
7.283092521174773
 21
3.890661149731352
 31
0.0
  0
ARC
  5
401
330
1F
100
AcDbEntity
  8
0
100
AcDbCircle
 10
7.408092521174773
 20
3.890661149731352
 30
0.0
 40
0.1250000000000001
100
AcDbArc
 50
90.0
 51
180.0
  0
ARC
  5
402
330
1F
100
AcDbEntity
  8
0
100
AcDbCircle
 10
9.908092521174776
 20
3.890661149731352
 30
0.0
 40
0.1250000000000001
100
AcDbArc
 50
0.0
 51
90.0
  0
ARC
  5
403
330
1F
100
AcDbEntity
  8
0
100
AcDbCircle
 10
9.908092521174776
 20
2.328161149731351
 30
0.0
 40
0.1250000000000001
100
AcDbArc
 50
270.0
 51
0.0
  0
ARC
  5
404
330
1F
100
AcDbEntity
  8
0
100
AcDbCircle
 10
7.408092521174773
 20
2.328161149731351
 30
0.0
 40
0.1250000000000001
100
AcDbArc
 50
180.0
 51
270.0
  0
LINE
  5
439
330
1F
100
AcDbEntity
  8
0
100
AcDbLine
 10
7.283092521174773
 20
0.9209614158761643
 30
0.0
 11
7.283092521174773
 21
1.305961415876168
 31
0.0
  0
LINE
  5
43B
330
1F
100
AcDbEntity
  8
0
100
AcDbLine
 10
10.03309252117478
 20
1.305961415876168
 30
0.0
 11
10.03309252117478
 21
0.9209614158761643
 31
0.0
  0
LINE
  5
43D
330
1F
100
AcDbEntity
  8
0
100
AcDbLine
 10
7.158092521174773
 20
1.305961415876168
 30
0.0
 11
7.158092521174773
 21
1.420961415876166
 31
0.0
  0
LINE
  5
43F
330
1F
100
AcDbEntity
  8
0
100
AcDbLine
 10
10.15809252117478
 20
1.420961415876166
 30
0.0
 11
10.15809252117478
 21
1.305961415876168
 31
0.0
  0
LINE
  5
440
330
1F
100
AcDbEntity
  8
0
100
AcDbLine
 10
10.15809252117478
 20
1.305961415876168
 30
0.0
 11
7.158092521174773
 21
1.305961415876168
 31
0.0
  0
TEXT
  5
451
330
1F
100
AcDbEntity
  8
0
100
AcDbText
 10
7.950972472768992
 20
4.704540053617668
 30
0.0
 40
0.2
  1
MDF TOP
100
AcDbText
  0
LINE
  5
6F5
330
1F
100
AcDbEntity
  8
0
100
AcDbLine
 10
6.970592521174773
 20
1.420961415876166
 30
0.0
 11
6.970592521174773
 21
0.9209614158761643
 31
0.0
  0
LINE
  5
6F7
330
1F
100
AcDbEntity
  8
0
100
AcDbLine
 10
10.34559252117478
 20
0.9209614158761643
 30
0.0
 11
10.34559252117478
 21
1.420961415876166
 31
0.0
  0
LINE
  5
6F8
330
1F
100
AcDbEntity
  8
0
100
AcDbLine
 10
10.34559252117478
 20
1.420961415876166
 30
0.0
 11
6.970592521174773
 21
1.420961415876166
 31
0.0
  0
LINE
  5
6F9
330
1F
100
AcDbEntity
  8
0
100
AcDbLine
 10
6.970592521174773
 20
0.9209614158761643
 30
0.0
 11
10.34559252117478
 21
0.9209614158761643
 31
0.0
  0
LINE
  5
759
330
1F
100
AcDbEntity
  8
0
100
AcDbLine
 10
6.970592521174773
 20
-3.701974004867475
 30
0.0
 11
9.158092521174776
 21
-3.701974004867475
 31
0.0
  0
LINE
  5
75D
330
1F
100
AcDbEntity
  8
0
100
AcDbLine
 10
6.970592521174773
 20
-3.836974004867475
 30
0.0
 11
10.34559252117478
 21
-3.836974004867475
 31
0.0
  0
LINE
  5
75F
330
1F
100
AcDbEntity
  8
0
100
AcDbLine
 10
6.970592521174773
 20
-3.336974004867475
 30
0.0
 11
6.970592521174773
 21
-3.836974004867475
 31
0.0
  0
LINE
  5
760
330
1F
100
AcDbEntity
  8
0
100
AcDbLine
 10
10.34559252117478
 20
-3.836974004867475
 30
0.0
 11
10.34559252117478
 21
-3.336974004867475
 31
0.0
  0
LINE
  5
763
330
1F
100
AcDbEntity
  8
0
100
AcDbLine
 10
6.970592521174773
 20
-3.336974004867475
 30
0.0
 11
10.34559252117478
 21
-3.336974004867475
 31
0.0
  0
LWPOLYLINE
  5
7C7
330
1F
100
AcDbEntity
  8
0
100
AcDbPolyline
 90
        8
 70
     1
 43
0.0
 10
7.283092521174773
 20
-0.6975216019362316
 10
10.03309252117478
 20
-0.6975216019362316
 42
-0.414213562373095
 10
10.34559252117478
 20
-1.010021601936232
 10
10.34559252117478
 20
-2.822521601936232
 42
-0.414213562373095
 10
10.03309252117478
 20
-3.135021601936232
 10
7.283092521174773
 20
-3.135021601936232
 42
-0.414213562373095
 10
6.970592521174773
 20
-2.822521601936232
 10
6.970592521174773
 20
-1.010021601936232
 42
-0.414213562373095
  0
LINE
  5
7FB
330
1F
100
AcDbEntity
  8
0
100
AcDbLine
 10
10.15809252117478
 20
-3.336974004867475
 30
0.0
 11
10.15809252117478
 21
-3.386974004867475
 31
0.0
  0
LINE
  5
896
330
1F
100
AcDbEntity
  8
0
100
AcDbLine
 10
9.158092521174776
 20
-3.576974004867475
 30
0.0
 11
9.158092521174776
 21
-3.701974004867475
 31
0.0
  0
LINE
  5
898
330
1F
100
AcDbEntity
  8
0
100
AcDbLine
 10
7.158092521174773
 20
-3.576974004867475
 30
0.0
 11
10.03309252117478
 21
-3.576974004867475
 31
0.0
  0
LINE
  5
899
330
1F
100
AcDbEntity
  8
0
100
AcDbLine
 10
7.158092521174773
 20
-3.386974004867475
 30
0.0
 11
10.15809252117478
 21
-3.386974004867475
 31
0.0
  0
LWPOLYLINE
  5
89A
330
1F
100
AcDbEntity
  8
0
100
AcDbPolyline
 90
        8
 70
     1
 43
0.0
 10
7.158092521174773
 20
-2.791271601936232
 10
7.158092521174773
 20
-1.041271601936232
 42
-0.414213562373095
 10
7.283092521174773
 20
-0.9162716019362316
 10
10.03309252117478
 20
-0.9162716019362316
 42
-0.414213562373095
 10
10.15809252117478
 20
-1.041271601936232
 10
10.15809252117478
 20
-2.791271601936232
 42
-0.414213562373095
 10
10.03309252117478
 20
-2.916271601936232
 10
7.283092521174773
 20
-2.916271601936232
 42
-0.414213562373095
  0
LINE
  5
8C2
330
1F
100
AcDbEntity
  8
0
100
AcDbLine
 10
7.283092521174773
 20
-1.541271601936234
 30
0.0
 11
7.283092521174773
 21
-1.166271601936232
 31
0.0
  0
LINE
  5
8C3
330
1F
100
AcDbEntity
  8
0
100
AcDbLine
 10
7.408092521174773
 20
-1.041271601936232
 30
0.0
 11
9.908092521174776
 21
-1.041271601936232
 31
0.0
  0
LINE
  5
8C4
330
1F
100
AcDbEntity
  8
0
100
AcDbLine
 10
10.03309252117478
 20
-1.166271601936232
 30
0.0
 11
10.03309252117478
 21
-2.666271601936232
 31
0.0
  0
LINE
  5
8C5
330
1F
100
AcDbEntity
  8
0
100
AcDbLine
 10
9.908092521174776
 20
-2.791271601936232
 30
0.0
 11
7.408092521174773
 21
-2.791271601936232
 31
0.0
  0
LINE
  5
8C6
330
1F
100
AcDbEntity
  8
0
100
AcDbLine
 10
7.283092521174773
 20
-2.666271601936232
 30
0.0
 11
7.283092521174773
 21
-2.291271601936232
 31
0.0
  0
ARC
  5
8C7
330
1F
100
AcDbEntity
  8
0
100
AcDbCircle
 10
7.408092521174773
 20
-1.166271601936232
 30
0.0
 40
0.1250000000000001
100
AcDbArc
 50
90.0
 51
180.0
  0
ARC
  5
8C8
330
1F
100
AcDbEntity
  8
0
100
AcDbCircle
 10
9.908092521174776
 20
-1.166271601936232
 30
0.0
 40
0.1250000000000001
100
AcDbArc
 50
0.0
 51
90.0
  0
ARC
  5
8C9
330
1F
100
AcDbEntity
  8
0
100
AcDbCircle
 10
9.908092521174776
 20
-2.666271601936232
 30
0.0
 40
0.1250000000000001
100
AcDbArc
 50
270.0
 51
0.0
  0
ARC
  5
8CA
330
1F
100
AcDbEntity
  8
0
100
AcDbCircle
 10
7.408092521174773
 20
-2.666271601936232
 30
0.0
 40
0.1250000000000001
100
AcDbArc
 50
180.0
 51
270.0
  0
LINE
  5
8CC
330
1F
100
AcDbEntity
  8
0
100
AcDbLine
 10
7.283092521174773
 20
-1.541271601936234
 30
0.0
 11
9.033092521174776
 21
-1.541271601936234
 31
0.0
  0
LINE
  5
8CD
330
1F
100
AcDbEntity
  8
0
100
AcDbLine
 10
9.158092521174776
 20
-1.666271601936234
 30
0.0
 11
9.158092521174776
 21
-2.166271601936232
 31
0.0
  0
LINE
  5
8CE
330
1F
100
AcDbEntity
  8
0
100
AcDbLine
 10
9.033092521174776
 20
-2.291271601936232
 30
0.0
 11
7.283092521174773
 21
-2.291271601936232
 31
0.0
  0
ARC
  5
8CF
330
1F
100
AcDbEntity
  8
0
100
AcDbCircle
 10
9.033092521174776
 20
-2.166271601936232
 30
0.0
 40
0.1250000000000001
100
AcDbArc
 50
270.0
 51
0.0
  0
ARC
  5
8D0
330
1F
100
AcDbEntity
  8
0
100
AcDbCircle
 10
9.033092521174776
 20
-1.666271601936234
 30
0.0
 40
0.1250000000000001
100
AcDbArc
 50
0.0
 51
90.0
  0
ARC
  5
8D1
330
1F
100
AcDbEntity
  8
0
100
AcDbCircle
 10
7.283092521174773
 20
-2.166271601936232
 30
0.0
 40
0.1250000000000001
100
AcDbArc
 50
180.0
 51
270.0
  0
ARC
  5
8D2
330
1F
100
AcDbEntity
  8
0
100
AcDbCircle
 10
7.283092521174773
 20
-1.666271601936234
 30
0.0
 40
0.1250000000000001
100
AcDbArc
 50
90.0
 51
180.0
  0
LINE
  5
8D4
330
1F
100
AcDbEntity
  8
0
100
AcDbLine
 10
6.970592521174773
 20
-1.716271601936233
 30
0.0
 11
7.158092521174773
 21
-1.716271601936233
 31
0.0
  0
LINE
  5
8D6
330
1F
100
AcDbEntity
  8
0
100
AcDbLine
 10
7.158092521174773
 20
-2.116271601936232
 30
0.0
 11
6.970592521174773
 21
-2.116271601936232
 31
0.0
  0
LINE
  5
8D8
330
1F
100
AcDbEntity
  8
0
100
AcDbLine
 10
10.03309252117478
 20
-3.386974004867475
 30
0.0
 11
10.03309252117478
 21
-3.576974004867475
 31
0.0
  0
LINE
  5
8D9
330
1F
100
AcDbEntity
  8
0
100
AcDbLine
 10
7.283092521174773
 20
-3.386974004867475
 30
0.0
 11
7.283092521174773
 21
-3.576974004867475
 31
0.0
  0
LINE
  5
8DA
330
1F
100
AcDbEntity
  8
0
100
AcDbLine
 10
7.158092521174773
 20
-3.701974004867475
 30
0.0
 11
7.158092521174773
 21
-3.336974004867475
 31
0.0
  0
DIMENSION
  5
971
330
1F
100
AcDbEntity
  8
0
100
AcDbDimension
  2
*D33
 10
5.690499545653584
 20
-3.135021601936232
 30
0.0
 11
5.690499545653584
 21
-1.916271601936232
 31
0.0
 70
    32
  3
STANDARD
100
AcDbAlignedDimension
 13
7.283092521174773
 23
-0.6975216019362316
 33
0.0
 14
7.283092521174773
 24
-3.135021601936232
 34
0.0
 50
90.0
100
AcDbRotatedDimension
1001
ACAD
1000
DSTYLE
1002
{
1070
   287
1070
     5
1070
   271
1070
     3
1070
   144
1040
1.0
1070
   279
1070
     2
1002
}
  0
DIMENSION
  5
981
330
1F
100
AcDbEntity
  8
0
100
AcDbDimension
  2
*D34
 10
5.705645231070417
 20
-3.836974004867475
 30
0.0
 11
5.705645231070417
 21
-3.586974004867475
 31
0.0
 70
    32
  3
STANDARD
100
AcDbAlignedDimension
 13
6.970592521174773
 23
-3.336974004867475
 33
0.0
 14
6.970592521174773
 24
-3.836974004867475
 34
0.0
 50
90.0
100
AcDbRotatedDimension
1001
ACAD
1000
DSTYLE
1002
{
1070
   287
1070
     5
1070
   271
1070
     3
1070
   144
1040
1.0
1070
   279
1070
     2
1002
}
  0
DIMENSION
  5
991
330
1F
100
AcDbEntity
  8
0
100
AcDbDimension
  2
*D35
 10
5.666084964925602
 20
1.420961415876166
 30
0.0
 11
5.666084964925602
 21
1.170961415876165
 31
0.0
 70
    32
  3
STANDARD
100
AcDbAlignedDimension
 13
6.970592521174773
 23
0.9209614158761643
 33
0.0
 14
6.970592521174773
 24
1.420961415876166
 34
0.0
 50
90.0
100
AcDbRotatedDimension
1001
ACAD
1000
DSTYLE
1002
{
1070
   287
1070
     5
1070
   271
1070
     3
1070
   144
1040
1.0
1070
   279
1070
     2
1002
}
  0
DIMENSION
  5
A0F
330
1F
100
AcDbEntity
  8
0
100
AcDbDimension
  2
*D36
 10
10.74749756209506
 20
1.305961415876168
 30
0.0
 11
11.33816756209506
 21
1.363461415876167
 31
0.0
 70
    32
  3
STANDARD
100
AcDbAlignedDimension
 13
10.15809252117478
 23
1.420961415876166
 33
0.0
 14
10.15809252117478
 24
1.305961415876168
 34
0.0
 50
90.0
100
AcDbRotatedDimension
1001
ACAD
1000
DSTYLE
1002
{
1070
   287
1070
     5
1070
   271
1070
     3
1070
   144
1040
1.0
1070
   279
1070
     2
1002
}
  0
DIMENSION
  5
A1F
330
1F
100
AcDbEntity
  8
0
100
AcDbDimension
  2
*D37
 10
10.60147836835729
 20
-3.386974004867475
 30
0.0
 11
11.19214836835729
 21
-3.361974004867475
 31
0.0
 70
    32
  3
STANDARD
100
AcDbAlignedDimension
 13
10.15809252117478
 23
-3.336974004867475
 33
0.0
 14
10.15809252117478
 24
-3.386974004867475
 34
0.0
 50
90.0
100
AcDbRotatedDimension
1001
ACAD
1000
DSTYLE
1002
{
1070
   287
1070
     5
1070
   271
1070
     3
1070
   144
1040
1.0
1070
   279
1070
     2
1002
}
  0
DIMENSION
  5
A2F
330
1F
100
AcDbEntity
  8
0
100
AcDbDimension
  2
*D38
 10
11.68564300741795
 20
-3.336974004867475
 30
0.0
 11
12.27631300741795
 21
-3.456974004867475
 31
0.0
 70
    32
  3
STANDARD
100
AcDbAlignedDimension
 13
10.03309252117478
 23
-3.576974004867475
 33
0.0
 14
10.15809252117478
 24
-3.336974004867475
 34
0.0
 50
90.0
100
AcDbRotatedDimension
1001
ACAD
1000
DSTYLE
1002
{
1070
   287
1070
     5
1070
   271
1070
     3
1070
   144
1040
1.0
1070
   279
1070
     2
1002
}
  0
DIMENSION
  5
A3F
330
1F
100
AcDbEntity
  8
0
100
AcDbDimension
  2
*D39
 10
13.25598719310563
 20
-3.336974004867475
 30
0.0
 11
13.25598719310563
 21
-3.519474004867475
 31
0.0
 70
    32
  3
STANDARD
100
AcDbAlignedDimension
 13
9.158092521174776
 23
-3.701974004867475
 33
0.0
 14
10.15809252117478
 24
-3.336974004867475
 34
0.0
 50
90.0
100
AcDbRotatedDimension
1001
ACAD
1000
DSTYLE
1002
{
1070
   287
1070
     5
1070
   271
1070
     3
1070
   144
1040
1.0
1070
   279
1070
     2
1002
}
  0
LWPOLYLINE
  5
BA5
330
1F
100
AcDbEntity
  8
0
100
AcDbPolyline
 90
        8
 70
     1
 43
0.0
 10
16.28721254522354
 20
2.637758408111653
 10
19.03721254522354
 20
2.637758408111653
 42
-0.414213562373095
 10
19.16221254522354
 20
2.512758408111653
 10
19.16221254522354
 20
0.700258408111651
 42
-0.414213562373095
 10
19.03721254522354
 20
0.575258408111651
 10
16.28721254522354
 20
0.575258408111651
 42
-0.414213562373095
 10
16.16221254522354
 20
0.700258408111651
 10
16.16221254522354
 20
2.512758408111653
 42
-0.414213562373095
  0
LWPOLYLINE
  5
BA6
330
1F
100
AcDbEntity
  8
0
100
AcDbPolyline
 90
        4
 70
     1
 43
0.0
 10
16.16221254522354
 20
0.164141774060772
 10
16.16221254522354
 20
0.2821417740607708
 10
19.16221254522354
 20
0.2821417740607708
 10
19.16221254522354
 20
0.164141774060772
  0
DIMENSION
  5
BA7
330
1F
100
AcDbEntity
  8
0
100
AcDbDimension
  2
*D40
 10
15.22276707751317
 20
2.637758408111653
 30
0.0
 11
15.22276707751317
 21
1.606508408111652
 31
0.0
 70
    32
  3
STANDARD
100
AcDbAlignedDimension
 13
15.88517732017462
 23
0.575258408111651
 33
0.0
 14
15.88517732017462
 24
2.637758408111653
 34
0.0
 50
90.0
100
AcDbRotatedDimension
1001
ACAD
1000
DSTYLE
1002
{
1070
   287
1070
     5
1070
   271
1070
     3
1070
   144
1040
1.0
1070
   279
1070
     2
1002
}
  0
DIMENSION
  5
BB7
330
1F
100
AcDbEntity
  8
0
100
AcDbDimension
  2
*D41
 10
6.049204207328703
 20
4.140661149731352
 30
0.0
 11
6.049204207328703
 21
3.109411149731351
 31
0.0
 70
    32
  3
STANDARD
100
AcDbAlignedDimension
 13
7.283092521174773
 23
2.078161149731351
 33
0.0
 14
7.283092521174773
 24
4.140661149731352
 34
0.0
 50
90.0
100
AcDbRotatedDimension
1001
ACAD
1000
DSTYLE
1002
{
1070
   287
1070
     5
1070
   271
1070
     3
1070
   144
1040
1.0
1070
   279
1070
     2
1002
}
  0
CIRCLE
  5
BE0
330
1F
100
AcDbEntity
  8
0
100
AcDbCircle
 10
17.00121254522354
 20
1.606508408111652
 30
0.0
 40
0.1375
  0
LWPOLYLINE
  5
C10
330
1F
100
AcDbEntity
  8
0
100
AcDbPolyline
 90
        8
 70
     1
 43
0.0
 10
17.92621254522354
 20
1.075258408111652
 10
18.67621254522354
 20
1.075258408111652
 42
0.414213562373095
 10
18.83246254522354
 20
1.231508408111653
 10
18.83246254522354
 20
1.981508408111652
 42
0.414213562373095
 10
18.67621254522354
 20
2.137758408111651
 10
17.92621254522354
 20
2.137758408111651
 42
0.414213562373095
 10
17.76996254522354
 20
1.981508408111652
 10
17.76996254522354
 20
1.231508408111653
 42
0.414213562373095
  0
LWPOLYLINE
  5
C5D
330
1F
100
AcDbEntity
  8
0
100
AcDbPolyline
 90
        8
 70
     1
 43
0.0
 10
17.95955757770886
 20
2.961594656722208
 10
18.70955757770887
 20
2.961594656722208
 42
0.414213562373095
 10
18.83455757770887
 20
3.086594656722208
 10
18.83455757770887
 20
3.836594656722208
 42
0.414213562373095
 10
18.70955757770887
 20
3.961594656722208
 10
17.95955757770886
 20
3.961594656722208
 42
0.414213562373095
 10
17.83455757770886
 20
3.836594656722208
 10
17.83455757770886
 20
3.086594656722208
 42
0.414213562373095
  0
CIRCLE
  5
C60
330
1F
100
AcDbEntity
  8
0
100
AcDbCircle
 10
18.33455757770887
 20
3.461594656722208
 30
0.0
 40
0.225
  0
TEXT
  5
D84
330
1F
100
AcDbEntity
  8
0
100
AcDbText
 10
17.79786270253495
 20
-2.863388069254306
 30
0.0
 40
0.2
  1
HOLE DP = .375
100
AcDbText
  0
CIRCLE
  5
DD3
330
1F
100
AcDbEntity
  8
0
100
AcDbCircle
 10
16.67883264631813
 20
-2.676753763854268
 30
0.0
 40
0.1175
  0
LWPOLYLINE
  5
EAA
330
1F
100
AcDbEntity
  8
0
100
AcDbPolyline
 90
       40
 70
     1
 43
0.0
 10
16.2455126547662
 20
-2.427286762185846
 42
0.0255702744612395
 10
16.22231050187488
 20
-2.472823551200667
 42
-0.5143398239932823
 10
16.1896313016604
 20
-2.573399787708857
 42
0.0255702744612389
 10
16.18163638463588
 20
-2.623877707182062
 42
-0.5143398239933104
 10
16.18163638463588
 20
-2.729629820526478
 42
0.025570274461236
 10
16.1896313016604
 20
-2.780107739999678
 42
-0.514339823993348
 10
16.22231050187489
 20
-2.880683976507874
 42
0.0255702744612347
 10
16.2455126547662
 20
-2.926220765522686
 42
-0.5143398239933423
 10
16.30767218738881
 20
-3.011776022409391
 42
0.025570274461236
 10
16.34381038776301
 20
-3.04791422278359
 42
-0.5143398239933205
 10
16.42936564464971
 20
-3.110073755406201
 42
0.0255702744612363
 10
16.47490243366453
 20
-3.133275908297508
 42
-0.5143398239932979
 10
16.57547867017272
 20
-3.165955108512
 42
0.0255702744612391
 10
16.62595658964592
 20
-3.17395002553651
 42
-0.5143398239932913
 10
16.73170870299034
 20
-3.17395002553651
 42
0.0255702744612391
 10
16.78218662246354
 20
-3.165955108512
 42
-0.5143398239932897
 10
16.88276285897173
 20
-3.133275908297509
 42
0.0255702744612383
 10
16.92829964798655
 20
-3.1100737554062
 42
-0.5143398239932917
 10
17.01385490487325
 20
-3.04791422278359
 42
0.025570274461236
 10
17.04999310524745
 20
-3.011776022409391
 42
-0.5143398239933423
 10
17.11215263787006
 20
-2.926220765522689
 42
0.0255702744612383
 10
17.13535479076137
 20
-2.88068397650787
 42
-0.5143398239933278
 10
17.16803399097586
 20
-2.780107739999675
 42
0.0255702744612354
 10
17.17602890800037
 20
-2.729629820526478
 42
-0.5143398239933332
 10
17.17602890800037
 20
-2.623877707182056
 42
0.0255702744612376
 10
17.16803399097586
 20
-2.573399787708853
 42
-0.5143398239932582
 10
17.13535479076137
 20
-2.472823551200666
 42
0.0255702744612371
 10
17.11215263787006
 20
-2.427286762185846
 42
-0.5143398239932656
 10
17.04999310524745
 20
-2.341731505299149
 42
0.0255702744612388
 10
17.01385490487325
 20
-2.305593304924944
 42
-0.5143398239932825
 10
16.92829964798655
 20
-2.243433772302335
 42
0.0255702744612404
 10
16.88276285897173
 20
-2.220231619411026
 42
-0.5143398239932917
 10
16.78218662246354
 20
-2.187552419196535
 42
0.0255702744612373
 10
16.73170870299034
 20
-2.179557502172024
 42
-0.5143398239932913
 10
16.62595658964592
 20
-2.179557502172024
 42
0.0255702744612373
 10
16.57547867017272
 20
-2.187552419196535
 42
-0.5143398239932896
 10
16.47490243366453
 20
-2.220231619411023
 42
0.0255702744612385
 10
16.42936564464971
 20
-2.243433772302335
 42
-0.5143398239933118
 10
16.34381038776301
 20
-2.305593304924944
 42
0.0255702744612387
 10
16.3076721873888
 20
-2.341731505299149
 42
-0.5143398239933109
  0
TEXT
  5
105B
330
1F
100
AcDbEntity
  8
0
100
AcDbText
 10
7.704407070008402
 20
-0.2637179631977755
 30
0.0
 40
0.2
  1
MDF BOTTOM
100
AcDbText
  0
TEXT
  5
1082
330
1F
100
AcDbEntity
  8
0
100
AcDbText
 10
17.77761764889319
 20
-2.506295923812664
 30
0.0
 40
0.2
  1
MDF KNOB
100
AcDbText
  0
TEXT
  5
10A9
330
1F
100
AcDbEntity
  8
0
100
AcDbText
 10
16.41792150497906
 20
4.537786041258605
 30
0.0
 40
0.2
  1
WHITE ACRYLIC
100
AcDbText
  0
ENDSEC
  0
SECTION
  2
OBJECTS
  0
DICTIONARY
  5
C
330
0
100
AcDbDictionary
  3
ACAD_DETAILVIEWSTYLE
350
122
  3
ACAD_GROUP
350
D
  3
ACAD_IMAGE_VARS
350
DC
  3
ACAD_MLINESTYLE
350
17
  3
ACAD_SCALELIST
350
FC7
  3
ACAD_SECTIONVIEWSTYLE
350
123
  3
ACDBVARIABLEDICTIONARY
350
66
  3
APPDATA
350
E1
  3
CENTERLINE
350
A0C
  3
DIMOFFSETDICTIONARY
350
A07
  3
DWGPROPS
350
10AA
  0
DICTIONARY
  5
122
102
{ACAD_REACTORS
330
C
102
}
330
C
100
AcDbDictionary
  0
DICTIONARY
  5
D
102
{ACAD_REACTORS
330
C
102
}
330
C
100
AcDbDictionary
  0
RASTERVARIABLES
  5
DC
102
{ACAD_REACTORS
330
C
102
}
330
C
100
AcDbRasterVariables
 90
        0
 70
     1
 71
     1
 72
     5
  0
DICTIONARY
  5
17
102
{ACAD_REACTORS
330
C
102
}
330
C
100
AcDbDictionary
  3
STANDARD
350
18
  0
DICTIONARY
  5
FC7
102
{ACAD_REACTORS
330
C
102
}
330
C
100
AcDbDictionary
  0
DICTIONARY
  5
123
102
{ACAD_REACTORS
330
C
102
}
330
C
100
AcDbDictionary
  0
DICTIONARY
  5
66
102
{ACAD_REACTORS
330
C
102
}
330
C
100
AcDbDictionary
  3
DIMASSOC
350
67
  3
HIDETEXT
350
6B
  0
DICTIONARY
  5
E1
102
{ACAD_REACTORS
330
C
102
}
330
C
100
AcDbDictionary
  0
DICTIONARY
  5
A0C
102
{ACAD_REACTORS
330
C
102
}
330
C
100
AcDbDictionary
  3
CLEXTENSION
350
A0D
  0
DICTIONARY
  5
A07
102
{ACAD_REACTORS
330
C
102
}
330
C
100
AcDbDictionary
  3
DIMRAILANGLE
350
A0A
  3
DIMRAILFIRSTOFFSET
350
A08
  3
DIMRAILOFFSET
350
A09
  3
DIMRAILSENABLED
350
A0B
  0
XRECORD
  5
10AA
102
{ACAD_REACTORS
330
C
102
}
330
C
100
AcDbXrecord
  1
DWGPROPS COOKIE
  2

  3

  4

  6

  7

  8
jerem
  9

300
=
301
=
302
=
303
=
304
=
305
=
306
=
307
=
308
=
309
=
 40
0.0
 41
2452643.063384259
 42
2458201.048272489
  1

 90
        0
  0
MLINESTYLE
  5
18
102
{ACAD_REACTORS
330
17
102
}
330
17
100
AcDbMlineStyle
  2
STANDARD
 70
     0
  3

 62
   256
 51
90.0
 52
90.0
 71
     2
 49
0.5
 62
   256
  6
BYLAYER
 49
-0.5
 62
   256
  6
BYLAYER
  0
DICTIONARYVAR
  5
67
102
{ACAD_REACTORS
330
66
102
}
330
66
100
DictionaryVariables
280
     0
  1
2
  0
DICTIONARYVAR
  5
6B
102
{ACAD_REACTORS
330
66
102
}
330
66
100
DictionaryVariables
280
     0
  1
1
  0
DICTIONARYVAR
  5
A0D
102
{ACAD_REACTORS
330
A0C
102
}
330
A0C
100
DictionaryVariables
280
     0
  1
0.250000
  0
DICTIONARYVAR
  5
A0A
102
{ACAD_REACTORS
330
A07
102
}
330
A07
100
DictionaryVariables
280
     0
  1
0.261799
  0
DICTIONARYVAR
  5
A08
102
{ACAD_REACTORS
330
A07
102
}
330
A07
100
DictionaryVariables
280
     0
  1
0.400000
  0
DICTIONARYVAR
  5
A09
102
{ACAD_REACTORS
330
A07
102
}
330
A07
100
DictionaryVariables
280
     0
  1
0.250000
  0
DICTIONARYVAR
  5
A0B
102
{ACAD_REACTORS
330
A07
102
}
330
A07
100
DictionaryVariables
280
     0
  1
0
  0
ENDSEC
  0
EOF
