999
dxfrw 0.5.11
0
SECTION
2
HEADER
9
$ACADVER
1
AC1021
9
$HANDSEED
5
20000
9
$DWGCODEPAGE
3
ANSI_1252
9
$INSBASE
10
0
20
0
30
0
9
$EXTMIN
10
220
20
-29.8462709535
30
0
9
$EXTMAX
10
614.586897233
20
400
30
0
9
$LIMMIN
10
0
20
0
9
$LIMMAX
10
420
20
297
9
$ORTHOMODE
70
0
9
$LTSCALE
40
1
9
$TEXTSTYLE
7
STANDARD
9
$CLAYER
8
piezas
9
$DIMASZ
40
2.5
9
$DIMLFAC
40
1
9
$DIMSCALE
40
1
9
$DIMEXO
40
0.625
9
$DIMEXE
40
1.25
9
$DIMTXT
40
2.5
9
$DIMTSZ
40
0
9
$DIMAUNIT
70
0
9
$DIMADEC
70
2
9
$DIMLUNIT
70
2
9
$DIMSTYLE
2
STANDARD
9
$DIMGAP
40
0.625
9
$DIMTIH
70
0
9
$LUNITS
70
2
9
$LUPREC
70
2
9
$AUNITS
70
0
9
$AUPREC
70
2
9
$SPLINESEGS
70
8
9
$GRIDMODE
70
1
9
$SNAPSTYLE
70
0
9
$GRIDUNIT
10
0
20
0
9
$PINSBASE
10
-146.184698032
20
43.5198178017
30
0
9
$PLIMMIN
10
0
20
0
9
$PLIMMAX
10
297
20
210
9
$INSUNITS
70
4
9
$PSVPSCALE
40
0.721292556261
0
ENDSEC
0
SECTION
2
CLASSES
0
ENDSEC
0
SECTION
2
TABLES
0
TABLE
2
VPORT
5
8
330
0
100
AcDbSymbolTable
70
1
0
VPORT
5
31
330
2
100
AcDbSymbolTableRecord
100
AcDbViewportTableRecord
2
*ACTIVE
70
0
10
0
20
0
11
1
21
1
12
339.442383951
22
105.39138534
13
0
23
0
14
10
24
10
15
10
25
10
16
0
26
0
36
1
17
0
27
0
37
0
40
283.129361729
41
1.83425414365
42
50
43
0
44
0
50
0
51
0
71
0
72
100
73
1
74
3
75
0
76
1
77
0
78
0
281
0
65
1
110
0
120
0
130
0
111
1
121
0
131
0
112
0
122
1
132
0
79
0
146
0
348
10020
60
7
61
5
292
1
282
1
141
0
142
0
63
250
421
3358443
0
ENDTAB
0
TABLE
2
LTYPE
5
5
330
0
100
AcDbSymbolTable
70
4
0
LTYPE
5
14
330
5
100
AcDbSymbolTableRecord
100
AcDbLinetypeTableRecord
2
ByBlock
70
0
3

72
65
73
0
40
0
0
LTYPE
5
15
330
5
100
AcDbSymbolTableRecord
100
AcDbLinetypeTableRecord
2
ByLayer
70
0
3

72
65
73
0
40
0
0
LTYPE
5
16
330
5
100
AcDbSymbolTableRecord
100
AcDbLinetypeTableRecord
2
Continuous
70
0
3
Solid line
72
65
73
0
40
0
0
LTYPE
5
32
330
5
100
AcDbSymbolTableRecord
100
AcDbLinetypeTableRecord
2
DOT
70
0
3
Dot . . . . . . . . . . . . . . . . . . . . . .
72
65
73
2
40
6.35
49
0
74
0
49
-6.35
74
0
0
LTYPE
5
33
330
5
100
AcDbSymbolTableRecord
100
AcDbLinetypeTableRecord
2
DOT2
70
0
3
Dot (.5x) .....................................
72
65
73
2
40
3.175
49
0
74
0
49
-3.175
74
0
0
LTYPE
5
34
330
5
100
AcDbSymbolTableRecord
100
AcDbLinetypeTableRecord
2
DOTX2
70
0
3
Dot (2x) .  .  .  .  .  .  .  .  .  .  .  .  .
72
65
73
2
40
12.7
49
0
74
0
49
-12.7
74
0
0
LTYPE
5
35
330
5
100
AcDbSymbolTableRecord
100
AcDbLinetypeTableRecord
2
DASHED
70
0
3
Dot . . . . . . . . . . . . . . . . . . . . . .
72
65
73
2
40
19.05
49
12.7
74
0
49
-6.35
74
0
0
LTYPE
5
36
330
5
100
AcDbSymbolTableRecord
100
AcDbLinetypeTableRecord
2
DASHED2
70
0
3
Dashed (.5x) _ _ _ _ _ _ _ _ _ _ _ _ _ _ _ _ _
72
65
73
2
40
9.525
49
6.35
74
0
49
-3.175
74
0
0
LTYPE
5
37
330
5
100
AcDbSymbolTableRecord
100
AcDbLinetypeTableRecord
2
DASHEDX2
70
0
3
Dashed (2x) ____  ____  ____  ____  ____  ___
72
65
73
2
40
38.1
49
25.4
74
0
49
-12.7
74
0
0
LTYPE
5
38
330
5
100
AcDbSymbolTableRecord
100
AcDbLinetypeTableRecord
2
DASHDOT
70
0
3
Dash dot __ . __ . __ . __ . __ . __ . __ . __
72
65
73
4
40
25.4
49
12.7
74
0
49
-6.35
74
0
49
0
74
0
49
-6.35
74
0
0
LTYPE
5
39
330
5
100
AcDbSymbolTableRecord
100
AcDbLinetypeTableRecord
2
DASHDOT2
70
0
3
Dash dot (.5x) _._._._._._._._._._._._._._._.
72
65
73
4
40
12.7
49
6.35
74
0
49
-3.175
74
0
49
0
74
0
49
-3.175
74
0
0
LTYPE
5
3A
330
5
100
AcDbSymbolTableRecord
100
AcDbLinetypeTableRecord
2
DASHDOTX2
70
0
3
Dash dot (2x) ____  .  ____  .  ____  .  ___
72
65
73
4
40
50.8
49
25.4
74
0
49
-12.7
74
0
49
0
74
0
49
-12.7
74
0
0
LTYPE
5
3B
330
5
100
AcDbSymbolTableRecord
100
AcDbLinetypeTableRecord
2
DIVIDE
70
0
3
Divide ____ . . ____ . . ____ . . ____ . . ____
72
65
73
6
40
31.75
49
12.7
74
0
49
-6.35
74
0
49
0
74
0
49
-6.35
74
0
49
0
74
0
49
-6.35
74
0
0
LTYPE
5
3C
330
5
100
AcDbSymbolTableRecord
100
AcDbLinetypeTableRecord
2
DIVIDE2
70
0
3
Divide (.5x) __..__..__..__..__..__..__..__.._
72
65
73
6
40
15.875
49
6.35
74
0
49
-3.175
74
0
49
0
74
0
49
-3.175
74
0
49
0
74
0
49
-3.175
74
0
0
LTYPE
5
3D
330
5
100
AcDbSymbolTableRecord
100
AcDbLinetypeTableRecord
2
DIVIDEX2
70
0
3
Divide (2x) ________  .  .  ________  .  .  _
72
65
73
6
40
63.5
49
25.4
74
0
49
-12.7
74
0
49
0
74
0
49
-12.7
74
0
49
0
74
0
49
-12.7
74
0
0
LTYPE
5
3E
330
5
100
AcDbSymbolTableRecord
100
AcDbLinetypeTableRecord
2
BORDER
70
0
3
Border __ __ . __ __ . __ __ . __ __ . __ __ .
72
65
73
6
40
44.45
49
12.7
74
0
49
-6.35
74
0
49
12.7
74
0
49
-6.35
74
0
49
0
74
0
49
-6.35
74
0
0
LTYPE
5
3F
330
5
100
AcDbSymbolTableRecord
100
AcDbLinetypeTableRecord
2
BORDER2
70
0
3
Border (.5x) __.__.__.__.__.__.__.__.__.__.__.
72
65
73
6
40
22.225
49
6.35
74
0
49
-3.175
74
0
49
6.35
74
0
49
-3.175
74
0
49
0
74
0
49
-3.175
74
0
0
LTYPE
5
40
330
5
100
AcDbSymbolTableRecord
100
AcDbLinetypeTableRecord
2
BORDERX2
70
0
3
Border (2x) ____  ____  .  ____  ____  .  ___
72
65
73
6
40
88.9
49
25.4
74
0
49
-12.7
74
0
49
25.4
74
0
49
-12.7
74
0
49
0
74
0
49
-12.7
74
0
0
LTYPE
5
41
330
5
100
AcDbSymbolTableRecord
100
AcDbLinetypeTableRecord
2
CENTER
70
0
3
Center ____ _ ____ _ ____ _ ____ _ ____ _ ____
72
65
73
4
40
50.8
49
31.75
74
0
49
-6.35
74
0
49
6.35
74
0
49
-6.35
74
0
0
LTYPE
5
42
330
5
100
AcDbSymbolTableRecord
100
AcDbLinetypeTableRecord
2
CENTER2
70
0
3
Center (.5x) ___ _ ___ _ ___ _ ___ _ ___ _ ___
72
65
73
4
40
28.575
49
19.05
74
0
49
-3.175
74
0
49
3.175
74
0
49
-3.175
74
0
0
LTYPE
5
43
330
5
100
AcDbSymbolTableRecord
100
AcDbLinetypeTableRecord
2
CENTERX2
70
0
3
Center (2x) ________  __  ________  __  _____
72
65
73
4
40
101.6
49
63.5
74
0
49
-12.7
74
0
49
12.7
74
0
49
-12.7
74
0
0
ENDTAB
0
TABLE
2
LAYER
5
2
330
0
100
AcDbSymbolTable
70
1
0
LAYER
5
10
330
2
100
AcDbSymbolTableRecord
100
AcDbLayerTableRecord
2
0
70
0
62
7
6
CONTINUOUS
370
0
390
F
0
LAYER
5
44
330
2
100
AcDbSymbolTableRecord
100
AcDbLayerTableRecord
2
discontinuas
70
0
62
7
6
DASHED2
370
0
390
F
0
LAYER
5
45
330
2
100
AcDbSymbolTableRecord
100
AcDbLayerTableRecord
2
discontinuas_piezas
70
0
62
7
6
DASHED2
370
0
390
F
0
LAYER
5
46
330
2
100
AcDbSymbolTableRecord
100
AcDbLayerTableRecord
2
ejes
70
0
62
7
6
DASHDOT2
370
0
390
F
0
LAYER
5
47
330
2
100
AcDbSymbolTableRecord
100
AcDbLayerTableRecord
2
noname
70
0
62
7
6
CONTINUOUS
370
0
390
F
0
LAYER
5
48
330
2
100
AcDbSymbolTableRecord
100
AcDbLayerTableRecord
2
piezas
70
0
62
7
6
CONTINUOUS
370
0
390
F
0
LAYER
5
49
330
2
100
AcDbSymbolTableRecord
100
AcDbLayerTableRecord
2
plataforma
70
0
62
7
6
CONTINUOUS
370
40
390
F
0
ENDTAB
0
TABLE
2
STYLE
5
3
330
0
100
AcDbSymbolTable
70
3
0
STYLE
5
4A
330
2
100
AcDbSymbolTableRecord
100
AcDbTextStyleTableRecord
2
standard
70
0
40
0
41
1
50
0
71
0
42
1
3
standard
4

0
ENDTAB
0
TABLE
2
VIEW
5
6
330
0
100
AcDbSymbolTable
70
0
0
ENDTAB
0
TABLE
2
UCS
5
7
330
0
100
AcDbSymbolTable
70
0
0
ENDTAB
0
TABLE
2
APPID
5
9
330
0
100
AcDbSymbolTable
70
1
0
APPID
5
12
330
9
100
AcDbSymbolTableRecord
100
AcDbRegAppTableRecord
2
ACAD
70
0
0
ENDTAB
0
TABLE
2
DIMSTYLE
5
A
330
0
100
AcDbSymbolTable
70
1
100
AcDbDimStyleTable
71
1
0
DIMSTYLE
105
4B
330
A
100
AcDbSymbolTableRecord
100
AcDbDimStyleTableRecord
2
Standard
70
0
40
1
41
2.5
42
0.625
43
0.38
44
1.25
45
0
46
0
47
0
48
0
140
2.5
141
0.09
142
0
143
25.4
144
1
145
0
146
1
147
0.625
148
0
71
0
72
0
73
0
74
1
75
0
76
0
77
0
78
0
79
0
170
0
171
2
172
0
173
0
174
0
175
0
176
0
177
0
178
0
179
0
271
4
272
4
273
2
274
2
275
0
276
0
277
2
278
46
279
0
280
0
281
0
282
0
283
1
284
0
285
0
286
0
288
0
289
3
340
Standard
341

371
-2
372
-2
0
ENDTAB
0
TABLE
2
BLOCK_RECORD
5
1
330
0
100
AcDbSymbolTable
70
2
0
BLOCK_RECORD
5
1F
330
1
100
AcDbSymbolTableRecord
100
AcDbBlockTableRecord
2
*Model_Space
70
0
280
1
281
0
0
BLOCK_RECORD
5
1E
330
1
100
AcDbSymbolTableRecord
100
AcDbBlockTableRecord
2
*Paper_Space
70
0
280
1
281
0
0
BLOCK_RECORD
5
4C
330
1
100
AcDbSymbolTableRecord
100
AcDbBlockTableRecord
2
*D4
70
0
280
1
281
0
0
BLOCK_RECORD
5
4F
330
1
100
AcDbSymbolTableRecord
100
AcDbBlockTableRecord
2
*D2
70
0
280
1
281
0
0
BLOCK_RECORD
5
52
330
1
100
AcDbSymbolTableRecord
100
AcDbBlockTableRecord
2
*D3
70
0
280
1
281
0
0
BLOCK_RECORD
5
55
330
1
100
AcDbSymbolTableRecord
100
AcDbBlockTableRecord
2
*D5
70
0
280
1
281
0
0
BLOCK_RECORD
5
58
330
1
100
AcDbSymbolTableRecord
100
AcDbBlockTableRecord
2
*D1
70
0
280
1
281
0
0
BLOCK_RECORD
5
5B
330
1
100
AcDbSymbolTableRecord
100
AcDbBlockTableRecord
2
*D6
70
0
280
1
281
0
0
ENDTAB
0
ENDSEC
0
SECTION
2
BLOCKS
0
BLOCK
5
20
330
1F
100
AcDbEntity
8
0
100
AcDbBlockBegin
2
*Model_Space
70
0
10
0
20
0
30
0
3
*Model_Space
1

0
ENDBLK
5
21
330
1F
100
AcDbEntity
8
0
100
AcDbBlockEnd
0
BLOCK
5
1C
330
1B
100
AcDbEntity
8
0
100
AcDbBlockBegin
2
*Paper_Space
70
0
10
0
20
0
30
0
3
*Paper_Space
1

0
ENDBLK
5
1D
330
1F
100
AcDbEntity
8
0
100
AcDbBlockEnd
0
BLOCK
5
4D
330
4C
100
AcDbEntity
8
0
100
AcDbBlockBegin
2
*D4
70
1
10
0
20
0
3
*D4
1

0
LINE
5
5E
100
AcDbEntity
8
piezas
6
CONTINUOUS
62
7
370
0
100
AcDbLine
10
487.829428263
20
-8.82378810812
11
473.175637298
21
-17.6475762162
0
LINE
5
5F
100
AcDbEntity
8
piezas
6
CONTINUOUS
62
7
370
0
100
AcDbLine
10
473.175637298
20
-17.6475762162
11
466.242660927
21
-17.4900085715
0
SOLID
5
60
100
AcDbEntity
8
piezas
6
CONTINUOUS
62
7
370
0
100
AcDbTrace
10
487.829428263
20
-8.82378810812
30
0
11
485.902470936
21
-10.4700348627
31
0
12
485.472990254
22
-9.75679015806
32
0
13
485.472990254
23
-9.75679015806
33
0
0
ENDBLK
5
4E
330
4C
100
AcDbEntity
8
0
100
AcDbBlockEnd
0
BLOCK
5
50
330
4F
100
AcDbEntity
8
0
100
AcDbBlockBegin
2
*D2
70
1
10
0
20
0
3
*D2
1

0
LINE
5
61
100
AcDbEntity
8
piezas
6
CONTINUOUS
62
7
370
0
100
AcDbLine
10
586.000002345
20
18
11
602.397493059
21
24.5250887759
0
LINE
5
62
100
AcDbEntity
8
piezas
6
CONTINUOUS
62
7
370
0
100
AcDbLine
10
602.397493059
20
24.5250887759
11
609.819559399
21
24.6057634101
0
SOLID
5
63
100
AcDbEntity
8
piezas
6
CONTINUOUS
62
7
370
0
100
AcDbTrace
10
586.000002345
20
18
30
0
11
588.168932185
21
19.3111202327
31
0
12
588.476761185
22
18.5375486638
32
0
13
588.476761185
23
18.5375486638
33
0
0
ENDBLK
5
51
330
4F
100
AcDbEntity
8
0
100
AcDbBlockEnd
0
BLOCK
5
53
330
52
100
AcDbEntity
8
0
100
AcDbBlockBegin
2
*D3
70
1
10
0
20
0
3
*D3
1

0
LINE
5
64
100
AcDbEntity
8
piezas
6
CONTINUOUS
62
7
370
0
100
AcDbLine
10
581.897312202
20
-8.35108517376
11
575.9097417
21
-16.8597379923
0
LINE
5
65
100
AcDbEntity
8
piezas
6
CONTINUOUS
62
7
370
0
100
AcDbLine
10
575.9097417
20
-16.8597379923
11
566.770818302
21
-16.8597379923
0
SOLID
5
66
100
AcDbEntity
8
piezas
6
CONTINUOUS
62
7
370
0
100
AcDbTrace
10
581.897312202
20
-8.35108517376
30
0
11
580.799018952
21
-10.6351702976
31
0
12
580.118138421
22
-10.1560321464
32
0
13
580.118138421
23
-10.1560321464
33
0
0
ENDBLK
5
54
330
52
100
AcDbEntity
8
0
100
AcDbBlockEnd
0
BLOCK
5
56
330
55
100
AcDbEntity
8
0
100
AcDbBlockBegin
2
*D5
70
1
10
0
20
0
3
*D5
1

0
LINE
5
67
100
AcDbEntity
8
piezas
6
CONTINUOUS
62
7
370
0
100
AcDbLine
10
269.359782196
20
25.2154925352
11
242.998365494
21
29.3907307668
0
LINE
5
68
100
AcDbEntity
8
piezas
6
CONTINUOUS
62
7
370
0
100
AcDbLine
10
272.191246014
20
43.0926515
11
245.829829312
21
47.2678897316
0
LINE
5
69
100
AcDbEntity
8
piezas
6
CONTINUOUS
62
7
370
0
100
AcDbLine
10
244.23297592
20
29.1951876855
11
247.064439738
21
47.0723466503
0
SOLID
5
6A
100
AcDbEntity
8
piezas
6
CONTINUOUS
62
7
370
0
100
AcDbTrace
10
244.23297592
20
29.1951876855
30
0
11
244.21290258
21
31.7295298047
31
0
12
245.035221586
22
31.5992872692
32
0
13
245.035221586
23
31.5992872692
33
0
0
SOLID
5
6B
100
AcDbEntity
8
piezas
6
CONTINUOUS
62
7
370
0
100
AcDbTrace
10
247.064439738
20
47.0723466503
30
0
11
247.084513078
21
44.538004531
31
0
12
246.262194072
22
44.6682470665
32
0
13
246.262194072
23
44.6682470665
33
0
0
MTEXT
5
6C
100
AcDbEntity
8
piezas
6
CONTINUOUS
62
7
370
0
100
AcDbMText
10
243.79679219
20
38.4270817899
30
0
40
2.5
41
5
71
5
72
1
1
%%C18
7
standard
210
0
220
0
230
1
50
80.9999999976
73
2
44
1
0
ENDBLK
5
57
330
55
100
AcDbEntity
8
0
100
AcDbBlockEnd
0
BLOCK
5
59
330
58
100
AcDbEntity
8
0
100
AcDbBlockBegin
2
*D1
70
1
10
0
20
0
3
*D1
1

0
LINE
5
6D
100
AcDbEntity
8
piezas
6
CONTINUOUS
62
7
370
0
100
AcDbLine
10
293.979607282
20
112.739134981
11
283.578888746
21
47.0715825727
0
LINE
5
6E
100
AcDbEntity
8
piezas
6
CONTINUOUS
62
7
370
0
100
AcDbLine
10
300.201092139
20
-0.0325610605451
11
310.166945528
21
-5.11041698826
0
ARC
5
6F
100
AcDbEntity
8
piezas
6
CONTINUOUS
62
7
370
0
100
AcDbCircle
10
277.916696198
20
11.3219057973
40
34.9453009933
100
AcDbArc
50
333.000000001
51
80.9999999999
0
SOLID
5
70
100
AcDbEntity
8
piezas
6
CONTINUOUS
62
7
370
0
100
AcDbTrace
10
283.383345665
20
45.8369721469
30
0
11
285.916784477
21
45.7663980823
31
0
12
285.757217023
22
44.9492629083
32
0
13
285.757217023
23
44.9492629083
33
0
0
SOLID
5
71
100
AcDbEntity
8
piezas
6
CONTINUOUS
62
7
370
0
100
AcDbTrace
10
309.053187373
20
-4.54292886361
30
0
11
309.730342088
21
-2.1006441938
31
0
12
310.485209727
22
-2.45185141552
32
0
13
310.485209727
23
-2.45185141552
33
0
0
MTEXT
5
72
100
AcDbEntity
8
piezas
6
CONTINUOUS
62
7
370
0
100
AcDbMText
10
309.61006645
20
27.4704845214
30
0
40
2.5
41
6.11111111111
71
8
72
1
1
108%%D
7
standard
210
0
220
0
230
1
50
297
73
2
44
1
0
ENDBLK
5
5A
330
58
100
AcDbEntity
8
0
100
AcDbBlockEnd
0
BLOCK
5
5C
330
5B
100
AcDbEntity
8
0
100
AcDbBlockBegin
2
*D6
70
1
10
0
20
0
3
*D6
1

0
LINE
5
73
100
AcDbEntity
8
piezas
6
CONTINUOUS
62
7
370
0
100
AcDbLine
10
270.227993477
20
30.6971628255
11
249.800348744
21
33.9325839058
0
LINE
5
74
100
AcDbEntity
8
piezas
6
CONTINUOUS
62
7
370
0
100
AcDbLine
10
271.323034733
20
37.6109812097
11
250.89539
21
40.84640229
0
LINE
5
75
100
AcDbEntity
8
piezas
6
CONTINUOUS
62
7
370
0
100
AcDbLine
10
251.03495917
20
33.7370408244
11
252.130000426
21
40.6508592086
0
SOLID
5
76
100
AcDbEntity
8
piezas
6
CONTINUOUS
62
7
370
0
100
AcDbTrace
10
251.03495917
20
33.7370408244
30
0
11
251.01488583
21
36.2713829436
31
0
12
251.837204835
22
36.1411404081
32
0
13
251.837204835
23
36.1411404081
33
0
0
SOLID
5
77
100
AcDbEntity
8
piezas
6
CONTINUOUS
62
7
370
0
100
AcDbTrace
10
252.130000426
20
40.6508592086
30
0
11
252.150073766
21
38.1165170894
31
0
12
251.32775476
22
38.2467596249
32
0
13
251.32775476
23
38.2467596249
33
0
0
MTEXT
5
78
100
AcDbEntity
8
piezas
6
CONTINUOUS
62
7
370
0
100
AcDbMText
10
249.730564159
20
37.4872646386
30
0
40
2.5
41
1.11111111111
71
5
72
1
1
7
7
standard
210
0
220
0
230
1
50
80.9999999942
73
2
44
1
0
ENDBLK
5
5D
330
5B
100
AcDbEntity
8
0
100
AcDbBlockEnd
0
ENDSEC
0
SECTION
2
ENTITIES
0
ARC
5
79
100
AcDbEntity
8
0
6
ByLayer
62
256
370
-1
100
AcDbCircle
10
364.677579138
20
55.4631948512
40
85.3094658047
100
AcDbArc
50
220.239215491
51
49.5720738103
0
LINE
5
7A
100
AcDbEntity
8
noname
6
ByLayer
62
256
370
-1
100
AcDbLine
10
220
20
200.318159565
11
220
21
0.318159564959
0
LINE
5
7B
100
AcDbEntity
8
noname
6
ByLayer
62
256
370
-1
100
AcDbLine
10
257.137138982
20
27.15136904
11
249.62828466
21
-20.2576713085
0
LINE
5
7C
100
AcDbEntity
8
noname
6
ByLayer
62
256
370
-1
100
AcDbLine
10
257.137138982
20
27.15136904
11
276.890905794
21
24.0226797392
0
LINE
5
7D
100
AcDbEntity
8
noname
6
ByLayer
62
256
370
-1
100
AcDbLine
10
249.62828466
20
-20.2576713085
11
269.382051472
21
-23.3863606093
0
LINE
5
7E
100
AcDbEntity
8
ejes
6
ByLayer
62
256
370
-1
100
AcDbLine
10
252.626740847
20
37.0285553127
11
292.13427447
21
30.7711767111
0
LINE
5
7F
100
AcDbEntity
8
noname
6
ByLayer
62
256
370
-1
100
AcDbLine
10
278.73468127
20
42.0562731691
11
275.903217453
21
24.1791142043
0
LINE
5
80
100
AcDbEntity
8
noname
6
ByLayer
62
256
370
-1
100
AcDbLine
10
276.890905794
20
24.0226797392
11
268.912748076
21
-26.3494256311
0
LINE
5
81
100
AcDbEntity
8
noname
6
ByLayer
62
256
370
-1
100
AcDbLine
10
277.866469989
20
36.5746028788
11
281.817223352
21
35.9488650186
0
LINE
5
82
100
AcDbEntity
8
noname
6
ByLayer
62
256
370
-1
100
AcDbLine
10
280.722182096
20
29.0350466344
11
276.771428734
21
29.6607844946
0
LINE
5
83
100
AcDbEntity
8
noname
6
ByLayer
62
256
370
-1
100
AcDbLine
10
440.575830873
20
170.422106865
11
443.704520174
21
150.668340053
0
LINE
5
84
100
AcDbEntity
8
noname
6
ByLayer
62
256
370
-1
100
AcDbLine
10
272.808551227
20
42.9948799593
11
269.977087409
21
25.1177209945
0
LINE
5
85
100
AcDbEntity
8
noname
6
ByLayer
62
256
370
-1
100
AcDbLine
10
272.808551227
20
42.9948799593
11
278.73468127
21
42.0562731691
0
LINE
5
86
100
AcDbEntity
8
discontinuas
6
ByLayer
62
256
370
-1
100
AcDbLine
10
271.940339946
20
37.513209669
11
281.817223352
21
35.9488650186
0
LINE
5
87
100
AcDbEntity
8
discontinuas
6
ByLayer
62
256
370
-1
100
AcDbLine
10
270.84529869
20
30.5993912848
11
280.722182096
21
29.0350466344
0
LINE
5
88
100
AcDbEntity
8
noname
6
ByLayer
62
256
370
-1
100
AcDbLine
10
377.323279606
20
147.241840298
11
378.261886396
21
141.315710254
0
LINE
5
89
100
AcDbEntity
8
discontinuas
6
ByLayer
62
256
370
-1
100
AcDbLine
10
305.829750486
20
128.312385138
11
271.888624989
21
162.253510635
0
LINE
5
8A
100
AcDbEntity
8
discontinuas
6
ByLayer
62
256
370
-1
100
AcDbLine
10
291.687614862
20
114.170249514
11
257.746489365
21
148.111375011
0
LINE
5
8B
100
AcDbEntity
8
noname
6
ByLayer
62
256
370
-1
100
AcDbLine
10
257.746489365
20
148.111375011
11
271.888624989
21
162.253510635
0
LINE
5
8C
100
AcDbEntity
8
noname
6
ByLayer
62
256
370
-1
100
AcDbLine
10
305.829744454
20
128.312391169
11
291.687614862
21
114.170249514
0
LINE
5
8D
100
AcDbEntity
8
noname
6
ByLayer
62
256
370
-1
100
AcDbLine
10
307.951065703
20
126.191071731
11
304.06197916
21
122.301981871
0
LINE
5
8E
100
AcDbEntity
8
noname
6
ByLayer
62
256
370
-1
100
AcDbLine
10
297.698020844
20
115.938018126
11
293.881835741
21
112.121829768
0
LINE
5
8F
100
AcDbEntity
8
noname
6
ByLayer
62
256
370
-1
100
AcDbLine
10
408.932621855
20
142.123617021
11
307.878156046
21
126.118162012
0
LINE
5
90
100
AcDbEntity
8
noname
6
ByLayer
62
256
370
-1
100
AcDbLine
10
287.444971159
20
118.412893217
11
257.746489365
21
148.111375011
0
LINE
5
91
100
AcDbEntity
8
noname
6
ByLayer
62
256
370
-1
100
AcDbLine
10
271.888624989
20
162.253510635
11
301.587100751
21
132.555034872
0
LINE
5
92
100
AcDbEntity
8
noname
6
ByLayer
62
256
370
-1
100
AcDbLine
10
220
20
200.318159565
11
420
21
200.318159565
0
LINE
5
93
100
AcDbEntity
8
0
6
ByLayer
62
256
370
-1
100
AcDbLine
10
277.916696198
20
11.3219057973
11
299.644213061
21
0.251183001782
0
LINE
5
94
100
AcDbEntity
8
0
6
ByLayer
62
256
370
-1
100
AcDbLine
10
420
20
120.402664405
11
408.932621855
21
142.123617021
0
LINE
5
95
100
AcDbEntity
8
discontinuas
6
ByLayer
62
256
370
-1
100
AcDbLine
10
410
20
10
11
430
21
-10
0
LINE
5
96
100
AcDbEntity
8
discontinuas
6
ByLayer
62
256
370
-1
100
AcDbLine
10
430
20
10
11
410
21
-10
0
LINE
5
97
100
AcDbEntity
8
0
6
ByLayer
62
256
370
-1
100
AcDbLine
10
220
20
0.318159564959
11
252.887176117
21
0.318159564959
0
LINE
5
98
100
AcDbEntity
8
noname
6
ByLayer
62
256
370
-1
100
AcDbLine
10
420
20
167.163215408
11
420
21
200.318159565
0
CIRCLE
5
99
100
AcDbEntity
8
noname
6
ByLayer
62
256
370
-1
100
AcDbCircle
10
420
20
0
40
3.5
0
LINE
5
9A
100
AcDbEntity
8
noname
6
ByLayer
62
256
370
-1
100
AcDbLine
10
270.3147896
20
46.4272483762
11
267.014022388
21
25.5870243896
0
LINE
5
9B
100
AcDbEntity
8
noname
6
ByLayer
62
256
370
-1
100
AcDbLine
10
375.455255839
20
139.858718519
11
305.381940014
21
128.76019561
0
LINE
5
9C
100
AcDbEntity
8
noname
6
ByLayer
62
256
370
-1
100
AcDbLine
10
291.23980439
20
114.618059986
11
280.191673006
21
44.8629037258
0
LINE
5
9D
100
AcDbEntity
8
plataforma
6
ByLayer
62
256
370
-1
100
AcDbLine
10
252.887176117
20
0.318159564959
11
220
21
0.318159564959
0
LINE
5
9E
100
AcDbEntity
8
plataforma
6
ByLayer
62
256
370
-1
100
AcDbLine
10
220
20
0.318159564959
11
220
21
200.318159565
0
LINE
5
9F
100
AcDbEntity
8
plataforma
6
ByLayer
62
256
370
-1
100
AcDbLine
10
220
20
200.318159565
11
420
21
200
0
LINE
5
A0
100
AcDbEntity
8
plataforma
6
ByLayer
62
256
370
-1
100
AcDbLine
10
420
20
200
11
420
21
167.163215408
0
LINE
5
A1
100
AcDbEntity
8
plataforma
6
ByLayer
62
256
370
-1
100
AcDbLine
10
394.731135175
20
153.036369137
11
373.890911189
21
149.735601925
0
LINE
5
A2
100
AcDbEntity
8
plataforma
6
ByLayer
62
256
370
-1
100
AcDbLine
10
373.890911189
20
149.735601925
11
375.455255839
21
139.858718519
0
LINE
5
A3
100
AcDbEntity
8
plataforma
6
ByLayer
62
256
370
-1
100
AcDbLine
10
375.455255839
20
139.858718519
11
305.381940014
21
128.76019561
0
LINE
5
A4
100
AcDbEntity
8
plataforma
6
ByLayer
62
256
370
-1
100
AcDbLine
10
305.381940014
20
128.76019561
11
271.888624989
21
162.253510635
0
LINE
5
A5
100
AcDbEntity
8
plataforma
6
ByLayer
62
256
370
-1
100
AcDbLine
10
271.888624989
20
162.253510635
11
257.746489365
21
148.111375011
0
LINE
5
A6
100
AcDbEntity
8
plataforma
6
ByLayer
62
256
370
-1
100
AcDbLine
10
257.746489365
20
148.111375011
11
291.23980439
21
114.618059986
0
LINE
5
A7
100
AcDbEntity
8
plataforma
6
ByLayer
62
256
370
-1
100
AcDbLine
10
291.23980439
20
114.618059986
11
280.191673006
21
44.8629037258
0
LINE
5
A8
100
AcDbEntity
8
plataforma
6
ByLayer
62
256
370
-1
100
AcDbLine
10
280.191673006
20
44.8629037258
11
270.3147896
21
46.4272483762
0
LINE
5
A9
100
AcDbEntity
8
plataforma
6
ByLayer
62
256
370
-1
100
AcDbLine
10
270.3147896
20
46.4272483762
11
267.014022388
21
25.5870243896
0
LINE
5
AA
100
AcDbEntity
8
plataforma
6
ByLayer
62
256
370
-1
100
AcDbLine
10
267.014022388
20
25.5870243896
11
257.137138982
21
27.15136904
0
LINE
5
AB
100
AcDbEntity
8
plataforma
6
ByLayer
62
256
370
-1
100
AcDbLine
10
257.137138982
20
27.15136904
11
252.887176117
21
0.318159564959
0
LINE
5
AC
100
AcDbEntity
8
piezas
6
ByLayer
62
256
370
-1
100
AcDbLine
10
283.154738027
20
44.3936003308
11
293.031621433
21
42.8292556803
0
LINE
5
AD
100
AcDbEntity
8
piezas
6
ByLayer
62
256
370
-1
100
AcDbLine
10
293.031621433
20
42.8292556803
11
287.285293215
21
6.54836719111
0
DIMENSION
5
AE
100
AcDbEntity
8
piezas
6
ByLayer
62
256
370
-1
100
AcDbDimension
2
*D1
10
299.644213061
20
0.251183001782
30
0
11
0
21
0
31
0
70
34
71
5
72
0
3
Standard
53
0
210
0
220
0
230
1
100
AcDb2LineAngularDimension
13
277.916696198
23
11.3219057973
33
0
14
293.881835741
24
112.121829768
34
0
15
277.916696198
25
11.3219057973
35
0
16
293.031621433
26
42.8292556803
36
0
0
LINE
5
AF
100
AcDbEntity
8
noname
6
ByLayer
62
256
370
-1
100
AcDbLine
10
375.924559234
20
136.895653497
11
377.488903884
21
127.018770091
0
LINE
5
B0
100
AcDbEntity
8
piezas
6
ByLayer
62
256
370
-1
100
AcDbLine
10
413.706160461
20
132.755020004
11
377.488903884
21
127.018770091
0
LINE
5
B1
100
AcDbEntity
8
discontinuas_piezas
6
ByLayer
62
256
370
-1
100
AcDbLine
10
412.141815812
20
142.631903408
11
413.706160462
21
132.755020002
0
LINE
5
B2
100
AcDbEntity
8
discontinuas_piezas
6
ByLayer
62
256
370
-1
100
AcDbLine
10
277.408409809
20
8.11271184153
11
287.285293215
21
6.54836719111
0
LINE
5
B3
100
AcDbEntity
8
discontinuas_piezas
6
ByLayer
62
256
370
-1
100
AcDbLine
10
277.916696198
20
11.3219057973
11
277.408409809
21
8.11271184153
0
LINE
5
B4
100
AcDbEntity
8
discontinuas_piezas
6
ByLayer
62
256
370
-1
100
AcDbLine
10
408.932621855
20
142.123617021
11
412.141815812
21
142.631903408
0
LINE
5
B5
100
AcDbEntity
8
piezas
6
ByLayer
62
256
370
-1
100
AcDbLine
10
309.78954846
20
103.846490509
11
316.153509491
21
110.21045154
0
LINE
5
B6
100
AcDbEntity
8
noname
6
ByLayer
62
256
370
-1
100
AcDbLine
10
304.06197916
20
122.301981871
11
316.153509491
21
110.21045154
0
LINE
5
B7
100
AcDbEntity
8
noname
6
ByLayer
62
256
370
-1
100
AcDbLine
10
297.698020844
20
115.938018126
11
309.78954846
21
103.846490509
0
LINE
5
B8
100
AcDbEntity
8
piezas
6
ByLayer
62
256
370
-1
100
AcDbLine
10
302.718480648
20
96.7754226967
11
309.78954846
21
103.846490509
0
LINE
5
B9
100
AcDbEntity
8
piezas
6
ByLayer
62
256
370
-1
100
AcDbLine
10
316.153509491
20
110.21045154
11
323.224577303
21
117.281519351
0
LINE
5
BA
100
AcDbEntity
8
piezas
6
ByLayer
62
256
370
-1
100
AcDbLine
10
313.497860844
20
127.008235811
11
323.224577303
21
117.281519351
0
LINE
5
BB
100
AcDbEntity
8
piezas
6
ByLayer
62
256
370
-1
100
AcDbLine
10
292.991764189
20
106.502139157
11
302.718480648
21
96.7754226967
0
LINE
5
BC
100
AcDbEntity
8
noname
6
ByLayer
62
256
370
-1
100
AcDbLine
10
293.881835741
20
112.121829768
11
277.916696198
21
11.3219057973
0
LINE
5
BD
100
AcDbEntity
8
piezas
6
ByLayer
62
256
370
-1
100
AcDbLine
10
490
20
10
11
490
21
180
0
LINE
5
BE
100
AcDbEntity
8
piezas
6
ByLayer
62
256
370
-1
100
AcDbLine
10
580
20
10
11
580
21
180
0
LINE
5
BF
100
AcDbEntity
8
piezas
6
ByLayer
62
256
370
-1
100
AcDbLine
10
597.100002346
20
10
11
597.100002346
21
180
0
LINE
5
C0
100
AcDbEntity
8
piezas
6
ByLayer
62
256
370
-1
100
AcDbLine
10
526.668709236
20
10
11
526.668709236
21
180
0
LINE
5
C1
100
AcDbEntity
8
piezas
6
ByLayer
62
256
370
-1
100
AcDbLine
10
490
20
180
11
526.668709236
21
180
0
LINE
5
C2
100
AcDbEntity
8
piezas
6
ByLayer
62
256
370
-1
100
AcDbLine
10
580
20
180
11
597.100002346
21
180
0
LINE
5
C3
100
AcDbEntity
8
piezas
6
ByLayer
62
256
370
-1
100
AcDbLine
10
490
20
10
11
526.668709236
21
10
0
LINE
5
C4
100
AcDbEntity
8
piezas
6
ByLayer
62
256
370
-1
100
AcDbLine
10
580
20
10
11
597.100002346
21
10
0
LINE
5
C5
100
AcDbEntity
8
piezas
6
ByLayer
62
256
370
-1
100
AcDbLine
10
490
20
0
11
526.668709236
21
0
0
LINE
5
C6
100
AcDbEntity
8
piezas
6
ByLayer
62
256
370
-1
100
AcDbLine
10
580
20
0
11
597.100002346
21
0
0
LINE
5
C7
100
AcDbEntity
8
piezas
6
ByLayer
62
256
370
-1
100
AcDbLine
10
490
20
0
11
490
21
-10
0
LINE
5
C8
100
AcDbEntity
8
piezas
6
ByLayer
62
256
370
-1
100
AcDbLine
10
580
20
0
11
580
21
-10
0
LINE
5
C9
100
AcDbEntity
8
piezas
6
ByLayer
62
256
370
-1
100
AcDbLine
10
526.668709236
20
0
11
526.668709236
21
-10
0
LINE
5
CA
100
AcDbEntity
8
piezas
6
ByLayer
62
256
370
-1
100
AcDbLine
10
597.100002346
20
0
11
597.100002346
21
-10
0
LINE
5
CB
100
AcDbEntity
8
piezas
6
ByLayer
62
256
370
-1
100
AcDbLine
10
490
20
-10
11
526.668709236
21
-10
0
LINE
5
CC
100
AcDbEntity
8
piezas
6
ByLayer
62
256
370
-1
100
AcDbLine
10
580
20
-10
11
597.100002346
21
-10
0
LINE
5
CD
100
AcDbEntity
8
piezas
6
ByLayer
62
256
370
-1
100
AcDbLine
10
493.249196962
20
0
11
490
21
-10
0
LINE
5
CE
100
AcDbEntity
8
piezas
6
ByLayer
62
256
370
-1
100
AcDbLine
10
580
20
-5.39690303082
11
583.344348011
21
-10
0
LINE
5
CF
100
AcDbEntity
8
discontinuas_piezas
6
ByLayer
62
256
370
-1
100
AcDbLine
10
586.000002345
20
-10
11
586.000002345
21
200
0
CIRCLE
5
D0
100
AcDbEntity
8
discontinuas_piezas
6
ByLayer
62
256
370
-1
100
AcDbCircle
10
586.000002345
20
18
40
3.5
0
CIRCLE
5
D1
100
AcDbEntity
8
discontinuas_piezas
6
ByLayer
62
256
370
-1
100
AcDbCircle
10
586.000002345
20
172
40
3.5
0
LINE
5
D2
100
AcDbEntity
8
discontinuas_piezas
6
ByLayer
62
256
370
-1
100
AcDbLine
10
519.618709236
20
172
11
509.618709236
21
172
0
LINE
5
D3
100
AcDbEntity
8
discontinuas_piezas
6
ByLayer
62
256
370
-1
100
AcDbLine
10
591.000002345
20
172
11
581.000002345
21
172
0
LINE
5
D4
100
AcDbEntity
8
discontinuas_piezas
6
ByLayer
62
256
370
-1
100
AcDbLine
10
519.618709236
20
18
11
509.618709236
21
18
0
LINE
5
D5
100
AcDbEntity
8
discontinuas_piezas
6
ByLayer
62
256
370
-1
100
AcDbLine
10
591.000002345
20
18
11
581.000002345
21
18
0
LEADER
5
D6
100
AcDbEntity
8
piezas
6
ByLayer
62
256
370
-1
100
AcDbLeader
3
Standard
71
1
72
0
73
3
74
0
75
0
40
1
41
10
76
3
76
3
10
586.000002345
20
18
30
0
10
602.397493059
20
24.5250887759
30
0
10
609.819559399
20
24.6057634101
30
0
0
MTEXT
5
D7
100
AcDbEntity
8
piezas
6
ByLayer
62
256
370
-1
100
AcDbMText
10
600.864675011
20
28.3167965801
30
0
40
2
41
13.7222222222
71
1
72
1
1
broca 7mm
7
standard
210
0
220
0
230
1
50
0
73
2
44
1
0
LEADER
5
D8
100
AcDbEntity
8
piezas
6
ByLayer
62
256
370
-1
100
AcDbLeader
3
Standard
71
1
72
0
73
3
74
0
75
0
40
1
41
10
76
3
76
3
10
581.897312202
20
-8.35108517376
30
0
10
575.9097417
20
-16.8597379923
30
0
10
566.770818302
20
-16.8597379923
30
0
0
MTEXT
5
D9
100
AcDbEntity
8
piezas
6
ByLayer
62
256
370
-1
100
AcDbMText
10
540.929724557
20
-11.9751410039
30
0
40
2
41
32.7777775556
71
1
72
1
1
chafán obligatorio (lijar)
7
standard
210
0
220
0
230
1
50
0
73
2
44
1
0
LEADER
5
DA
100
AcDbEntity
8
piezas
6
ByLayer
62
256
370
-1
100
AcDbLeader
3
Standard
71
1
72
0
73
3
74
0
75
0
40
1
41
10
76
3
76
3
10
487.829428263
20
-8.82378810812
30
0
10
473.175637298
20
-17.6475762162
30
0
10
466.242660927
20
-17.4900085715
30
0
0
MTEXT
5
DB
100
AcDbEntity
8
piezas
6
ByLayer
62
256
370
-1
100
AcDbMText
10
450.643464093
20
-12.605411583
30
0
40
2
41
20.3888888889
71
1
72
1
1
chafán opcional
7
standard
210
0
220
0
230
1
50
0
73
2
44
1
0
LINE
5
DC
100
AcDbEntity
8
piezas
6
ByLayer
62
256
370
-1
100
AcDbLine
10
394.154478866
20
163.069687008
11
397.283168167
21
143.315920196
0
LINE
5
DD
100
AcDbEntity
8
noname
6
ByLayer
62
256
370
-1
100
AcDbLine
10
396.188126911
20
150.22973858
11
377.323279606
21
147.241840298
0
LINE
5
DE
100
AcDbEntity
8
noname
6
ByLayer
62
256
370
-1
100
AcDbLine
10
397.126733701
20
144.303608537
11
378.261886396
21
141.315710254
0
LINE
5
DF
100
AcDbEntity
8
noname
6
ByLayer
62
256
370
-1
100
AcDbLine
10
395.718823516
20
153.192803602
11
373.890911189
21
149.735601925
0
LINE
5
E0
100
AcDbEntity
8
noname
6
ByLayer
62
256
370
-1
100
AcDbLine
10
443.704520174
20
150.668340053
11
397.283168167
21
143.315920196
0
LINE
5
E1
100
AcDbEntity
8
plataforma
6
ByLayer
62
256
370
-1
100
AcDbLine
10
394.731135175
20
153.036369137
11
395.718823516
21
153.192803602
0
LINE
5
E2
100
AcDbEntity
8
plataforma
6
ByLayer
62
256
370
-1
100
AcDbLine
10
395.718823516
20
153.192803602
11
394
21
163
0
LINE
5
E3
100
AcDbEntity
8
noname
6
ByLayer
62
256
370
-1
100
AcDbLine
10
393.992288739
20
163.043998616
11
440.575830873
21
170.422106865
0
LINE
5
E4
100
AcDbEntity
8
plataforma
6
ByLayer
62
256
370
-1
100
AcDbLine
10
420
20
167.163215408
11
394
21
163
0
LINE
5
E5
100
AcDbEntity
8
ejes
6
ByLayer
62
256
370
-1
100
AcDbLine
10
386.286399864
20
151.698854461
11
388.320047909
21
138.858906033
0
LINE
5
E6
100
AcDbEntity
8
discontinuas_piezas
6
ByLayer
62
256
370
-1
100
AcDbLine
10
383.011554192
20
150.001830004
11
389.925372576
21
151.096871259
0
LINE
5
E7
100
AcDbEntity
8
discontinuas_piezas
6
ByLayer
62
256
370
-1
100
AcDbLine
10
389.925372576
20
151.096871259
11
391.776957101
21
139.406426661
0
LINE
5
E8
100
AcDbEntity
8
discontinuas_piezas
6
ByLayer
62
256
370
-1
100
AcDbLine
10
383.011554192
20
150.001830004
11
384.863138717
21
138.311385405
0
LINE
5
E9
100
AcDbEntity
8
0
6
ByLayer
62
256
370
-1
100
AcDbLine
10
514.118709236
20
0
11
514.118709236
21
400
0
CIRCLE
5
EA
100
AcDbEntity
8
0
6
ByLayer
62
256
370
-1
100
AcDbCircle
10
514.118709236
20
18
40
3
0
CIRCLE
5
EB
100
AcDbEntity
8
0
6
ByLayer
62
256
370
-1
100
AcDbCircle
10
514.118709236
20
172
40
3
0
LINE
5
EC
100
AcDbEntity
8
0
6
CONTINUOUS
62
256
370
-1
100
AcDbLine
10
310.143101851
20
105.614257462
11
314.385742538
21
109.856898149
0
LINE
5
ED
100
AcDbEntity
8
noname
6
ByLayer
62
256
370
-1
100
AcDbLine
10
300.880003018
20
123.36263767
11
314.385742538
21
109.856898149
0
LINE
5
EE
100
AcDbEntity
8
noname
6
ByLayer
62
256
370
-1
100
AcDbLine
10
296.63736233
20
119.119996982
11
310.143101851
21
105.614257462
0
LINE
5
EF
100
AcDbEntity
8
ejes
6
ByLayer
62
256
370
-1
100
AcDbLine
10
308
20
117
11
301.636038969
21
110.636038969
0
LINE
5
F0
100
AcDbEntity
8
discontinuas
6
ByLayer
62
256
370
-1
100
AcDbLine
10
313.254371689
20
127.251724967
11
292.748275034
21
106.745628312
0
LINE
5
F1
100
AcDbEntity
8
discontinuas
6
ByLayer
62
256
370
-1
100
AcDbLine
10
318.253048327
20
122.253048327
11
297.746951673
21
101.746951673
0
DIMENSION
5
F2
100
AcDbEntity
8
piezas
6
ByLayer
62
256
370
-1
100
AcDbDimension
2
*D5
10
247.064439738
20
47.0723466503
30
0
11
243.79679219
21
38.4270817899
31
0
70
33
1
%%C18
71
5
3
Standard
53
0
210
0
220
0
230
1
100
AcDbAlignedDimension
13
269.977087409
23
25.1177209945
33
0
14
272.808551227
24
42.9948799593
34
0
0
DIMENSION
5
F3
100
AcDbEntity
8
piezas
6
ByLayer
62
256
370
-1
100
AcDbDimension
2
*D6
10
252.130000426
20
40.6508592086
30
0
11
249.730564159
21
37.4872646386
31
0
70
33
71
5
3
Standard
53
0
210
0
220
0
230
1
100
AcDbAlignedDimension
13
270.84529869
23
30.5993912848
33
0
14
271.940339946
24
37.513209669
34
0
0
ENDSEC
0
SECTION
2
OBJECTS
0
DICTIONARY
5
C
330
0
100
AcDbDictionary
281
1
3
ACAD_GROUP
350
D
0
DICTIONARY
5
D
330
C
100
AcDbDictionary
281
1
0
ENDSEC
0
EOF
