  0
SECTION
  2
HEADER
  9
$ACADVER
  1
AC1027
  9
$ACADMAINTVER
 70
   125
  9
$DWGCODEPAGE
  3
ANSI_1254
  9
$LASTSAVEDBY
  1
OSMAN
  9
$REQUIREDVERSIONS
160
                 0
  9
$INSBASE
 10
0.0
 20
0.0
 30
0.0
  9
$EXTMIN
 10
-522.0897485676577
 20
695.9522665897047
 30
0.0
  9
$EXTMAX
 10
590.6009687049241
 20
1483.488718691688
 30
0.0
  9
$LIMMIN
 10
0.0
 20
0.0
  9
$LIMMAX
 10
420.0
 20
297.0
  9
$ORTHOMODE
 70
     1
  9
$REGENMODE
 70
     1
  9
$FILLMODE
 70
     1
  9
$QTEXTMODE
 70
     0
  9
$MIRRTEXT
 70
     0
  9
$LTSCALE
 40
1.0
  9
$ATTMODE
 70
     1
  9
$TEXTSIZE
 40
20.0
  9
$TRACEWID
 40
1.0
  9
$TEXTSTYLE
  7
Standard
  9
$CLAYER
  8
dim
  9
$CELTYPE
  6
ByLayer
  9
$CECOLOR
 62
   256
  9
$CELTSCALE
 40
1.0
  9
$DISPSILH
 70
     0
  9
$DIMSCALE
 40
1.0
  9
$DIMASZ
 40
2.5
  9
$DIMEXO
 40
0.625
  9
$DIMDLI
 40
3.75
  9
$DIMRND
 40
0.0
  9
$DIMDLE
 40
0.0
  9
$DIMEXE
 40
1.25
  9
$DIMTP
 40
0.0
  9
$DIMTM
 40
0.0
  9
$DIMTXT
 40
15.0
  9
$DIMCEN
 40
21.21320343559643
  9
$DIMTSZ
 40
0.0
  9
$DIMTOL
 70
     0
  9
$DIMLIM
 70
     0
  9
$DIMTIH
 70
     0
  9
$DIMTOH
 70
     0
  9
$DIMSE1
 70
     0
  9
$DIMSE2
 70
     0
  9
$DIMTAD
 70
     1
  9
$DIMZIN
 70
     8
  9
$DIMBLK
  1

  9
$DIMASO
 70
     1
  9
$DIMSHO
 70
     1
  9
$DIMPOST
  1

  9
$DIMAPOST
  1

  9
$DIMALT
 70
     0
  9
$DIMALTD
 70
     3
  9
$DIMALTF
 40
0.03937007874016
  9
$DIMLFAC
 40
1.0
  9
$DIMTOFL
 70
     1
  9
$DIMTVP
 40
0.0
  9
$DIMTIX
 70
     0
  9
$DIMSOXD
 70
     0
  9
$DIMSAH
 70
     0
  9
$DIMBLK1
  1

  9
$DIMBLK2
  1

  9
$DIMSTYLE
  2
ISO-25
  9
$DIMCLRD
 70
     0
  9
$DIMCLRE
 70
     0
  9
$DIMCLRT
 70
     0
  9
$DIMTFAC
 40
1.0
  9
$DIMGAP
 40
0.625
  9
$DIMJUST
 70
     0
  9
$DIMSD1
 70
     0
  9
$DIMSD2
 70
     0
  9
$DIMTOLJ
 70
     0
  9
$DIMTZIN
 70
     8
  9
$DIMALTZ
 70
     0
  9
$DIMALTTZ
 70
     0
  9
$DIMUPT
 70
     0
  9
$DIMDEC
 70
     2
  9
$DIMTDEC
 70
     2
  9
$DIMALTU
 70
     2
  9
$DIMALTTD
 70
     3
  9
$DIMTXSTY
  7
Standard
  9
$DIMAUNIT
 70
     0
  9
$DIMADEC
 70
     0
  9
$DIMALTRND
 40
0.0
  9
$DIMAZIN
 70
     0
  9
$DIMDSEP
 70
    44
  9
$DIMATFIT
 70
     3
  9
$DIMFRAC
 70
     0
  9
$DIMLDRBLK
  1

  9
$DIMLUNIT
 70
     2
  9
$DIMLWD
 70
    -2
  9
$DIMLWE
 70
    -2
  9
$DIMTMOVE
 70
     0
  9
$DIMFXL
 40
1.0
  9
$DIMFXLON
 70
     0
  9
$DIMJOGANG
 40
0.7853981633974483
  9
$DIMTFILL
 70
     0
  9
$DIMTFILLCLR
 70
     0
  9
$DIMARCSYM
 70
     0
  9
$DIMLTYPE
  6

  9
$DIMLTEX1
  6

  9
$DIMLTEX2
  6

  9
$DIMTXTDIRECTION
 70
     0
  9
$LUNITS
 70
     2
  9
$LUPREC
 70
     4
  9
$SKETCHINC
 40
1.0
  9
$FILLETRAD
 40
2.5
  9
$AUNITS
 70
     0
  9
$AUPREC
 70
     0
  9
$MENU
  1
.
  9
$ELEVATION
 40
0.0
  9
$PELEVATION
 40
0.0
  9
$THICKNESS
 40
0.0
  9
$LIMCHECK
 70
     0
  9
$CHAMFERA
 40
2.0
  9
$CHAMFERB
 40
2.0
  9
$CHAMFERC
 40
0.0
  9
$CHAMFERD
 40
0.0
  9
$SKPOLY
 70
     0
  9
$TDCREATE
 40
2457786.573217593
  9
$TDUCREATE
 40
2457786.448220671
  9
$TDUPDATE
 40
2458497.554444444
  9
$TDUUPDATE
 40
2458497.429444444
  9
$TDINDWG
 40
7.7972562731
  9
$TDUSRTIMER
 40
7.7972559144
  9
$USRTIMER
 70
     1
  9
$ANGBASE
 50
0.0
  9
$ANGDIR
 70
     0
  9
$PDMODE
 70
     0
  9
$PDSIZE
 40
0.0
  9
$PLINEWID
 40
0.0
  9
$SPLFRAME
 70
     0
  9
$SPLINETYPE
 70
     6
  9
$SPLINESEGS
 70
     8
  9
$HANDSEED
  5
1012D94
  9
$SURFTAB1
 70
     6
  9
$SURFTAB2
 70
     6
  9
$SURFTYPE
 70
     6
  9
$SURFU
 70
     6
  9
$SURFV
 70
     6
  9
$UCSBASE
  2

  9
$UCSNAME
  2

  9
$UCSORG
 10
0.0
 20
0.0
 30
0.0
  9
$UCSXDIR
 10
1.0
 20
0.0
 30
0.0
  9
$UCSYDIR
 10
0.0
 20
1.0
 30
0.0
  9
$UCSORTHOREF
  2

  9
$UCSORTHOVIEW
 70
     0
  9
$UCSORGTOP
 10
0.0
 20
0.0
 30
0.0
  9
$UCSORGBOTTOM
 10
0.0
 20
0.0
 30
0.0
  9
$UCSORGLEFT
 10
0.0
 20
0.0
 30
0.0
  9
$UCSORGRIGHT
 10
0.0
 20
0.0
 30
0.0
  9
$UCSORGFRONT
 10
0.0
 20
0.0
 30
0.0
  9
$UCSORGBACK
 10
0.0
 20
0.0
 30
0.0
  9
$PUCSBASE
  2

  9
$PUCSNAME
  2

  9
$PUCSORG
 10
0.0
 20
0.0
 30
0.0
  9
$PUCSXDIR
 10
1.0
 20
0.0
 30
0.0
  9
$PUCSYDIR
 10
0.0
 20
1.0
 30
0.0
  9
$PUCSORTHOREF
  2

  9
$PUCSORTHOVIEW
 70
     0
  9
$PUCSORGTOP
 10
0.0
 20
0.0
 30
0.0
  9
$PUCSORGBOTTOM
 10
0.0
 20
0.0
 30
0.0
  9
$PUCSORGLEFT
 10
0.0
 20
0.0
 30
0.0
  9
$PUCSORGRIGHT
 10
0.0
 20
0.0
 30
0.0
  9
$PUCSORGFRONT
 10
0.0
 20
0.0
 30
0.0
  9
$PUCSORGBACK
 10
0.0
 20
0.0
 30
0.0
  9
$USERI1
 70
     0
  9
$USERI2
 70
     0
  9
$USERI3
 70
     0
  9
$USERI4
 70
     0
  9
$USERI5
 70
     0
  9
$USERR1
 40
0.0
  9
$USERR2
 40
0.0
  9
$USERR3
 40
0.0
  9
$USERR4
 40
0.0
  9
$USERR5
 40
0.0
  9
$WORLDVIEW
 70
     1
  9
$SHADEDGE
 70
     3
  9
$SHADEDIF
 70
    70
  9
$TILEMODE
 70
     1
  9
$MAXACTVP
 70
    64
  9
$PINSBASE
 10
0.0
 20
0.0
 30
0.0
  9
$PLIMCHECK
 70
     0
  9
$PEXTMIN
 10
25.69999999999999
 20
19.5
 30
0.0
  9
$PEXTMAX
 10
231.3
 20
175.5
 30
0.0
  9
$PLIMMIN
 10
-20.0
 20
-7.5
  9
$PLIMMAX
 10
277.0
 20
202.5
  9
$UNITMODE
 70
     0
  9
$VISRETAIN
 70
     1
  9
$PLINEGEN
 70
     0
  9
$PSLTSCALE
 70
     1
  9
$TREEDEPTH
 70
  3020
  9
$CMLSTYLE
  2
Standard
  9
$CMLJUST
 70
     0
  9
$CMLSCALE
 40
20.0
  9
$PROXYGRAPHICS
 70
     1
  9
$MEASUREMENT
 70
     1
  9
$CELWEIGHT
370
    -1
  9
$ENDCAPS
280
     0
  9
$JOINSTYLE
280
     0
  9
$LWDISPLAY
290
     0
  9
$INSUNITS
 70
     4
  9
$HYPERLINKBASE
  1

  9
$STYLESHEET
  1

  9
$XEDIT
290
     1
  9
$CEPSNTYPE
380
     0
  9
$PSTYLEMODE
290
     1
  9
$FINGERPRINTGUID
  2
{6B2F04FC-92BE-4694-8D52-E70E528F4936}
  9
$VERSIONGUID
  2
{ECBEFD08-806A-1949-BA0B-F1FC80195599}
  9
$EXTNAMES
290
     1
  9
$PSVPSCALE
 40
0.0
  9
$OLESTARTUP
290
     0
  9
$SORTENTS
280
   127
  9
$INDEXCTL
280
     0
  9
$HIDETEXT
280
     1
  9
$XCLIPFRAME
280
     2
  9
$HALOGAP
280
     0
  9
$OBSCOLOR
 70
   257
  9
$OBSLTYPE
280
     0
  9
$INTERSECTIONDISPLAY
280
     0
  9
$INTERSECTIONCOLOR
 70
   257
  9
$DIMASSOC
280
     2
  9
$PROJECTNAME
  1

  9
$CAMERADISPLAY
290
     0
  9
$LENSLENGTH
 40
50.0
  9
$CAMERAHEIGHT
 40
0.0
  9
$STEPSPERSEC
 40
2.0
  9
$STEPSIZE
 40
6.0
  9
$3DDWFPREC
 40
2.0
  9
$PSOLWIDTH
 40
5.0
  9
$PSOLHEIGHT
 40
80.0
  9
$LOFTANG1
 40
1.570796326794896
  9
$LOFTANG2
 40
1.570796326794896
  9
$LOFTMAG1
 40
0.0
  9
$LOFTMAG2
 40
0.0
  9
$LOFTPARAM
 70
     7
  9
$LOFTNORMALS
280
     1
  9
$LATITUDE
 40
37.795
  9
$LONGITUDE
 40
-122.394
  9
$NORTHDIRECTION
 40
0.0
  9
$TIMEZONE
 70
 -8000
  9
$LIGHTGLYPHDISPLAY
280
     1
  9
$TILEMODELIGHTSYNCH
280
     1
  9
$CMATERIAL
347
EC
  9
$SOLIDHIST
280
     0
  9
$SHOWHIST
280
     1
  9
$DWFFRAME
280
     2
  9
$DGNFRAME
280
     0
  9
$REALWORLDSCALE
290
     1
  9
$INTERFERECOLOR
 62
     1
  9
$INTERFEREOBJVS
345
F9
  9
$INTERFEREVPVS
346
F6
  9
$CSHADOW
280
     0
  9
$SHADOWPLANELOCATION
 40
0.0
  0
ENDSEC
  0
SECTION
  2
CLASSES
  0
CLASS
  1
ACDBDICTIONARYWDFLT
  2
AcDbDictionaryWithDefault
  3
ObjectDBX Classes
 90
        0
 91
        1
280
     0
281
     0
  0
CLASS
  1
DICTIONARYVAR
  2
AcDbDictionaryVar
  3
ObjectDBX Classes
 90
        0
 91
        9
280
     0
281
     0
  0
CLASS
  1
TABLESTYLE
  2
AcDbTableStyle
  3
ObjectDBX Classes
 90
     4095
 91
        1
280
     0
281
     0
  0
CLASS
  1
MATERIAL
  2
AcDbMaterial
  3
ObjectDBX Classes
 90
     1153
 91
        3
280
     0
281
     0
  0
CLASS
  1
VISUALSTYLE
  2
AcDbVisualStyle
  3
ObjectDBX Classes
 90
     4095
 91
       24
280
     0
281
     0
  0
CLASS
  1
SCALE
  2
AcDbScale
  3
ObjectDBX Classes
 90
     1153
 91
       17
280
     0
281
     0
  0
CLASS
  1
MLEADERSTYLE
  2
AcDbMLeaderStyle
  3
ACDB_MLEADERSTYLE_CLASS
 90
     4095
 91
        2
280
     0
281
     0
  0
CLASS
  1
CELLSTYLEMAP
  2
AcDbCellStyleMap
  3
ObjectDBX Classes
 90
     1152
 91
        1
280
     0
281
     0
  0
CLASS
  1
EXACXREFPANELOBJECT
  2
ExAcXREFPanelObject
  3
EXAC_ESW
 90
     1025
 91
        0
280
     0
281
     0
  0
CLASS
  1
NPOCOLLECTION
  2
AcDbImpNonPersistentObjectsCollection
  3
ObjectDBX Classes
 90
     1153
 91
        0
280
     0
281
     0
  0
CLASS
  1
LAYER_INDEX
  2
AcDbLayerIndex
  3
ObjectDBX Classes
 90
        0
 91
        0
280
     0
281
     0
  0
CLASS
  1
SPATIAL_INDEX
  2
AcDbSpatialIndex
  3
ObjectDBX Classes
 90
        0
 91
        0
280
     0
281
     0
  0
CLASS
  1
IDBUFFER
  2
AcDbIdBuffer
  3
ObjectDBX Classes
 90
        0
 91
        0
280
     0
281
     0
  0
CLASS
  1
ACDBSECTIONVIEWSTYLE
  2
AcDbSectionViewStyle
  3
ObjectDBX Classes
 90
     1025
 91
        1
280
     0
281
     0
  0
CLASS
  1
ACDBDETAILVIEWSTYLE
  2
AcDbDetailViewStyle
  3
ObjectDBX Classes
 90
     1025
 91
        1
280
     0
281
     0
  0
CLASS
  1
SORTENTSTABLE
  2
AcDbSortentsTable
  3
ObjectDBX Classes
 90
        0
 91
        2
280
     0
281
     0
  0
CLASS
  1
DIMASSOC
  2
AcDbDimAssoc
  3
"AcDbDimAssoc|Product Desc:     AcDim ARX App For Dimension|Company:          Autodesk, Inc.|WEB Address:      www.autodesk.com"
 90
        0
 91
        1
280
     0
281
     0
  0
CLASS
  1
SOLID_BACKGROUND
  2
AcDbSolidBackground
  3
SCENEOE
 90
     4095
 91
        0
280
     0
281
     0
  0
CLASS
  1
PLOTSETTINGS
  2
AcDbPlotSettings
  3
ObjectDBX Classes
 90
        0
 91
        1
280
     0
281
     0
  0
CLASS
  1
ACARRAYJIGENTITY
  2
AcArrayJigEntity
  3
ACAD_ARRAY
 90
      129
 91
        0
280
     0
281
     1
  0
CLASS
  1
ACDBASSOCNETWORK
  2
AcDbAssocNetwork
  3
ObjectDBX Classes
 90
     1025
 91
        0
280
     0
281
     0
  0
CLASS
  1
ACDBASSOCACTION
  2
AcDbAssocAction
  3
ObjectDBX Classes
 90
     1025
 91
        0
280
     0
281
     0
  0
CLASS
  1
ACDBASSOCARRAYACTIONBODY
  2
AcDbAssocArrayActionBody
  3
ObjectDBX Classes
 90
     1025
 91
        0
280
     0
281
     0
  0
CLASS
  1
ACDBASSOCVERTEXACTIONPARAM
  2
AcDbAssocVertexActionParam
  3
ObjectDBX Classes
 90
     1025
 91
        0
280
     0
281
     0
  0
CLASS
  1
ACDBASSOCDEPENDENCY
  2
AcDbAssocDependency
  3
ObjectDBX Classes
 90
     1025
 91
        0
280
     0
281
     0
  0
CLASS
  1
ACDBASSOCARRAYRECTANGULARPARAMETERS
  2
AcDbAssocArrayRectangularParameters
  3
ObjectDBX Classes
 90
     1025
 91
        0
280
     0
281
     0
  0
ENDSEC
  0
SECTION
  2
TABLES
  0
TABLE
  2
VPORT
  5
8
330
0
100
AcDbSymbolTable
 70
     1
1001
ACAD
1000
DbSaveVer
1071
        5
  0
VPORT
  5
EA
330
8
100
AcDbSymbolTableRecord
100
AcDbViewportTableRecord
  2
*Active
 70
     0
 10
0.0
 20
0.0
 11
1.0
 21
1.0
 12
128.2589766131132
 22
1144.130128784459
 13
0.0
 23
0.0
 14
10.0
 24
10.0
 15
10.0
 25
10.0
 16
0.0
 26
0.0
 36
1.0
 17
0.0
 27
0.0
 37
0.0
 40
1231.558696092558
 41
2.150519031141868
 42
50.0
 43
0.0
 44
0.0
 50
0.0
 51
0.0
 71
     0
 72
  1000
 73
     1
 74
     3
 75
     0
 76
     1
 77
     0
 78
     0
281
     0
 65
     1
110
0.0
120
0.0
130
0.0
111
1.0
121
0.0
131
0.0
112
0.0
122
1.0
132
0.0
 79
     0
146
0.0
348
F5
 60
     3
 61
     5
292
     1
282
     1
141
0.0
142
0.0
 63
   250
421
  3355443
1001
ACAD_NAV_VCDISPLAY
1070
     3
  0
ENDTAB
  0
TABLE
  2
LTYPE
  5
5
330
0
100
AcDbSymbolTable
 70
     1
  0
LTYPE
  5
14
330
5
100
AcDbSymbolTableRecord
100
AcDbLinetypeTableRecord
  2
ByBlock
 70
     0
  3

 72
    65
 73
     0
 40
0.0
  0
LTYPE
  5
15
330
5
100
AcDbSymbolTableRecord
100
AcDbLinetypeTableRecord
  2
ByLayer
 70
     0
  3

 72
    65
 73
     0
 40
0.0
  0
LTYPE
  5
16
330
5
100
AcDbSymbolTableRecord
100
AcDbLinetypeTableRecord
  2
Continuous
 70
     0
  3
Solid line
 72
    65
 73
     0
 40
0.0
  0
ENDTAB
  0
TABLE
  2
LAYER
  5
2
102
{ACAD_XDICTIONARY
360
1FF
102
}
330
0
100
AcDbSymbolTable
 70
    14
  0
LAYER
  5
10
102
{ACAD_XDICTIONARY
360
13C
102
}
330
2
100
AcDbSymbolTableRecord
100
AcDbLayerTableRecord
  2
0
 70
     0
 62
     7
  6
Continuous
370
    -3
390
F
347
EE
348
0
  0
LAYER
  5
257
330
2
100
AcDbSymbolTableRecord
100
AcDbLayerTableRecord
  2
dim
 70
     0
 62
    30
  6
Continuous
370
    -3
390
F
347
EE
348
0
1001
AcAecLayerStandard
1000

1000

1001
AcCmTransparency
1071
        0
  0
LAYER
  5
25C
330
2
100
AcDbSymbolTableRecord
100
AcDbLayerTableRecord
  2
Defpoints
 70
     0
 62
     7
  6
Continuous
290
     0
370
    -3
390
F
347
EE
348
0
  0
LAYER
  5
ACBE
330
2
100
AcDbSymbolTableRecord
100
AcDbLayerTableRecord
  2
3.5
 70
     0
 62
     1
  6
Continuous
370
    -3
390
F
347
EE
348
0
1001
AcAecLayerStandard
1000

1000

1001
AcCmTransparency
1071
        0
  0
LAYER
  5
ACBF
330
2
100
AcDbSymbolTableRecord
100
AcDbLayerTableRecord
  2
5.0
 70
     0
 62
     2
  6
Continuous
370
    -3
390
F
347
EE
348
0
1001
AcAecLayerStandard
1000

1000

1001
AcCmTransparency
1071
        0
  0
LAYER
  5
ACC3
330
2
100
AcDbSymbolTableRecord
100
AcDbLayerTableRecord
  2
5.5
 70
     0
 62
     3
  6
Continuous
370
    -3
390
F
347
EE
348
0
1001
AcAecLayerStandard
1000

1000

1001
AcCmTransparency
1071
        0
  0
LAYER
  5
ACC7
330
2
100
AcDbSymbolTableRecord
100
AcDbLayerTableRecord
  2
6.0
 70
     0
 62
     4
  6
Continuous
370
    -3
390
F
347
EE
348
0
1001
AcAecLayerStandard
1000

1000

1001
AcCmTransparency
1071
        0
  0
LAYER
  5
ACC8
330
2
100
AcDbSymbolTableRecord
100
AcDbLayerTableRecord
  2
6.5
 70
     2
 62
     5
  6
Continuous
370
    -3
390
F
347
EE
348
0
1001
AcAecLayerStandard
1000

1000

1001
AcCmTransparency
1071
        0
  0
LAYER
  5
ACD8
330
2
100
AcDbSymbolTableRecord
100
AcDbLayerTableRecord
  2
6.8
 70
     0
 62
     6
  6
Continuous
370
    -3
390
F
347
EE
348
0
1001
AcAecLayerStandard
1000

1000

1001
AcCmTransparency
1071
        0
  0
LAYER
  5
ACD9
330
2
100
AcDbSymbolTableRecord
100
AcDbLayerTableRecord
  2
8.0
 70
     0
 62
    40
  6
Continuous
370
    -3
390
F
347
EE
348
0
1001
AcAecLayerStandard
1000

1000

1001
AcCmTransparency
1071
        0
  0
LAYER
  5
ACDA
330
2
100
AcDbSymbolTableRecord
100
AcDbLayerTableRecord
  2
8.5
 70
     0
 62
   212
  6
Continuous
370
    -3
390
F
347
EE
348
0
1001
AcAecLayerStandard
1000

1000

1001
AcCmTransparency
1071
        0
  0
LAYER
  5
ACDB
330
2
100
AcDbSymbolTableRecord
100
AcDbLayerTableRecord
  2
10.0
 70
     0
 62
   191
  6
Continuous
370
    -3
390
F
347
EE
348
0
1001
AcAecLayerStandard
1000

1000

1001
AcCmTransparency
1071
        0
  0
LAYER
  5
ACEB
330
2
100
AcDbSymbolTableRecord
100
AcDbLayerTableRecord
  2
4.5
 70
     0
 62
    30
  6
Continuous
370
    -3
390
F
347
EE
348
0
1001
AcAecLayerStandard
1000

1000

1001
AcCmTransparency
1071
        0
  0
LAYER
  5
AD27
330
2
100
AcDbSymbolTableRecord
100
AcDbLayerTableRecord
  2
10++
 70
     0
 62
   201
  6
Continuous
370
    -3
390
F
347
EE
348
0
1001
AcAecLayerStandard
1000

1000

1001
AcCmTransparency
1071
        0
  0
ENDTAB
  0
TABLE
  2
STYLE
  5
3
330
0
100
AcDbSymbolTable
 70
     2
  0
STYLE
  5
11
330
3
100
AcDbSymbolTableRecord
100
AcDbTextStyleTableRecord
  2
Standard
 70
     0
 40
0.0
 41
1.0
 50
0.0
 71
     0
 42
20.0
  3
arial.ttf
  4

1001
ACAD
1000
Arial
1071
       34
  0
STYLE
  5
132
330
3
100
AcDbSymbolTableRecord
100
AcDbTextStyleTableRecord
  2
Annotative
 70
     0
 40
0.0
 41
1.0
 50
0.0
 71
     0
 42
2.5
  3
arial.ttf
  4

1001
AcadAnnotative
1000
AnnotativeData
1002
{
1070
     1
1070
     1
1002
}
1001
ACAD
1000
Arial
1071
       34
  0
ENDTAB
  0
TABLE
  2
VIEW
  5
6
330
0
100
AcDbSymbolTable
 70
     0
  0
ENDTAB
  0
TABLE
  2
UCS
  5
7
330
0
100
AcDbSymbolTable
 70
     0
  0
ENDTAB
  0
TABLE
  2
APPID
  5
9
330
0
100
AcDbSymbolTable
 70
    14
  0
APPID
  5
12
330
9
100
AcDbSymbolTableRecord
100
AcDbRegAppTableRecord
  2
ACAD
 70
     0
  0
APPID
  5
9E
330
9
100
AcDbSymbolTableRecord
100
AcDbRegAppTableRecord
  2
ACAD_PSEXT
 70
     0
  0
APPID
  5
133
330
9
100
AcDbSymbolTableRecord
100
AcDbRegAppTableRecord
  2
AcadAnnoPO
 70
     0
  0
APPID
  5
134
330
9
100
AcDbSymbolTableRecord
100
AcDbRegAppTableRecord
  2
AcadAnnotative
 70
     0
  0
APPID
  5
135
330
9
100
AcDbSymbolTableRecord
100
AcDbRegAppTableRecord
  2
ACAD_DSTYLE_DIMJAG
 70
     0
  0
APPID
  5
136
330
9
100
AcDbSymbolTableRecord
100
AcDbRegAppTableRecord
  2
ACAD_DSTYLE_DIMTALN
 70
     0
  0
APPID
  5
165
330
9
100
AcDbSymbolTableRecord
100
AcDbRegAppTableRecord
  2
ACAD_MLEADERVER
 70
     0
  0
APPID
  5
217
330
9
100
AcDbSymbolTableRecord
100
AcDbRegAppTableRecord
  2
ACAD_NAV_VCDISPLAY
 70
     0
  0
APPID
  5
23D
330
9
100
AcDbSymbolTableRecord
100
AcDbRegAppTableRecord
  2
ACAD_EXEMPT_FROM_CAD_STANDARDS
 70
     0
  0
APPID
  5
258
330
9
100
AcDbSymbolTableRecord
100
AcDbRegAppTableRecord
  2
AcAecLayerStandard
 70
     0
  0
APPID
  5
259
330
9
100
AcDbSymbolTableRecord
100
AcDbRegAppTableRecord
  2
AcCmTransparency
 70
     0
  0
APPID
  5
3D43
330
9
100
AcDbSymbolTableRecord
100
AcDbRegAppTableRecord
  2
GradientColor1ACI
 70
     0
  0
APPID
  5
3D44
330
9
100
AcDbSymbolTableRecord
100
AcDbRegAppTableRecord
  2
GradientColor2ACI
 70
     0
  0
APPID
  5
EFEB
330
9
100
AcDbSymbolTableRecord
100
AcDbRegAppTableRecord
  2
ACAD_DSTYLE_DIMRADIAL_EXTENSION
 70
     0
  0
ENDTAB
  0
TABLE
  2
DIMSTYLE
  5
A
330
0
100
AcDbSymbolTable
 70
     3
100
AcDbDimStyleTable
 71
     2
340
27
340
137
  0
DIMSTYLE
105
1B0
330
A
100
AcDbSymbolTableRecord
100
AcDbDimStyleTableRecord
  2
Standard
 70
     0
340
11
  0
DIMSTYLE
105
137
330
A
100
AcDbSymbolTableRecord
100
AcDbDimStyleTableRecord
  2
Annotative
 70
     0
 40
0.0
 41
2.5
 42
0.625
 43
3.75
 44
1.25
 73
     0
 74
     0
 77
     1
 78
     8
140
2.5
141
2.5
143
0.03937007874016
147
0.625
171
     3
172
     1
271
     2
272
     2
274
     3
278
    44
283
     0
284
     8
340
11
1001
AcadAnnotative
1000
AnnotativeData
1002
{
1070
     1
1070
     1
1002
}
1001
ACAD_DSTYLE_DIMJAG
1070
   388
1040
1.5
1001
ACAD_DSTYLE_DIMTALN
1070
   392
1070
     0
  0
DIMSTYLE
105
27
102
{ACAD_REACTORS
330
C450
330
1012C8D
330
1012CC1
330
1012D4D
102
}
330
A
100
AcDbSymbolTableRecord
100
AcDbDimStyleTableRecord
  2
ISO-25
 70
     0
 41
2.5
 42
0.625
 43
3.75
 44
1.25
 73
     0
 74
     0
 77
     1
 78
     8
140
15.0
141
2.5
143
0.03937007874016
147
0.625
171
     3
172
     1
271
     2
272
     2
274
     3
278
    44
283
     0
284
     8
340
11
1001
ACAD_DSTYLE_DIMJAG
1070
   388
1040
1.5
1001
ACAD_DSTYLE_DIMTALN
1070
   392
1070
     0
  0
ENDTAB
  0
TABLE
  2
BLOCK_RECORD
  5
1
330
0
100
AcDbSymbolTable
 70
     7
  0
BLOCK_RECORD
  5
1F
102
{ACAD_XDICTIONARY
360
1CE
102
}
330
1
100
AcDbSymbolTableRecord
100
AcDbBlockTableRecord
  2
*Model_Space
340
22
 70
     0
280
     1
281
     0
  0
BLOCK_RECORD
  5
D2
330
1
100
AcDbSymbolTableRecord
100
AcDbBlockTableRecord
  2
*Paper_Space
340
D3
 70
     0
280
     1
281
     0
  0
BLOCK_RECORD
  5
D6
330
1
100
AcDbSymbolTableRecord
100
AcDbBlockTableRecord
  2
*Paper_Space0
340
D7
 70
     0
280
     1
281
     0
  0
BLOCK_RECORD
  5
64FD
102
{ACAD_XDICTIONARY
360
651A
102
}
330
1
100
AcDbSymbolTableRecord
100
AcDbBlockTableRecord
  2
rulman
340
0
 70
     4
280
     1
281
     0
  0
BLOCK_RECORD
  5
C451
330
1
100
AcDbSymbolTableRecord
100
AcDbBlockTableRecord
  2
*D2
340
0
 70
     0
280
     1
281
     0
  0
BLOCK_RECORD
  5
E931
330
1
100
AcDbSymbolTableRecord
100
AcDbBlockTableRecord
  2
*D3
340
0
 70
     0
280
     1
281
     0
  0
BLOCK_RECORD
  5
1012B83
330
1
100
AcDbSymbolTableRecord
100
AcDbBlockTableRecord
  2
CNC_Lazer
340
0
310
2800000020000000200000000100200000000000001000000100000001000000000000000000000000000000302821FF302821FF302821FF302821FF302821FF302821FF302821FF302821FF302821FF302821FF302821FF302821FF302821FF302821FF302821FF302821FF302821FF302821FF302821FF302821FF302821
310
FF302821FF302821FF302821FF302821FF302821FF302821FF302821FF302821FF302821FF302821FF302821FF302821FF302821FF302821FF302821FF302821FF302821FF302821FF302821FF302821FF302821FF302821FF302821FF302821FF302821FF302821FF302821FF302821FF302821FF302821FF302821FF3028
310
21FF302821FF302821FF302821FF302821FF302821FF302821FF302821FF302821FF302821FF302821FF302821FF302821FF302821FF302821FF302821FF302821FF302821FF302821FF302821FF302821FF302821FF302821FF302821FF302821FF302821FF302821FF302821FF302821FF302821FF302821FF302821FF30
310
2821FF302821FF302821FF302821FF302821FF302821FF302821FF302821FF302821FF302821FF302821FF302821FF302821FF302821FF302821FF302821FF302821FF302821FF302821FF302821FF302821FF302821FF302821FF302821FF302821FF302821FF302821FF302821FF302821FF302821FF302821FF302821FF
310
302821FF302821FF302821FF302821FF302821FF302821FF302821FF302821FF302821FF302821FF302821FF302821FF302821FF302821FF302821FF302821FF302821FF302821FF302821FF302821FF302821FF302821FF302821FF302821FF302821FF302821FF302821FF302821FF302821FF302821FF302821FF302821
310
FF302821FF302821FF302821FF302821FF302821FF302821FF302821FF302821FF302821FF302821FF302821FF302821FF302821FF302821FF302821FF302821FF302821FF302821FF302821FF302821FF302821FF302821FF302821FF302821FF302821FF302821FF302821FF302821FF302821FF302821FF302821FF3028
310
21FF302821FF302821FF302821FF302821FF302821FF302821FF302821FF302821FF302821FF302821FF302821FF302821FF302821FF302821FF302821FF302821FF302821FF302821FF302821FF302821FF302821FF302821FF302821FF302821FF302821FF302821FF302821FF302821FF302821FF00FFBFFF00FFBFFF00
310
FFBFFF00FFBFFF302821FF302821FF302821FF302821FF302821FF302821FF302821FF302821FF302821FF302821FF302821FF302821FF302821FFFFFFFFFFFFFFFFFFFFFFFFFF302821FF302821FF302821FF302821FF302821FF302821FF302821FF302821FF302821FF302821FF302821FF302821FF00FFBFFF00FFBFFF
310
00FFBFFF00FFBFFF00FFBFFF00FFBFFF00FFBFFF00FFBFFF00FFBFFF00FFBFFF00FFBFFF00FFBFFF00FFBFFF00FFBFFF302821FF302821FF302821FFFFFFFFFFFFFF00FFFFFFFFFFA500A5FFFFFFFFFFA500A5FFFFFFFFFFFFFFFFFFFFFFFFFFFFFFFFFFFFFFFFFFFFFFFFFFFFFFFFFFFFFFFFFFFFFFFFFF00BFFFFFFFFFFF
310
FFFFFF00FFFFFFFFFF00FF00FF00BFFFFF00FF00FFFFFF00FF00FFBFFF00FFBFFF302821FF302821FF302821FF00FFBFFF302821FF302821FF302821FFFFFFFFFFFFFF00FFFFFFFFFFFFFFFFFFFFFFFFFFFFFFFFFFFFFFFFFFFF7FBFFFFF7FBFFFFF7FBFFFFF7FBFFFFFFFFFFF302821FF302821FFFFFFFFFFFF7FDFFFFFFF
310
FFFFFFFF00FFFFFFFFFF00FF00FF00BFFFFF00FF00FFFFFF00FF00FFBFFF00FFBFFF302821FF302821FF302821FF00FFBFFF302821FF302821FF00FFBFFF00FFBFFFFFFF00FFFFFFFFFF00BFFFFFFFFF00FF00BFFFFFFFFFFFFF302821FF302821FF302821FF302821FFFFFFFFFFFF0000FFFF0000FFFFFFFFFF00BFFFFFFF
310
FFFFFFFFFF00FFFFFFFFFF00FF00FF00BFFFFF00FF00FFFFFF00FF00FFBFFF00FFBFFF302821FF302821FF302821FF00FFBFFF302821FF302821FF00FFBFFF00FFBFFFFFFF00FFFFFFFFFFFFFF00FF00FFBFFFFFFF00FFFFFFFFFF302821FF302821FF302821FF302821FFFFFFFFFF00FFFFFF00FFFFFFFFFFFFFF007FFFFF
310
FFFFFFFFFFFFFFFFFFFFFFFFFFFFFFFF00BFFFFFFFFFFFFFFFFF00FFFFFFFFFF302821FF302821FF302821FF302821FF00FFBFFF302821FF302821FF302821FFFFFFFFFFFFFF00FFFFFFFFFF302821FF00FFBFFF302821FFFFFFFFFF302821FF00FFBFFF00FFBFFF302821FFFFFFFFFF00FFFFFF00FFFFFFFFFFFFFFFFFFFF
310
FFFF00FFFF302821FFFF00FFFFFF00FFFFFF00FFFF302821FFFF00FFFFFFFFFFFF302821FF302821FF302821FF302821FF00FFBFFF302821FF302821FF302821FFFFFFFFFF00FF00FFFFFFFFFFFFFFFFFFFFFFFFFFFFFFFFFFFFFFFFFF302821FF302821FF302821FFFFFFFFFFFFFFFFFFFF0000FFFF0000FFFF7FBFFFFFFF
310
FFFF302821FFFF0000FF302821FF302821FF302821FFFF0000FF302821FFFFFFFFFF302821FF302821FF302821FF302821FF00FFBFFF302821FF302821FF00FFBFFF00FFBFFF00FF00FF00FF00FFFF7FDFFFFF7FDFFF00FF00FFFFFFFFFFFF7FBFFFFF0000FFFF0000FFFF7FBFFFFFFFFFFF302821FF302821FF302821FFFF
310
FFFFFFFF0000FFFF0000FF302821FFFF0000FF302821FFFF0000FFFF0000FFFFFFFFFF302821FF302821FF302821FF00FFBFFF00FFBFFF302821FF302821FF00FFBFFF00FFBFFF00FF00FFFFFF00FFFFFF00FFFFFF00FFFFFF00FF00FF00FFFFFFFFFF00FFFFFF00FFFFFFFFFFFFFF302821FF00FFBFFF00FFBFFF302821FF
310
FFFFFFFFFF00FFFFFF0000FFFF00FFFFFF00FFFFFF00FFFFFF0000FFFF00FFFFFFFFFFFF302821FF302821FF302821FF302821FF00FFBFFF302821FF302821FF302821FFFFFFFFFFFFFF00FFFFFF00FFFFFFFFFFFFFFFFFF00FFBFFF00FFBFFFFFFFFFFF00FFFFFF00FFFFFFFFFFFFFF302821FF00FFBFFF00FFBFFF302821
310
FFFFFFFFFFFF0000FFFF0000FF302821FF00FFBFFF302821FFFF0000FFFF0000FFFFFFFFFF302821FF302821FF302821FF302821FF00FFBFFF302821FF302821FF302821FFFFFFFFFF00FFBFFF00FFBFFFFFFFFFFFFF7FDFFF00FFBFFF00FFBFFFFFFFFFFFFF0000FFFF0000FFFFFFFFFFFF7FBFFF302821FFFF7FBFFFFF7F
310
BFFFFFFFFFFF302821FFFF0000FF302821FF00FFBFFF302821FFFF0000FF302821FFFFFFFFFF302821FF302821FF302821FF302821FF00FFBFFF302821FF302821FF302821FFFFFFFFFF00FFBFFFFFFFFFFFFFFFFFFFFFFFFFFFFFFFFFFFFFFFFFFFFFFFFFFFFF7FBFFFFF7FBFFFFFFFFFFFFF7FBFFF302821FFFF7FBFFFFF
310
7FBFFFFFFFFFFFFF00FFFF302821FFFF00FFFFFF00FFFFFF00FFFF302821FFFF00FFFFFFFFFFFF302821FF302821FF302821FF302821FF00FFBFFF302821FF302821FF302821FFFFFFFFFFFF7FBFFFFFFFFFFFFFFFFFFFFFFFFFFF00FFFFFF00FFFFFFFFFFFFFFFFFFFFFFFFFFFFFFFFFFFFFFFFFFFFFFFFFFFFFFFFFFFFFF
310
FFFFFFFFFFFFFFFFFFFFFFFFFFFFFFFFFFFFFFFFFFFFFFFFFF7FBFFFFF7FBFFFFFFFFFFFFFFFFFFF302821FF302821FF302821FF302821FF00FFBFFF302821FF302821FF302821FFFFFFFFFFFF7FBFFF00FFBFFF00FFBFFFFF0000FF00FFFFFF00FFFFFFFF0000FFFF0000FF302821FFFF7FBFFFFF7FBFFF00FFBFFF00FFBF
310
FFFF0000FFFF0000FF00FFFFFF00FFFFFFFF0000FFFF0000FFFF7FBFFFFF7FBFFFA500A5FF302821FF302821FF302821FF302821FF302821FF00FFBFFF302821FF302821FF302821FFFFFFFFFFFF7FBFFFFFFFFFFFFFFFFFFFFFFFFFFFFFFFFFFFFFFFFFFFFFFFFFFFFFFFFFFFFFFFFFFFFF7FBFFFFFFFFFFFFF7FBFFFFFFF
310
FFFFFFFFFFFFFFFFFFFF00FFFFFF00FFBFFF00FFBFFF00FFBFFF00FFBFFF00FFBFFF00FFBFFF00FFBFFF00FFBFFF00FFBFFF00FFBFFF00FFBFFF00FFBFFF302821FF302821FF302821FF302821FF302821FF302821FF302821FF302821FF302821FF302821FF302821FF302821FF302821FF302821FF302821FF302821FF30
310
2821FF302821FF302821FF302821FF302821FF302821FF302821FF302821FF302821FF302821FF00FFBFFF302821FF302821FF302821FF302821FF302821FF302821FF302821FF302821FF00FFBFFF302821FF302821FF302821FF302821FF302821FF302821FF302821FF302821FF302821FF302821FF302821FF302821FF
310
302821FF302821FF302821FF302821FF302821FF302821FF302821FF302821FF302821FF302821FF00FFBFFF302821FF302821FF302821FF302821FF302821FF302821FF302821FF302821FF00FFBFFF00FFBFFF00FFBFFF00FFBFFF00FFBFFF00FFBFFF00FFBFFF00FFBFFF00FFBFFF00FFBFFF00FFBFFF00FFBFFF00FFBF
310
FF00FFBFFF00FFBFFF00FFBFFF00FFBFFF00FFBFFF00FFBFFF00FFBFFF00FFBFFF00FFBFFF00FFBFFF00FFBFFF302821FF302821FF302821FF302821FF302821FF302821FF302821FF302821FF00FFBFFF302821FF302821FF302821FF302821FF302821FF302821FF302821FF302821FF302821FF302821FF00FFBFFF00FF
310
BFFF302821FF302821FF302821FF302821FF302821FF302821FF302821FF302821FF302821FF302821FF00FFBFFF302821FF302821FF302821FF302821FF302821FF302821FF302821FF302821FF302821FF302821FF302821FF302821FF302821FF302821FF302821FF302821FF302821FF302821FF302821FF302821FF30
310
2821FF302821FF302821FF302821FF302821FF302821FF302821FF302821FF302821FF302821FF302821FF302821FF302821FF302821FF302821FF302821FF302821FF302821FF302821FF302821FF302821FF302821FF302821FF302821FF302821FF302821FF302821FF302821FF302821FF302821FF302821FF302821FF
310
302821FF302821FF302821FF302821FF302821FF302821FF302821FF302821FF302821FF302821FF302821FF302821FF302821FF302821FF302821FF302821FF302821FF302821FF302821FF302821FF302821FF302821FF302821FF302821FF302821FF302821FF302821FF302821FF302821FF302821FF302821FF302821
310
FF302821FF302821FF302821FF302821FF302821FF302821FF302821FF302821FF302821FF302821FF302821FF302821FF302821FF302821FF302821FF302821FF302821FF302821FF302821FF302821FF302821FF302821FF302821FF302821FF302821FF302821FF302821FF302821FF302821FF302821FF302821FF3028
310
21FF302821FF302821FF302821FF302821FF302821FF302821FF302821FF302821FF302821FF302821FF302821FF302821FF302821FF302821FF302821FF302821FF302821FF302821FF302821FF302821FF302821FF302821FF302821FF302821FF302821FF302821FF302821FF302821FF302821FF302821FF302821FF30
310
2821FF302821FF302821FF302821FF302821FF302821FF302821FF302821FF302821FF302821FF302821FF302821FF302821FF302821FF302821FF302821FF302821FF302821FF302821FF302821FF302821FF302821FF302821FF302821FF302821FF302821FF302821FF302821FF302821FF302821FF302821FF302821FF
310
302821FF302821FF302821FF302821FF302821FF302821FF302821FF302821FF302821FF302821FF302821FF302821FF302821FF302821FF302821FF302821FF302821FF302821FF
 70
     4
280
     1
281
     1
  0
BLOCK_RECORD
  5
1012D4E
330
1
100
AcDbSymbolTableRecord
100
AcDbBlockTableRecord
  2
*D6
340
0
 70
     0
280
     1
281
     0
  0
ENDTAB
  0
ENDSEC
  0
SECTION
  2
BLOCKS
  0
BLOCK
  5
20
330
1F
100
AcDbEntity
  8
0
100
AcDbBlockBegin
  2
*Model_Space
 70
     0
 10
0.0
 20
0.0
 30
0.0
  3
*Model_Space
  1

  0
ENDBLK
  5
21
330
1F
100
AcDbEntity
  8
0
100
AcDbBlockEnd
  0
BLOCK
  5
D4
330
D2
100
AcDbEntity
 67
     1
  8
0
100
AcDbBlockBegin
  2
*Paper_Space
 70
     0
 10
0.0
 20
0.0
 30
0.0
  3
*Paper_Space
  1

  0
ENDBLK
  5
D5
330
D2
100
AcDbEntity
 67
     1
  8
0
100
AcDbBlockEnd
  0
BLOCK
  5
D8
330
D6
100
AcDbEntity
 67
     1
  8
0
100
AcDbBlockBegin
  2
*Paper_Space0
 70
     0
 10
0.0
 20
0.0
 30
0.0
  3
*Paper_Space0
  1

  0
ENDBLK
  5
D9
330
D6
100
AcDbEntity
 67
     1
  8
0
100
AcDbBlockEnd
  0
BLOCK
  5
651C
330
64FD
100
AcDbEntity
  8
0
100
AcDbBlockBegin
  2
rulman
 70
     0
 10
0.0
 20
0.0
 30
0.0
  3
rulman
  1

  0
CIRCLE
  5
64FE
330
64FD
100
AcDbEntity
  8
0
100
AcDbCircle
 10
-3439.470958932805
 20
1196.082944967688
 30
0.0
 40
4.0
  0
CIRCLE
  5
64FF
330
64FD
100
AcDbEntity
  8
0
100
AcDbCircle
 10
-3439.470958932805
 20
1196.082944967688
 30
0.0
 40
7.5
  0
LINE
  5
6500
330
64FD
100
AcDbEntity
  8
0
100
AcDbLine
 10
-3467.612279859961
 20
1203.082944967688
 30
0.0
 11
-3443.212616319578
 21
1203.082944967688
 31
0.0
  0
LINE
  5
6501
330
64FD
100
AcDbEntity
  8
0
100
AcDbLine
 10
-3435.729301546031
 20
1203.082944967688
 30
0.0
 11
-3419.141511631711
 21
1203.082944967688
 31
0.0
  0
LINE
  5
6502
330
64FD
100
AcDbEntity
  8
0
100
AcDbLine
 10
-3467.612279859961
 20
1201.082944967688
 30
0.0
 11
-3445.061128876555
 21
1201.082944967688
 31
0.0
  0
LINE
  5
6503
330
64FD
100
AcDbEntity
  8
0
100
AcDbLine
 10
-3433.880788989056
 20
1201.082944967688
 30
0.0
 11
-3419.141511631711
 21
1201.082944967688
 31
0.0
  0
LINE
  5
6504
330
64FD
100
AcDbEntity
  8
0
100
AcDbLine
 10
-3443.212616319579
 20
1202.582944967688
 30
0.0
 11
-3443.212616319579
 21
1203.082944967688
 31
0.0
  0
LINE
  5
6505
330
64FD
100
AcDbEntity
  8
0
100
AcDbLine
 10
-3435.729301546031
 20
1202.582944967688
 30
0.0
 11
-3435.729301546031
 21
1203.082944967688
 31
0.0
  0
LINE
  5
6506
330
64FD
100
AcDbEntity
  8
0
100
AcDbLine
 10
-3467.612279859961
 20
1189.082944967688
 30
0.0
 11
-3443.212616319578
 21
1189.082944967688
 31
0.0
  0
LINE
  5
6507
330
64FD
100
AcDbEntity
  8
0
100
AcDbLine
 10
-3435.729301546031
 20
1189.082944967688
 30
0.0
 11
-3419.141511631711
 21
1189.082944967688
 31
0.0
  0
LINE
  5
6508
330
64FD
100
AcDbEntity
  8
0
100
AcDbLine
 10
-3467.612279859961
 20
1191.082944967688
 30
0.0
 11
-3445.061128876555
 21
1191.082944967688
 31
0.0
  0
LINE
  5
6509
330
64FD
100
AcDbEntity
  8
0
100
AcDbLine
 10
-3433.880788989056
 20
1191.082944967688
 30
0.0
 11
-3419.141511631711
 21
1191.082944967688
 31
0.0
  0
LINE
  5
650A
330
64FD
100
AcDbEntity
  8
0
100
AcDbLine
 10
-3443.212616319579
 20
1189.582944967688
 30
0.0
 11
-3443.212616319579
 21
1189.082944967688
 31
0.0
  0
LINE
  5
650B
330
64FD
100
AcDbEntity
  8
0
100
AcDbLine
 10
-3435.729301546031
 20
1189.582944967688
 30
0.0
 11
-3435.729301546031
 21
1189.082944967688
 31
0.0
  0
CIRCLE
  5
650C
330
64FD
100
AcDbEntity
  8
0
100
AcDbCircle
 10
-3493.972199227603
 20
1196.082944967688
 30
0.0
 40
4.0
  0
CIRCLE
  5
650D
330
64FD
100
AcDbEntity
  8
0
100
AcDbCircle
 10
-3493.972199227603
 20
1196.082944967688
 30
0.0
 40
7.5
  0
LINE
  5
650E
330
64FD
100
AcDbEntity
  8
0
100
AcDbLine
 10
-3522.113520154759
 20
1203.082944967688
 30
0.0
 11
-3497.713856614377
 21
1203.082944967688
 31
0.0
  0
LINE
  5
650F
330
64FD
100
AcDbEntity
  8
0
100
AcDbLine
 10
-3490.230541840829
 20
1203.082944967688
 30
0.0
 11
-3473.642751926509
 21
1203.082944967688
 31
0.0
  0
LINE
  5
6510
330
64FD
100
AcDbEntity
  8
0
100
AcDbLine
 10
-3522.113520154759
 20
1201.082944967688
 30
0.0
 11
-3499.562369171353
 21
1201.082944967688
 31
0.0
  0
LINE
  5
6511
330
64FD
100
AcDbEntity
  8
0
100
AcDbLine
 10
-3488.382029283854
 20
1201.082944967688
 30
0.0
 11
-3473.642751926509
 21
1201.082944967688
 31
0.0
  0
LINE
  5
6512
330
64FD
100
AcDbEntity
  8
0
100
AcDbLine
 10
-3497.713856614377
 20
1202.582944967688
 30
0.0
 11
-3497.713856614377
 21
1203.082944967688
 31
0.0
  0
LINE
  5
6513
330
64FD
100
AcDbEntity
  8
0
100
AcDbLine
 10
-3490.230541840829
 20
1202.582944967688
 30
0.0
 11
-3490.230541840829
 21
1203.082944967688
 31
0.0
  0
LINE
  5
6514
330
64FD
100
AcDbEntity
  8
0
100
AcDbLine
 10
-3522.113520154759
 20
1189.082944967688
 30
0.0
 11
-3497.713856614377
 21
1189.082944967688
 31
0.0
  0
LINE
  5
6515
330
64FD
100
AcDbEntity
  8
0
100
AcDbLine
 10
-3490.230541840829
 20
1189.082944967688
 30
0.0
 11
-3473.642751926509
 21
1189.082944967688
 31
0.0
  0
LINE
  5
6516
330
64FD
100
AcDbEntity
  8
0
100
AcDbLine
 10
-3522.113520154759
 20
1191.082944967688
 30
0.0
 11
-3499.562369171353
 21
1191.082944967688
 31
0.0
  0
LINE
  5
6517
330
64FD
100
AcDbEntity
  8
0
100
AcDbLine
 10
-3488.382029283854
 20
1191.082944967688
 30
0.0
 11
-3473.642751926509
 21
1191.082944967688
 31
0.0
  0
LINE
  5
6518
330
64FD
100
AcDbEntity
  8
0
100
AcDbLine
 10
-3497.713856614377
 20
1189.582944967688
 30
0.0
 11
-3497.713856614377
 21
1189.082944967688
 31
0.0
  0
LINE
  5
6519
330
64FD
100
AcDbEntity
  8
0
100
AcDbLine
 10
-3490.230541840829
 20
1189.582944967688
 30
0.0
 11
-3490.230541840829
 21
1189.082944967688
 31
0.0
  0
ENDBLK
  5
651D
330
64FD
100
AcDbEntity
  8
0
100
AcDbBlockEnd
  0
BLOCK
  5
C452
330
C451
100
AcDbEntity
  8
0
100
AcDbBlockBegin
  2
*D2
 70
     1
 10
0.0
 20
0.0
 30
0.0
  3
*D2
  1

  0
LINE
  5
1012D65
330
C451
100
AcDbEntity
  8
dim
 62
     0
440
 16777216
370
    -2
100
AcDbLine
 10
-475.1843635131044
 20
1387.050009058617
 30
0.0
 11
-475.1843635131044
 21
1464.887934244211
 31
0.0
  0
LINE
  5
1012D66
330
C451
100
AcDbEntity
  8
dim
 62
     0
440
 16777216
370
    -2
100
AcDbLine
 10
514.8156364868945
 20
1367.050009058616
 30
0.0
 11
514.8156364868945
 21
1464.887934244211
 31
0.0
  0
LINE
  5
1012D67
330
C451
100
AcDbEntity
  8
dim
 62
     0
440
 16777216
370
    -2
100
AcDbLine
 10
-472.6843635131045
 20
1463.637934244211
 30
0.0
 11
512.3156364868946
 21
1463.637934244211
 31
0.0
  0
SOLID
  5
1012D68
330
C451
100
AcDbEntity
  8
dim
 62
     0
440
 16777216
100
AcDbTrace
 10
-472.6843635131045
 20
1464.054600910878
 30
0.0
 11
-472.6843635131045
 21
1463.221267577545
 31
0.0
 12
-475.1843635131044
 22
1463.637934244211
 32
0.0
 13
-475.1843635131044
 23
1463.637934244211
 33
0.0
  0
SOLID
  5
1012D69
330
C451
100
AcDbEntity
  8
dim
 62
     0
440
 16777216
100
AcDbTrace
 10
512.3156364868946
 20
1464.054600910878
 30
0.0
 11
512.3156364868946
 21
1463.221267577545
 31
0.0
 12
514.8156364868945
 22
1463.637934244211
 32
0.0
 13
514.8156364868945
 23
1463.637934244211
 33
0.0
  0
MTEXT
  5
1012D6A
330
C451
100
AcDbEntity
  8
dim
 62
     0
440
 16777216
100
AcDbMText
 10
19.81563648689507
 20
1471.921529060037
 30
0.0
 40
15.0
 41
0.0
 46
0.0
 71
     5
 72
     1
  1
990
 73
     1
 44
1.0
  0
POINT
  5
1012D6B
330
C451
100
AcDbEntity
  8
Defpoints
 62
     0
440
 16777216
100
AcDbPoint
 10
-475.1843635131044
 20
1386.425009058617
 30
0.0
  0
POINT
  5
1012D6C
330
C451
100
AcDbEntity
  8
Defpoints
 62
     0
440
 16777216
100
AcDbPoint
 10
514.8156364868945
 20
1366.425009058616
 30
0.0
  0
POINT
  5
1012D6D
330
C451
100
AcDbEntity
  8
Defpoints
 62
     0
440
 16777216
100
AcDbPoint
 10
514.8156364868945
 20
1463.637934244211
 30
0.0
  0
ENDBLK
  5
C453
330
C451
100
AcDbEntity
  8
0
100
AcDbBlockEnd
  0
BLOCK
  5
E932
330
E931
100
AcDbEntity
  8
0
100
AcDbBlockBegin
  2
*D3
 70
     1
 10
0.0
 20
0.0
 30
0.0
  3
*D3
  1

  0
LINE
  5
1012D12
330
E931
100
AcDbEntity
  8
dim
 62
     0
440
 16777216
370
    -2
100
AcDbLine
 10
277.6212555609528
 20
1360.811978371453
 30
0.0
 11
740.6614221911984
 21
1360.811978371453
 31
0.0
  0
LINE
  5
1012D13
330
E931
100
AcDbEntity
  8
dim
 62
     0
440
 16777216
370
    -2
100
AcDbLine
 10
320.121255560951
 20
740.8119783714501
 30
0.0
 11
740.6614221911986
 21
740.8119783714501
 31
0.0
  0
LINE
  5
1012D14
330
E931
100
AcDbEntity
  8
dim
 62
     0
440
 16777216
370
    -2
100
AcDbLine
 10
739.4114221911983
 20
1358.311978371453
 30
0.0
 11
739.4114221911986
 21
743.31197837145
 31
0.0
  0
SOLID
  5
1012D15
330
E931
100
AcDbEntity
  8
dim
 62
     0
440
 16777216
100
AcDbTrace
 10
738.9947555245318
 20
1358.311978371453
 30
0.0
 11
739.828088857865
 21
1358.311978371453
 31
0.0
 12
739.4114221911983
 22
1360.811978371453
 32
0.0
 13
739.4114221911983
 23
1360.811978371453
 33
0.0
  0
SOLID
  5
1012D16
330
E931
100
AcDbEntity
  8
dim
 62
     0
440
 16777216
100
AcDbTrace
 10
738.994755524532
 20
743.31197837145
 30
0.0
 11
739.8280888578653
 21
743.31197837145
 31
0.0
 12
739.4114221911986
 22
740.8119783714501
 32
0.0
 13
739.4114221911986
 23
740.8119783714501
 33
0.0
  0
MTEXT
  5
1012D17
330
E931
100
AcDbEntity
  8
dim
 62
     0
440
 16777216
100
AcDbMText
 10
731.1278273753734
 20
1050.811978371451
 30
0.0
 40
15.0
 41
0.0
 46
0.0
 71
     5
 72
     1
  1
620
 11
0.0000000000000001
 21
1.0
 31
0.0
 73
     1
 44
1.0
  0
POINT
  5
1012D18
330
E931
100
AcDbEntity
  8
Defpoints
 62
     0
440
 16777216
100
AcDbPoint
 10
276.9962555609528
 20
1360.811978371453
 30
0.0
  0
POINT
  5
1012D19
330
E931
100
AcDbEntity
  8
Defpoints
 62
     0
440
 16777216
100
AcDbPoint
 10
319.496255560951
 20
740.8119783714501
 30
0.0
  0
POINT
  5
1012D1A
330
E931
100
AcDbEntity
  8
Defpoints
 62
     0
440
 16777216
100
AcDbPoint
 10
739.4114221911986
 20
740.8119783714501
 30
0.0
  0
ENDBLK
  5
E933
330
E931
100
AcDbEntity
  8
0
100
AcDbBlockEnd
  0
BLOCK
  5
1012B84
330
1012B83
100
AcDbEntity
  8
0
100
AcDbBlockBegin
  2
CNC_Lazer
 70
     0
 10
0.0
 20
0.0
 30
0.0
  3
CNC_Lazer
  1

  0
CIRCLE
  5
1012B86
330
1012B83
100
AcDbEntity
  8
6.5
100
AcDbCircle
 10
964.9999999999991
 20
-385.000000000001
 30
0.0
 40
3.25
  0
CIRCLE
  5
1012B87
330
1012B83
100
AcDbEntity
  8
6.5
100
AcDbCircle
 10
829.9999999999991
 20
-385.000000000001
 30
0.0
 40
3.25
  0
CIRCLE
  5
1012B88
330
1012B83
100
AcDbEntity
  8
6.5
100
AcDbCircle
 10
694.9999999999991
 20
-385.000000000001
 30
0.0
 40
3.25
  0
CIRCLE
  5
1012B89
330
1012B83
100
AcDbEntity
  8
6.5
100
AcDbCircle
 10
964.9999999999991
 20
-305.000000000001
 30
0.0
 40
3.25
  0
CIRCLE
  5
1012B8A
330
1012B83
100
AcDbEntity
  8
6.5
100
AcDbCircle
 10
829.9999999999991
 20
-305.000000000001
 30
0.0
 40
3.25
  0
CIRCLE
  5
1012B8B
330
1012B83
100
AcDbEntity
  8
6.5
100
AcDbCircle
 10
694.9999999999991
 20
-305.000000000001
 30
0.0
 40
3.25
  0
CIRCLE
  5
1012B8C
330
1012B83
100
AcDbEntity
  8
6.5
100
AcDbCircle
 10
964.9999999999991
 20
-225.0000000000009
 30
0.0
 40
3.25
  0
CIRCLE
  5
1012B8D
330
1012B83
100
AcDbEntity
  8
6.5
100
AcDbCircle
 10
829.9999999999991
 20
-225.0000000000009
 30
0.0
 40
3.25
  0
CIRCLE
  5
1012B8E
330
1012B83
100
AcDbEntity
  8
6.5
100
AcDbCircle
 10
694.9999999999991
 20
-225.0000000000009
 30
0.0
 40
3.25
  0
CIRCLE
  5
1012B8F
330
1012B83
100
AcDbEntity
  8
6.5
100
AcDbCircle
 10
964.9999999999991
 20
-145.0000000000002
 30
0.0
 40
3.25
  0
CIRCLE
  5
1012B90
330
1012B83
100
AcDbEntity
  8
6.5
100
AcDbCircle
 10
829.9999999999991
 20
-145.0000000000002
 30
0.0
 40
3.25
  0
CIRCLE
  5
1012B91
330
1012B83
100
AcDbEntity
  8
6.5
100
AcDbCircle
 10
694.9999999999991
 20
-145.0000000000002
 30
0.0
 40
3.25
  0
CIRCLE
  5
1012B92
330
1012B83
100
AcDbEntity
  8
6.5
100
AcDbCircle
 10
924.9999999999991
 20
-341.500000000001
 30
0.0
 40
3.25
  0
CIRCLE
  5
1012B93
330
1012B83
100
AcDbEntity
  8
6.5
100
AcDbCircle
 10
734.999999999999
 20
-341.5000000000006
 30
0.0
 40
3.25
  0
CIRCLE
  5
1012B94
330
1012B83
100
AcDbEntity
  8
6.5
100
AcDbCircle
 10
734.999999999999
 20
-291.5000000000004
 30
0.0
 40
3.25
  0
CIRCLE
  5
1012B95
330
1012B83
100
AcDbEntity
  8
6.5
100
AcDbCircle
 10
734.999999999999
 20
-241.5000000000004
 30
0.0
 40
3.25
  0
CIRCLE
  5
1012B96
330
1012B83
100
AcDbEntity
  8
6.5
100
AcDbCircle
 10
734.999999999999
 20
-191.5000000000004
 30
0.0
 40
3.25
  0
CIRCLE
  5
1012B97
330
1012B83
100
AcDbEntity
  8
6.5
100
AcDbCircle
 10
924.9999999999991
 20
-191.5000000000009
 30
0.0
 40
3.25
  0
CIRCLE
  5
1012B98
330
1012B83
100
AcDbEntity
  8
6.5
100
AcDbCircle
 10
924.9999999999991
 20
-241.5000000000009
 30
0.0
 40
3.25
  0
CIRCLE
  5
1012B99
330
1012B83
100
AcDbEntity
  8
6.5
100
AcDbCircle
 10
924.9999999999991
 20
-291.5000000000009
 30
0.0
 40
3.25
  0
CIRCLE
  5
1012B9A
330
1012B83
100
AcDbEntity
  8
6.8
100
AcDbCircle
 10
949.9999999999991
 20
-108.0000000000011
 30
0.0
 40
3.399999999999999
  0
CIRCLE
  5
1012B9B
330
1012B83
100
AcDbEntity
  8
6.8
100
AcDbCircle
 10
889.9999999999991
 20
-108.0000000000011
 30
0.0
 40
3.399999999999999
  0
CIRCLE
  5
1012B9C
330
1012B83
100
AcDbEntity
  8
6.8
100
AcDbCircle
 10
829.9999999999991
 20
-108.0000000000011
 30
0.0
 40
3.399999999999999
  0
CIRCLE
  5
1012B9D
330
1012B83
100
AcDbEntity
  8
6.8
100
AcDbCircle
 10
769.9999999999991
 20
-108.0000000000011
 30
0.0
 40
3.399999999999999
  0
CIRCLE
  5
1012B9E
330
1012B83
100
AcDbEntity
  8
6.8
100
AcDbCircle
 10
709.999999999999
 20
-108.0000000000011
 30
0.0
 40
3.399999999999999
  0
CIRCLE
  5
1012B9F
330
1012B83
100
AcDbEntity
  8
6.8
100
AcDbCircle
 10
949.9999999999991
 20
-265.0000000000009
 30
0.0
 40
3.399999999999999
  0
CIRCLE
  5
1012BA0
330
1012B83
100
AcDbEntity
  8
6.8
100
AcDbCircle
 10
889.9999999999991
 20
-265.0000000000009
 30
0.0
 40
3.399999999999999
  0
CIRCLE
  5
1012BA1
330
1012B83
100
AcDbEntity
  8
6.8
100
AcDbCircle
 10
829.9999999999991
 20
-265.0000000000009
 30
0.0
 40
3.399999999999999
  0
CIRCLE
  5
1012BA2
330
1012B83
100
AcDbEntity
  8
6.8
100
AcDbCircle
 10
769.9999999999991
 20
-265.0000000000009
 30
0.0
 40
3.399999999999999
  0
CIRCLE
  5
1012BA3
330
1012B83
100
AcDbEntity
  8
6.8
100
AcDbCircle
 10
949.9999999999991
 20
-422.0000000000019
 30
0.0
 40
3.399999999999999
  0
CIRCLE
  5
1012BA4
330
1012B83
100
AcDbEntity
  8
6.8
100
AcDbCircle
 10
889.9999999999991
 20
-422.0000000000019
 30
0.0
 40
3.399999999999999
  0
CIRCLE
  5
1012BA5
330
1012B83
100
AcDbEntity
  8
6.8
100
AcDbCircle
 10
829.9999999999991
 20
-422.0000000000019
 30
0.0
 40
3.399999999999999
  0
CIRCLE
  5
1012BA6
330
1012B83
100
AcDbEntity
  8
6.8
100
AcDbCircle
 10
769.9999999999991
 20
-422.0000000000019
 30
0.0
 40
3.399999999999999
  0
CIRCLE
  5
1012BA7
330
1012B83
100
AcDbEntity
  8
6.8
100
AcDbCircle
 10
709.999999999999
 20
-422.0000000000019
 30
0.0
 40
3.399999999999999
  0
CIRCLE
  5
1012BA8
330
1012B83
100
AcDbEntity
  8
6.8
100
AcDbCircle
 10
709.999999999999
 20
-265.0000000000009
 30
0.0
 40
3.399999999999999
  0
LWPOLYLINE
  5
1012BA9
330
1012B83
100
AcDbEntity
  8
0
100
AcDbPolyline
 90
        8
 70
     1
 43
0.0
 10
669.9999999999991
 20
-430.000000000001
 42
0.4142135623730951
 10
679.999999999999
 20
-440.000000000001
 10
979.9999999999995
 20
-440.0000000000019
 42
0.4142135623730951
 10
989.9999999999995
 20
-430.0000000000019
 10
989.9999999999986
 20
-100.0000000000002
 42
0.4142135623730951
 10
979.9999999999986
 20
-90.00000000000069
 10
679.999999999999
 20
-90.00000000000113
 42
0.4142135623730951
 10
669.9999999999991
 20
-100.0000000000011
  0
CIRCLE
  5
1012BAA
330
1012B83
100
AcDbEntity
  8
5.5
100
AcDbCircle
 10
959.999999999999
 20
-102.5000000000011
 30
0.0
 40
2.75
  0
CIRCLE
  5
1012BAB
330
1012B83
100
AcDbEntity
  8
5.5
100
AcDbCircle
 10
699.9999999999991
 20
-102.5000000000002
 30
0.0
 40
2.75
  0
CIRCLE
  5
1012BAC
330
1012B83
100
AcDbEntity
  8
5.5
100
AcDbCircle
 10
839.9999999999991
 20
-102.5000000000011
 30
0.0
 40
2.75
  0
CIRCLE
  5
1012BAD
330
1012B83
100
AcDbEntity
  8
5.5
100
AcDbCircle
 10
15.99999999999954
 20
-295.0000000000009
 30
0.0
 40
2.75
  0
LWPOLYLINE
  5
1012BAE
330
1012B83
100
AcDbEntity
  8
0
100
AcDbPolyline
 90
        8
 70
     1
 43
0.0
 10
275.0000000000004
 20
-315.000000000001
 10
275.0000000000004
 20
-260.0000000000009
 42
0.4142135623730951
 10
265.0000000000005
 20
-250.0000000000009
 10
9.999999999999545
 20
-250.0000000000009
 42
0.4142135623730951
 10
-0.0000000000004547
 20
-260.0000000000009
 10
-0.0000000000004547
 20
-315.000000000001
 42
0.4142135623730951
 10
9.999999999999545
 20
-325.000000000001
 10
265.0000000000005
 20
-325.000000000001
 42
0.4142135623730951
  0
CIRCLE
  5
1012BAF
330
1012B83
100
AcDbEntity
  8
3.5
100
AcDbCircle
 10
137.4999999999995
 20
-303.000000000001
 30
0.0
 40
1.75
  0
CIRCLE
  5
1012BB0
330
1012B83
100
AcDbEntity
  8
3.5
100
AcDbCircle
 10
137.4999999999995
 20
-287.0000000000009
 30
0.0
 40
1.75
  0
CIRCLE
  5
1012BB1
330
1012B83
100
AcDbEntity
  8
3.5
100
AcDbCircle
 10
145.4999999999995
 20
-295.0000000000009
 30
0.0
 40
1.75
  0
CIRCLE
  5
1012BB2
330
1012B83
100
AcDbEntity
  8
3.5
100
AcDbCircle
 10
129.4999999999995
 20
-295.0000000000009
 30
0.0
 40
1.75
  0
CIRCLE
  5
1012BB3
330
1012B83
100
AcDbEntity
  8
10++
100
AcDbCircle
 10
137.4999999999995
 20
-295.0000000000009
 30
0.0
 40
5.099999999999999
  0
CIRCLE
  5
1012BB4
330
1012B83
100
AcDbEntity
  8
10++
100
AcDbCircle
 10
237.5000000000004
 20
-295.0000000000009
 30
0.0
 40
16.0
  0
CIRCLE
  5
1012BB5
330
1012B83
100
AcDbEntity
  8
5.5
100
AcDbCircle
 10
237.5000000000004
 20
-273.5000000000009
 30
0.0
 40
2.75
  0
CIRCLE
  5
1012BB6
330
1012B83
100
AcDbEntity
  8
5.5
100
AcDbCircle
 10
237.5000000000004
 20
-316.500000000001
 30
0.0
 40
2.75
  0
CIRCLE
  5
1012BB7
330
1012B83
100
AcDbEntity
  8
5.5
100
AcDbCircle
 10
216.0000000000005
 20
-295.0000000000009
 30
0.0
 40
2.75
  0
CIRCLE
  5
1012BB8
330
1012B83
100
AcDbEntity
  8
5.5
100
AcDbCircle
 10
259.0000000000005
 20
-295.0000000000009
 30
0.0
 40
2.75
  0
CIRCLE
  5
1012BB9
330
1012B83
100
AcDbEntity
  8
10++
100
AcDbCircle
 10
37.49999999999955
 20
-295.0000000000009
 30
0.0
 40
16.0
  0
CIRCLE
  5
1012BBA
330
1012B83
100
AcDbEntity
  8
5.5
100
AcDbCircle
 10
37.49999999999955
 20
-273.5000000000009
 30
0.0
 40
2.75
  0
CIRCLE
  5
1012BBB
330
1012B83
100
AcDbEntity
  8
5.5
100
AcDbCircle
 10
37.49999999999955
 20
-316.500000000001
 30
0.0
 40
2.75
  0
CIRCLE
  5
1012BBC
330
1012B83
100
AcDbEntity
  8
5.5
100
AcDbCircle
 10
58.99999999999955
 20
-295.0000000000009
 30
0.0
 40
2.75
  0
CIRCLE
  5
1012BBD
330
1012B83
100
AcDbEntity
  8
3.5
100
AcDbCircle
 10
52.99999999999909
 20
-472.500000000001
 30
0.0
 40
1.75
  0
CIRCLE
  5
1012BBE
330
1012B83
100
AcDbEntity
  8
5.5
100
AcDbCircle
 10
23.49999999999909
 20
-372.500000000001
 30
0.0
 40
2.75
  0
CIRCLE
  5
1012BBF
330
1012B83
100
AcDbEntity
  8
10++
100
AcDbCircle
 10
44.99999999999909
 20
-472.500000000001
 30
0.0
 40
5.099999999999999
  0
LWPOLYLINE
  5
1012BC0
330
1012B83
100
AcDbEntity
  8
0
100
AcDbPolyline
 90
        8
 70
     1
 43
0.0
 10
-0.0000000000009095
 20
-345.000000000001
 10
-0.0000000000009095
 20
-600.000000000001
 42
0.4142135623730951
 10
9.99999999999909
 20
-610.000000000001
 10
64.99999999999909
 20
-610.000000000001
 42
0.4142135623730951
 10
74.99999999999909
 20
-600.000000000001
 10
74.99999999999909
 20
-345.000000000001
 42
0.4142135623730951
 10
64.99999999999909
 20
-335.000000000001
 10
9.99999999999909
 20
-335.000000000001
 42
0.4142135623730951
  0
CIRCLE
  5
1012BC1
330
1012B83
100
AcDbEntity
  8
3.5
100
AcDbCircle
 10
36.99999999999909
 20
-472.500000000001
 30
0.0
 40
1.75
  0
CIRCLE
  5
1012BC2
330
1012B83
100
AcDbEntity
  8
3.5
100
AcDbCircle
 10
44.99999999999909
 20
-464.500000000001
 30
0.0
 40
1.75
  0
CIRCLE
  5
1012BC3
330
1012B83
100
AcDbEntity
  8
5.5
100
AcDbCircle
 10
66.49999999999909
 20
-372.500000000001
 30
0.0
 40
2.75
  0
CIRCLE
  5
1012BC4
330
1012B83
100
AcDbEntity
  8
3.5
100
AcDbCircle
 10
44.99999999999909
 20
-480.500000000001
 30
0.0
 40
1.75
  0
CIRCLE
  5
1012BC5
330
1012B83
100
AcDbEntity
  8
10++
100
AcDbCircle
 10
44.99999999999909
 20
-372.500000000001
 30
0.0
 40
16.0
  0
CIRCLE
  5
1012BC6
330
1012B83
100
AcDbEntity
  8
5.5
100
AcDbCircle
 10
44.99999999999909
 20
-394.000000000001
 30
0.0
 40
2.75
  0
CIRCLE
  5
1012BC7
330
1012B83
100
AcDbEntity
  8
5.5
100
AcDbCircle
 10
44.99999999999909
 20
-351.000000000001
 30
0.0
 40
2.75
  0
CIRCLE
  5
1012BC8
330
1012B83
100
AcDbEntity
  8
10++
100
AcDbCircle
 10
44.99999999999909
 20
-572.500000000001
 30
0.0
 40
16.0
  0
CIRCLE
  5
1012BC9
330
1012B83
100
AcDbEntity
  8
5.5
100
AcDbCircle
 10
23.49999999999909
 20
-572.500000000001
 30
0.0
 40
2.75
  0
CIRCLE
  5
1012BCA
330
1012B83
100
AcDbEntity
  8
5.5
100
AcDbCircle
 10
44.99999999999909
 20
-551.000000000001
 30
0.0
 40
2.75
  0
CIRCLE
  5
1012BCB
330
1012B83
100
AcDbEntity
  8
5.5
100
AcDbCircle
 10
66.49999999999909
 20
-572.500000000001
 30
0.0
 40
2.75
  0
CIRCLE
  5
1012BCC
330
1012B83
100
AcDbEntity
  8
5.5
100
AcDbCircle
 10
44.99999999999909
 20
-594.000000000001
 30
0.0
 40
2.75
  0
CIRCLE
  5
1012BCD
330
1012B83
100
AcDbEntity
  8
6.0
100
AcDbCircle
 10
16.99999999999909
 20
-392.5000000000019
 30
0.0
 40
3.0
  0
CIRCLE
  5
1012BCE
330
1012B83
100
AcDbEntity
  8
6.0
100
AcDbCircle
 10
29.99999999999909
 20
-432.5000000000019
 30
0.0
 40
3.0
  0
CIRCLE
  5
1012BCF
330
1012B83
100
AcDbEntity
  8
6.0
100
AcDbCircle
 10
13.99999999999909
 20
-472.500000000001
 30
0.0
 40
3.0
  0
CIRCLE
  5
1012BD0
330
1012B83
100
AcDbEntity
  8
6.0
100
AcDbCircle
 10
16.99999999999909
 20
-552.5000000000001
 30
0.0
 40
3.0
  0
CIRCLE
  5
1012BD1
330
1012B83
100
AcDbEntity
  8
6.0
100
AcDbCircle
 10
29.99999999999909
 20
-512.5
 30
0.0
 40
3.0
  0
CIRCLE
  5
1012BD2
330
1012B83
100
AcDbEntity
  8
6.0
100
AcDbCircle
 10
217.4999999999995
 20
-267.0000000000009
 30
0.0
 40
3.0
  0
CIRCLE
  5
1012BD3
330
1012B83
100
AcDbEntity
  8
6.0
100
AcDbCircle
 10
137.4999999999995
 20
-264.0000000000009
 30
0.0
 40
3.0
  0
CIRCLE
  5
1012BD4
330
1012B83
100
AcDbEntity
  8
6.0
100
AcDbCircle
 10
177.4999999999995
 20
-280.0000000000009
 30
0.0
 40
3.0
  0
CIRCLE
  5
1012BD5
330
1012B83
100
AcDbEntity
  8
6.0
100
AcDbCircle
 10
57.50000000000046
 20
-267.0000000000009
 30
0.0
 40
3.0
  0
CIRCLE
  5
1012BD6
330
1012B83
100
AcDbEntity
  8
6.0
100
AcDbCircle
 10
97.50000000000046
 20
-280.0000000000009
 30
0.0
 40
3.0
  0
CIRCLE
  5
1012BD7
330
1012B83
100
AcDbEntity
  8
5.5
100
AcDbCircle
 10
843.7027957955088
 20
-469.7972042044896
 30
0.0
 40
2.75
  0
LWPOLYLINE
  5
1012BD8
330
1012B83
100
AcDbEntity
  8
0
100
AcDbPolyline
 90
        4
 70
     1
 43
0.0
 10
989.9999999999982
 20
-520.0000000000011
 10
786.9999999999982
 20
-520.0000000000001
 10
786.9999999999982
 20
-450.000000000002
 10
989.9999999999986
 20
-450.0000000000011
  0
CIRCLE
  5
1012BD9
330
1012B83
100
AcDbEntity
  8
3.5
100
AcDbCircle
 10
880.4999999999981
 20
-485.0000000000011
 30
0.0
 40
1.75
  0
CIRCLE
  5
1012BDA
330
1012B83
100
AcDbEntity
  8
3.5
100
AcDbCircle
 10
896.4999999999982
 20
-485.0000000000011
 30
0.0
 40
1.75
  0
CIRCLE
  5
1012BDB
330
1012B83
100
AcDbEntity
  8
3.5
100
AcDbCircle
 10
888.4999999999982
 20
-493.0000000000011
 30
0.0
 40
1.75
  0
CIRCLE
  5
1012BDC
330
1012B83
100
AcDbEntity
  8
3.5
100
AcDbCircle
 10
888.4999999999982
 20
-477.0000000000011
 30
0.0
 40
1.75
  0
CIRCLE
  5
1012BDD
330
1012B83
100
AcDbEntity
  8
10++
100
AcDbCircle
 10
888.4999999999982
 20
-485.0000000000011
 30
0.0
 40
5.099999999999999
  0
CIRCLE
  5
1012BDE
330
1012B83
100
AcDbEntity
  8
8.0
100
AcDbCircle
 10
888.4999999999982
 20
-462.0000000000011
 30
0.0
 40
4.0
  0
CIRCLE
  5
1012BDF
330
1012B83
100
AcDbEntity
  8
8.0
100
AcDbCircle
 10
888.4999999999982
 20
-508.0000000000011
 30
0.0
 40
4.0
  0
CIRCLE
  5
1012BE0
330
1012B83
100
AcDbEntity
  8
10++
100
AcDbCircle
 10
828.4999999999982
 20
-485.0000000000011
 30
0.0
 40
16.0
  0
CIRCLE
  5
1012BE1
330
1012B83
100
AcDbEntity
  8
5.5
100
AcDbCircle
 10
813.2972042044876
 20
-469.7972042044896
 30
0.0
 40
2.75
  0
CIRCLE
  5
1012BE2
330
1012B83
100
AcDbEntity
  8
5.5
100
AcDbCircle
 10
843.7027957955088
 20
-500.2027957955117
 30
0.0
 40
2.75
  0
CIRCLE
  5
1012BE3
330
1012B83
100
AcDbEntity
  8
5.5
100
AcDbCircle
 10
813.2972042044876
 20
-500.2027957955117
 30
0.0
 40
2.75
  0
CIRCLE
  5
1012BE4
330
1012B83
100
AcDbEntity
  8
10++
100
AcDbCircle
 10
948.4999999999981
 20
-485.000000000002
 30
0.0
 40
16.0
  0
CIRCLE
  5
1012BE5
330
1012B83
100
AcDbEntity
  8
5.5
100
AcDbCircle
 10
933.2972042044866
 20
-469.7972042044905
 30
0.0
 40
2.75
  0
CIRCLE
  5
1012BE6
330
1012B83
100
AcDbEntity
  8
5.5
100
AcDbCircle
 10
963.7027957955087
 20
-500.2027957955126
 30
0.0
 40
2.75
  0
CIRCLE
  5
1012BE7
330
1012B83
100
AcDbEntity
  8
5.5
100
AcDbCircle
 10
933.2972042044875
 20
-500.2027957955126
 30
0.0
 40
2.75
  0
CIRCLE
  5
1012BE8
330
1012B83
100
AcDbEntity
  8
5.5
100
AcDbCircle
 10
963.7027957955087
 20
-469.7972042044905
 30
0.0
 40
2.75
  0
CIRCLE
  5
1012BE9
330
1012B83
100
AcDbEntity
  8
6.0
100
AcDbCircle
 10
982.4999999999986
 20
-458.0000000000002
 30
0.0
 40
3.0
  0
CIRCLE
  5
1012BEA
330
1012B83
100
AcDbEntity
  8
6.0
100
AcDbCircle
 10
982.4999999999986
 20
-504.0000000000002
 30
0.0
 40
3.0
  0
CIRCLE
  5
1012BEB
330
1012B83
100
AcDbEntity
  8
6.0
100
AcDbCircle
 10
794.4999999999981
 20
-458.0000000000002
 30
0.0
 40
3.0
  0
CIRCLE
  5
1012BEC
330
1012B83
100
AcDbEntity
  8
6.0
100
AcDbCircle
 10
794.4999999999981
 20
-504.0000000000002
 30
0.0
 40
3.0
  0
LWPOLYLINE
  5
1012BED
330
1012B83
100
AcDbEntity
  8
0
100
AcDbPolyline
 90
        6
 70
     1
 43
0.0
 10
114.9999999999995
 20
-90.0000000000009
 10
0.0
 20
-90.0000000000009
 10
-0.0000000000004547
 20
-240.0000000000009
 10
114.9999999999995
 20
-240.0000000000009
 42
0.4142135623730951
 10
124.9999999999995
 20
-230.0000000000009
 10
124.9999999999995
 20
-100.0000000000009
 42
0.4142135623730951
  0
CIRCLE
  5
1012BEE
330
1012B83
100
AcDbEntity
  8
5.0
100
AcDbCircle
 10
89.99999999999955
 20
-183.2500000000009
 30
0.0
 40
2.5
  0
CIRCLE
  5
1012BEF
330
1012B83
100
AcDbEntity
  8
5.0
100
AcDbCircle
 10
89.99999999999955
 20
-146.7500000000009
 30
0.0
 40
2.5
  0
CIRCLE
  5
1012BF0
330
1012B83
100
AcDbEntity
  8
10++
100
AcDbCircle
 10
89.99999999999955
 20
-165.0000000000009
 30
0.0
 40
12.9
  0
CIRCLE
  5
1012BF1
330
1012B83
100
AcDbEntity
  8
5.0
100
AcDbCircle
 10
74.4115427318793
 20
-231.5000000000018
 30
0.0
 40
2.5
  0
CIRCLE
  5
1012BF2
330
1012B83
100
AcDbEntity
  8
5.0
100
AcDbCircle
 10
105.5884572681193
 20
-213.5000000000018
 30
0.0
 40
2.5
  0
CIRCLE
  5
1012BF3
330
1012B83
100
AcDbEntity
  8
5.0
100
AcDbCircle
 10
74.4115427318793
 20
-98.50000000000001
 30
0.0
 40
2.5
  0
CIRCLE
  5
1012BF4
330
1012B83
100
AcDbEntity
  8
5.0
100
AcDbCircle
 10
105.5884572681193
 20
-116.5
 30
0.0
 40
2.5
  0
CIRCLE
  5
1012BF5
330
1012B83
100
AcDbEntity
  8
10++
100
AcDbCircle
 10
89.99999999999955
 20
-107.5
 30
0.0
 40
6.0
  0
CIRCLE
  5
1012BF6
330
1012B83
100
AcDbEntity
  8
10++
100
AcDbCircle
 10
89.99999999999955
 20
-222.5000000000018
 30
0.0
 40
6.0
  0
CIRCLE
  5
1012BF7
330
1012B83
100
AcDbEntity
  8
6.0
100
AcDbCircle
 10
148.4999999999995
 20
-186.0000000000013
 30
0.0
 40
3.0
  0
CIRCLE
  5
1012BF8
330
1012B83
100
AcDbEntity
  8
6.0
100
AcDbCircle
 10
148.4999999999995
 20
-232.0000000000014
 30
0.0
 40
3.0
  0
CIRCLE
  5
1012BF9
330
1012B83
100
AcDbEntity
  8
5.0
100
AcDbCircle
 10
258.5000000000004
 20
-134.4115427318816
 30
0.0
 40
2.5
  0
CIRCLE
  5
1012BFA
330
1012B83
100
AcDbEntity
  8
6.0
100
AcDbCircle
 10
271.4999999999995
 20
-232.0000000000014
 30
0.0
 40
3.0
  0
CIRCLE
  5
1012BFB
330
1012B83
100
AcDbEntity
  8
6.0
100
AcDbCircle
 10
271.4999999999995
 20
-186.0000000000013
 30
0.0
 40
3.0
  0
CIRCLE
  5
1012BFC
330
1012B83
100
AcDbEntity
  8
5.0
100
AcDbCircle
 10
228.2499999999995
 20
-150.0000000000014
 30
0.0
 40
2.5
  0
CIRCLE
  5
1012BFD
330
1012B83
100
AcDbEntity
  8
5.0
100
AcDbCircle
 10
191.7499999999995
 20
-150.0000000000014
 30
0.0
 40
2.5
  0
CIRCLE
  5
1012BFE
330
1012B83
100
AcDbEntity
  8
10++
100
AcDbCircle
 10
209.9999999999996
 20
-150.0000000000014
 30
0.0
 40
12.9
  0
CIRCLE
  5
1012BFF
330
1012B83
100
AcDbEntity
  8
5.0
100
AcDbCircle
 10
276.5000000000005
 20
-165.5884572681216
 30
0.0
 40
2.5
  0
CIRCLE
  5
1012C00
330
1012B83
100
AcDbEntity
  8
5.0
100
AcDbCircle
 10
161.4999999999986
 20
-134.4115427318816
 30
0.0
 40
2.5
  0
CIRCLE
  5
1012C01
330
1012B83
100
AcDbEntity
  8
5.0
100
AcDbCircle
 10
143.4999999999986
 20
-165.5884572681216
 30
0.0
 40
2.5
  0
CIRCLE
  5
1012C02
330
1012B83
100
AcDbEntity
  8
10++
100
AcDbCircle
 10
152.4999999999986
 20
-150.0000000000014
 30
0.0
 40
6.0
  0
CIRCLE
  5
1012C03
330
1012B83
100
AcDbEntity
  8
10++
100
AcDbCircle
 10
267.5000000000005
 20
-150.0000000000014
 30
0.0
 40
6.0
  0
CIRCLE
  5
1012C04
330
1012B83
100
AcDbEntity
  8
6.0
100
AcDbCircle
 10
53.99999999999955
 20
-103.5000000000009
 30
0.0
 40
3.0
  0
CIRCLE
  5
1012C05
330
1012B83
100
AcDbEntity
  8
6.0
100
AcDbCircle
 10
7.999999999999545
 20
-103.5000000000009
 30
0.0
 40
3.0
  0
CIRCLE
  5
1012C06
330
1012B83
100
AcDbEntity
  8
6.0
100
AcDbCircle
 10
7.999999999999545
 20
-226.5000000000009
 30
0.0
 40
3.0
  0
CIRCLE
  5
1012C07
330
1012B83
100
AcDbEntity
  8
6.0
100
AcDbCircle
 10
53.99999999999955
 20
-226.5000000000009
 30
0.0
 40
3.0
  0
LWPOLYLINE
  5
1012C08
330
1012B83
100
AcDbEntity
  8
0
100
AcDbPolyline
 90
        6
 70
     1
 43
0.0
 10
134.9999999999995
 20
-125.0000000000013
 10
134.9999999999995
 20
-240.0000000000009
 10
284.9999999999996
 20
-240.0000000000014
 10
284.9999999999996
 20
-125.0000000000013
 42
0.4142135623730951
 10
274.9999999999996
 20
-115.0000000000013
 10
144.9999999999995
 20
-115.0000000000013
 42
0.4142135623730951
  0
CIRCLE
  5
1012C09
330
1012B83
100
AcDbEntity
  8
0
100
AcDbCircle
 10
186.4299999999998
 20
-126.4300000000012
 30
0.0
 40
2.5
  0
CIRCLE
  5
1012C0A
330
1012B83
100
AcDbEntity
  8
0
100
AcDbCircle
 10
233.5699999999993
 20
-173.5700000000015
 30
0.0
 40
2.5
  0
CIRCLE
  5
1012C0B
330
1012B83
100
AcDbEntity
  8
0
100
AcDbCircle
 10
186.4299999999998
 20
-173.570000000001
 30
0.0
 40
2.5
  0
CIRCLE
  5
1012C0C
330
1012B83
100
AcDbEntity
  8
0
100
AcDbCircle
 10
233.5699999999993
 20
-126.4300000000012
 30
0.0
 40
2.5
  0
CIRCLE
  5
1012C0D
330
1012B83
100
AcDbEntity
  8
0
100
AcDbCircle
 10
113.5699999999997
 20
-141.4300000000012
 30
0.0
 40
2.5
  0
CIRCLE
  5
1012C0E
330
1012B83
100
AcDbEntity
  8
0
100
AcDbCircle
 10
66.42999999999938
 20
-188.5700000000006
 30
0.0
 40
2.5
  0
CIRCLE
  5
1012C0F
330
1012B83
100
AcDbEntity
  8
0
100
AcDbCircle
 10
66.42999999999983
 20
-141.4300000000012
 30
0.0
 40
2.5
  0
CIRCLE
  5
1012C10
330
1012B83
100
AcDbEntity
  8
0
100
AcDbCircle
 10
113.5699999999997
 20
-188.5700000000006
 30
0.0
 40
2.5
  0
LWPOLYLINE
  5
1012C11
330
1012B83
100
AcDbEntity
  8
0
100
AcDbPolyline
 90
       12
 70
     1
 43
0.0
 10
268.2573593128809
 20
-83.24264068712
 42
-0.1989123673796635
 10
264.0147186257614
 20
-85.00000000000069
 10
198.9852813742386
 20
-85.0000000000009
 42
-0.1989123673796645
 10
194.7426406871191
 20
-83.24264068712
 10
193.2573593128809
 20
-81.75735931288135
 42
0.1989123673796721
 10
189.0147186257613
 20
-80.00000000000046
 10
0.0
 20
-80.0000000000009
 10
0.0
 20
0.0
 10
463.0
 20
0.0
 10
463.0
 20
-80.0
 10
273.9852813742386
 20
-80.00000000000046
 42
0.1989123673796711
 10
269.7426406871191
 20
-81.75735931288135
  0
CIRCLE
  5
1012C12
330
1012B83
100
AcDbEntity
  8
10.0
100
AcDbCircle
 10
428.0000000000009
 20
-65.0
 30
0.0
 40
5.0
  0
CIRCLE
  5
1012C13
330
1012B83
100
AcDbEntity
  8
10++
100
AcDbCircle
 10
131.5
 20
-50.0
 30
0.0
 40
10.0
  0
CIRCLE
  5
1012C14
330
1012B83
100
AcDbEntity
  8
10.0
100
AcDbCircle
 10
35.0
 20
-15.0
 30
0.0
 40
5.0
  0
CIRCLE
  5
1012C15
330
1012B83
100
AcDbEntity
  8
10.0
100
AcDbCircle
 10
35.0
 20
-65.0
 30
0.0
 40
5.0
  0
CIRCLE
  5
1012C16
330
1012B83
100
AcDbEntity
  8
10.0
100
AcDbCircle
 10
17.0
 20
-40.0
 30
0.0
 40
5.0
  0
CIRCLE
  5
1012C17
330
1012B83
100
AcDbEntity
  8
10.0
100
AcDbCircle
 10
428.0000000000009
 20
-15.0
 30
0.0
 40
5.0
  0
CIRCLE
  5
1012C18
330
1012B83
100
AcDbEntity
  8
5.0
100
AcDbCircle
 10
249.75
 20
-50.0
 30
0.0
 40
2.5
  0
CIRCLE
  5
1012C19
330
1012B83
100
AcDbEntity
  8
10.0
100
AcDbCircle
 10
446.0000000000008
 20
-40.0
 30
0.0
 40
5.0
  0
CIRCLE
  5
1012C1A
330
1012B83
100
AcDbEntity
  8
5.0
100
AcDbCircle
 10
213.25
 20
-50.0
 30
0.0
 40
2.5
  0
CIRCLE
  5
1012C1B
330
1012B83
100
AcDbEntity
  8
10++
100
AcDbCircle
 10
231.5
 20
-50.0
 30
0.0
 40
12.9
  0
CIRCLE
  5
1012C1C
330
1012B83
100
AcDbEntity
  8
10++
100
AcDbCircle
 10
331.5
 20
-50.0
 30
0.0
 40
10.0
  0
CIRCLE
  5
1012C1D
330
1012B83
100
AcDbEntity
  8
6.5
100
AcDbCircle
 10
107.5
 20
-50.0
 30
0.0
 40
3.25
  0
CIRCLE
  5
1012C1E
330
1012B83
100
AcDbEntity
  8
6.5
100
AcDbCircle
 10
155.5
 20
-50.0
 30
0.0
 40
3.25
  0
CIRCLE
  5
1012C1F
330
1012B83
100
AcDbEntity
  8
6.5
100
AcDbCircle
 10
307.5
 20
-50.0
 30
0.0
 40
3.25
  0
CIRCLE
  5
1012C20
330
1012B83
100
AcDbEntity
  8
5.0
100
AcDbCircle
 10
207.9300000000003
 20
-26.43000000000029
 30
0.0
 40
2.5
  0
CIRCLE
  5
1012C21
330
1012B83
100
AcDbEntity
  8
6.5
100
AcDbCircle
 10
355.5000000000009
 20
-50.0
 30
0.0
 40
3.25
  0
CIRCLE
  5
1012C22
330
1012B83
100
AcDbEntity
  8
5.0
100
AcDbCircle
 10
207.9300000000003
 20
-73.57000000000062
 30
0.0
 40
2.5
  0
CIRCLE
  5
1012C23
330
1012B83
100
AcDbEntity
  8
5.0
100
AcDbCircle
 10
255.0699999999997
 20
-73.57000000000062
 30
0.0
 40
2.5
  0
CIRCLE
  5
1012C24
330
1012B83
100
AcDbEntity
  8
5.0
100
AcDbCircle
 10
255.0699999999997
 20
-26.43000000000029
 30
0.0
 40
2.5
  0
LWPOLYLINE
  5
1012C25
330
1012B83
100
AcDbEntity
  8
0
100
AcDbPolyline
 90
       12
 70
     1
 43
0.0
 10
741.2573593128809
 20
3.242640687118864
 42
0.1989123673796635
 10
737.0147186257614
 20
4.999999999999772
 10
671.9852813742386
 20
4.999999999999772
 42
0.1989123673796645
 10
667.7426406871191
 20
3.242640687119092
 10
666.2573593128809
 20
1.757359312880453
 42
-0.1989123673796721
 10
662.0147186257614
 20
-0.0000000000004547
 10
473.0
 20
0.0
 10
473.0
 20
-80.0000000000009
 10
936.0
 20
-80.0000000000009
 10
936.0
 20
-0.0000000000009095
 10
746.9852813742386
 20
-0.0000000000004547
 42
-0.1989123673796711
 10
742.7426406871191
 20
1.757359312880453
  0
CIRCLE
  5
1012C26
330
1012B83
100
AcDbEntity
  8
10.0
100
AcDbCircle
 10
901.0000000000008
 20
-15.00000000000091
 30
0.0
 40
5.0
  0
CIRCLE
  5
1012C27
330
1012B83
100
AcDbEntity
  8
10++
100
AcDbCircle
 10
604.4999999999999
 20
-30.00000000000091
 30
0.0
 40
10.0
  0
CIRCLE
  5
1012C28
330
1012B83
100
AcDbEntity
  8
10.0
100
AcDbCircle
 10
508.0
 20
-65.00000000000091
 30
0.0
 40
5.0
  0
CIRCLE
  5
1012C29
330
1012B83
100
AcDbEntity
  8
10.0
100
AcDbCircle
 10
508.0
 20
-15.00000000000091
 30
0.0
 40
5.0
  0
CIRCLE
  5
1012C2A
330
1012B83
100
AcDbEntity
  8
10.0
100
AcDbCircle
 10
490.0
 20
-40.00000000000091
 30
0.0
 40
5.0
  0
CIRCLE
  5
1012C2B
330
1012B83
100
AcDbEntity
  8
10.0
100
AcDbCircle
 10
901.0000000000008
 20
-65.00000000000091
 30
0.0
 40
5.0
  0
CIRCLE
  5
1012C2C
330
1012B83
100
AcDbEntity
  8
5.0
100
AcDbCircle
 10
722.75
 20
-30.00000000000091
 30
0.0
 40
2.5
  0
CIRCLE
  5
1012C2D
330
1012B83
100
AcDbEntity
  8
10.0
100
AcDbCircle
 10
919.000000000001
 20
-40.00000000000091
 30
0.0
 40
5.0
  0
CIRCLE
  5
1012C2E
330
1012B83
100
AcDbEntity
  8
5.0
100
AcDbCircle
 10
686.2499999999999
 20
-30.00000000000091
 30
0.0
 40
2.5
  0
CIRCLE
  5
1012C2F
330
1012B83
100
AcDbEntity
  8
10++
100
AcDbCircle
 10
704.4999999999999
 20
-30.00000000000091
 30
0.0
 40
12.9
  0
CIRCLE
  5
1012C30
330
1012B83
100
AcDbEntity
  8
10++
100
AcDbCircle
 10
804.4999999999999
 20
-30.00000000000091
 30
0.0
 40
10.0
  0
CIRCLE
  5
1012C31
330
1012B83
100
AcDbEntity
  8
6.5
100
AcDbCircle
 10
580.4999999999999
 20
-30.00000000000091
 30
0.0
 40
3.25
  0
CIRCLE
  5
1012C32
330
1012B83
100
AcDbEntity
  8
6.5
100
AcDbCircle
 10
628.5
 20
-30.00000000000091
 30
0.0
 40
3.25
  0
CIRCLE
  5
1012C33
330
1012B83
100
AcDbEntity
  8
6.5
100
AcDbCircle
 10
780.5
 20
-30.00000000000091
 30
0.0
 40
3.25
  0
CIRCLE
  5
1012C34
330
1012B83
100
AcDbEntity
  8
5.0
100
AcDbCircle
 10
680.9300000000003
 20
-53.57000000000062
 30
0.0
 40
2.5
  0
CIRCLE
  5
1012C35
330
1012B83
100
AcDbEntity
  8
6.5
100
AcDbCircle
 10
828.5000000000009
 20
-30.00000000000091
 30
0.0
 40
3.25
  0
CIRCLE
  5
1012C36
330
1012B83
100
AcDbEntity
  8
5.0
100
AcDbCircle
 10
680.9300000000003
 20
-6.430000000000291
 30
0.0
 40
2.5
  0
CIRCLE
  5
1012C37
330
1012B83
100
AcDbEntity
  8
5.0
100
AcDbCircle
 10
728.0699999999996
 20
-6.430000000000291
 30
0.0
 40
2.5
  0
CIRCLE
  5
1012C38
330
1012B83
100
AcDbEntity
  8
5.0
100
AcDbCircle
 10
728.0699999999996
 20
-53.57000000000062
 30
0.0
 40
2.5
  0
CIRCLE
  5
1012C39
330
1012B83
100
AcDbEntity
  8
6.0
100
AcDbCircle
 10
212.4999999999996
 20
-463.000000000001
 30
0.0
 40
3.0
  0
CIRCLE
  5
1012C3A
330
1012B83
100
AcDbEntity
  8
6.0
100
AcDbCircle
 10
107.4999999999995
 20
-463.000000000001
 30
0.0
 40
3.0
  0
CIRCLE
  5
1012C3B
330
1012B83
100
AcDbEntity
  8
6.0
100
AcDbCircle
 10
159.9999999999995
 20
-463.000000000001
 30
0.0
 40
3.0
  0
CIRCLE
  5
1012C3C
330
1012B83
100
AcDbEntity
  8
6.0
100
AcDbCircle
 10
212.4999999999996
 20
-357.000000000001
 30
0.0
 40
3.0
  0
CIRCLE
  5
1012C3D
330
1012B83
100
AcDbEntity
  8
6.0
100
AcDbCircle
 10
107.4999999999995
 20
-357.000000000001
 30
0.0
 40
3.0
  0
CIRCLE
  5
1012C3E
330
1012B83
100
AcDbEntity
  8
6.0
100
AcDbCircle
 10
159.9999999999995
 20
-357.000000000001
 30
0.0
 40
3.0
  0
CIRCLE
  5
1012C3F
330
1012B83
100
AcDbEntity
  8
8.0
100
AcDbCircle
 10
200.0000000000004
 20
-494.9999999999992
 30
0.0
 40
4.0
  0
CIRCLE
  5
1012C40
330
1012B83
100
AcDbEntity
  8
8.0
100
AcDbCircle
 10
120.0000000000004
 20
-494.9999999999992
 30
0.0
 40
4.0
  0
CIRCLE
  5
1012C41
330
1012B83
100
AcDbEntity
  8
8.0
100
AcDbCircle
 10
109.9999999999995
 20
-516.0000000000009
 30
0.0
 40
4.0
  0
CIRCLE
  5
1012C42
330
1012B83
100
AcDbEntity
  8
8.0
100
AcDbCircle
 10
210.0000000000004
 20
-516.0000000000009
 30
0.0
 40
4.0
  0
CIRCLE
  5
1012C43
330
1012B83
100
AcDbEntity
  8
5.5
100
AcDbCircle
 10
843.7027957955088
 20
-549.7972042044887
 30
0.0
 40
2.75
  0
LWPOLYLINE
  5
1012C44
330
1012B83
100
AcDbEntity
  8
0
100
AcDbPolyline
 90
        4
 70
     1
 43
0.0
 10
989.9999999999982
 20
-600.0000000000002
 10
786.9999999999982
 20
-599.9999999999992
 10
786.9999999999982
 20
-530.0000000000011
 10
989.9999999999986
 20
-530.0000000000002
  0
CIRCLE
  5
1012C45
330
1012B83
100
AcDbEntity
  8
3.5
100
AcDbCircle
 10
880.4999999999981
 20
-565.0000000000002
 30
0.0
 40
1.75
  0
CIRCLE
  5
1012C46
330
1012B83
100
AcDbEntity
  8
3.5
100
AcDbCircle
 10
896.4999999999982
 20
-565.0000000000002
 30
0.0
 40
1.75
  0
CIRCLE
  5
1012C47
330
1012B83
100
AcDbEntity
  8
3.5
100
AcDbCircle
 10
888.4999999999982
 20
-573.0000000000002
 30
0.0
 40
1.75
  0
CIRCLE
  5
1012C48
330
1012B83
100
AcDbEntity
  8
3.5
100
AcDbCircle
 10
888.4999999999982
 20
-557.0000000000002
 30
0.0
 40
1.75
  0
CIRCLE
  5
1012C49
330
1012B83
100
AcDbEntity
  8
10++
100
AcDbCircle
 10
888.4999999999982
 20
-565.0000000000002
 30
0.0
 40
5.099999999999999
  0
CIRCLE
  5
1012C4A
330
1012B83
100
AcDbEntity
  8
8.0
100
AcDbCircle
 10
888.4999999999982
 20
-542.0000000000002
 30
0.0
 40
4.0
  0
CIRCLE
  5
1012C4B
330
1012B83
100
AcDbEntity
  8
8.0
100
AcDbCircle
 10
888.4999999999982
 20
-588.0000000000002
 30
0.0
 40
4.0
  0
CIRCLE
  5
1012C4C
330
1012B83
100
AcDbEntity
  8
10++
100
AcDbCircle
 10
828.4999999999982
 20
-565.0000000000002
 30
0.0
 40
16.0
  0
CIRCLE
  5
1012C4D
330
1012B83
100
AcDbEntity
  8
5.5
100
AcDbCircle
 10
813.2972042044876
 20
-549.7972042044887
 30
0.0
 40
2.75
  0
CIRCLE
  5
1012C4E
330
1012B83
100
AcDbEntity
  8
5.5
100
AcDbCircle
 10
843.7027957955088
 20
-580.2027957955108
 30
0.0
 40
2.75
  0
CIRCLE
  5
1012C4F
330
1012B83
100
AcDbEntity
  8
5.5
100
AcDbCircle
 10
813.2972042044876
 20
-580.2027957955108
 30
0.0
 40
2.75
  0
CIRCLE
  5
1012C50
330
1012B83
100
AcDbEntity
  8
10++
100
AcDbCircle
 10
948.4999999999981
 20
-565.0000000000011
 30
0.0
 40
16.0
  0
CIRCLE
  5
1012C51
330
1012B83
100
AcDbEntity
  8
5.5
100
AcDbCircle
 10
933.2972042044866
 20
-549.7972042044896
 30
0.0
 40
2.75
  0
CIRCLE
  5
1012C52
330
1012B83
100
AcDbEntity
  8
5.5
100
AcDbCircle
 10
963.7027957955087
 20
-580.2027957955117
 30
0.0
 40
2.75
  0
CIRCLE
  5
1012C53
330
1012B83
100
AcDbEntity
  8
5.5
100
AcDbCircle
 10
933.2972042044875
 20
-580.2027957955117
 30
0.0
 40
2.75
  0
CIRCLE
  5
1012C54
330
1012B83
100
AcDbEntity
  8
5.5
100
AcDbCircle
 10
963.7027957955087
 20
-549.7972042044896
 30
0.0
 40
2.75
  0
CIRCLE
  5
1012C55
330
1012B83
100
AcDbEntity
  8
6.0
100
AcDbCircle
 10
982.4999999999986
 20
-537.9999999999993
 30
0.0
 40
3.0
  0
CIRCLE
  5
1012C56
330
1012B83
100
AcDbEntity
  8
6.0
100
AcDbCircle
 10
982.4999999999986
 20
-583.9999999999993
 30
0.0
 40
3.0
  0
CIRCLE
  5
1012C57
330
1012B83
100
AcDbEntity
  8
6.0
100
AcDbCircle
 10
794.4999999999981
 20
-537.9999999999993
 30
0.0
 40
3.0
  0
CIRCLE
  5
1012C58
330
1012B83
100
AcDbEntity
  8
6.0
100
AcDbCircle
 10
794.4999999999981
 20
-583.9999999999993
 30
0.0
 40
3.0
  0
CIRCLE
  5
1012C59
330
1012B83
100
AcDbEntity
  8
3.5
100
AcDbCircle
 10
664.4999999999981
 20
-524.500000000002
 30
0.0
 40
1.75
  0
CIRCLE
  5
1012C5A
330
1012B83
100
AcDbEntity
  8
10++
100
AcDbCircle
 10
664.4999999999981
 20
-590.0000000000029
 30
0.0
 40
10.5
  0
CIRCLE
  5
1012C5B
330
1012B83
100
AcDbEntity
  8
4.5
100
AcDbCircle
 10
675.8137084989821
 20
-486.3137084989859
 30
0.0
 40
2.25
  0
LWPOLYLINE
  5
1012C5C
330
1012B83
100
AcDbEntity
  8
0
100
AcDbPolyline
 90
        8
 70
     1
 43
0.0
 10
652.9999999999981
 20
-615.0000000000029
 10
700.9999999999982
 20
-615.0000000000029
 42
0.4142135623730951
 10
706.9999999999981
 20
-609.000000000003
 10
706.9999999999981
 20
-456.000000000002
 42
0.4142135623730951
 10
700.9999999999982
 20
-450.000000000002
 10
652.9999999999981
 20
-450.000000000002
 42
0.4142135623730951
 10
646.9999999999981
 20
-456.000000000002
 10
646.9999999999981
 20
-609.000000000003
 42
0.4142135623730951
  0
CIRCLE
  5
1012C5D
330
1012B83
100
AcDbEntity
  8
3.5
100
AcDbCircle
 10
664.4999999999981
 20
-540.500000000002
 30
0.0
 40
1.75
  0
CIRCLE
  5
1012C5E
330
1012B83
100
AcDbEntity
  8
10++
100
AcDbCircle
 10
664.4999999999981
 20
-475.000000000002
 30
0.0
 40
10.5
  0
CIRCLE
  5
1012C5F
330
1012B83
100
AcDbEntity
  8
3.5
100
AcDbCircle
 10
672.4999999999981
 20
-532.500000000002
 30
0.0
 40
1.75
  0
CIRCLE
  5
1012C60
330
1012B83
100
AcDbEntity
  8
3.5
100
AcDbCircle
 10
656.4999999999981
 20
-532.500000000002
 30
0.0
 40
1.75
  0
CIRCLE
  5
1012C61
330
1012B83
100
AcDbEntity
  8
10++
100
AcDbCircle
 10
664.4999999999981
 20
-532.500000000002
 30
0.0
 40
5.099999999999999
  0
CIRCLE
  5
1012C62
330
1012B83
100
AcDbEntity
  8
4.5
100
AcDbCircle
 10
653.1862915010133
 20
-463.6862915010172
 30
0.0
 40
2.25
  0
CIRCLE
  5
1012C63
330
1012B83
100
AcDbEntity
  8
4.5
100
AcDbCircle
 10
653.1862915010133
 20
-601.3137084989878
 30
0.0
 40
2.25
  0
CIRCLE
  5
1012C64
330
1012B83
100
AcDbEntity
  8
4.5
100
AcDbCircle
 10
675.813708498983
 20
-463.6862915010172
 30
0.0
 40
2.25
  0
CIRCLE
  5
1012C65
330
1012B83
100
AcDbEntity
  8
4.5
100
AcDbCircle
 10
653.1862915010133
 20
-578.6862915010181
 30
0.0
 40
2.25
  0
CIRCLE
  5
1012C66
330
1012B83
100
AcDbEntity
  8
4.5
100
AcDbCircle
 10
653.1862915010133
 20
-486.3137084989869
 30
0.0
 40
2.25
  0
CIRCLE
  5
1012C67
330
1012B83
100
AcDbEntity
  8
4.5
100
AcDbCircle
 10
675.813708498983
 20
-578.6862915010181
 30
0.0
 40
2.25
  0
CIRCLE
  5
1012C68
330
1012B83
100
AcDbEntity
  8
4.5
100
AcDbCircle
 10
675.8137084989821
 20
-601.3137084989868
 30
0.0
 40
2.25
  0
CIRCLE
  5
1012C69
330
1012B83
100
AcDbEntity
  8
8.0
100
AcDbCircle
 10
692.9999999999981
 20
-606.0000000000029
 30
0.0
 40
4.0
  0
CIRCLE
  5
1012C6A
330
1012B83
100
AcDbEntity
  8
8.0
100
AcDbCircle
 10
692.9999999999981
 20
-459.000000000002
 30
0.0
 40
4.0
  0
CIRCLE
  5
1012C6B
330
1012B83
100
AcDbEntity
  8
8.0
100
AcDbCircle
 10
656.9999999999972
 20
-500.000000000002
 30
0.0
 40
4.0
  0
CIRCLE
  5
1012C6C
330
1012B83
100
AcDbEntity
  8
8.0
100
AcDbCircle
 10
656.9999999999972
 20
-565.0000000000029
 30
0.0
 40
4.0
  0
CIRCLE
  5
1012C6D
330
1012B83
100
AcDbEntity
  8
6.0
100
AcDbCircle
 10
699.4999999999982
 20
-472.500000000002
 30
0.0
 40
3.0
  0
CIRCLE
  5
1012C6E
330
1012B83
100
AcDbEntity
  8
6.0
100
AcDbCircle
 10
699.4999999999982
 20
-552.500000000002
 30
0.0
 40
3.0
  0
CIRCLE
  5
1012C6F
330
1012B83
100
AcDbEntity
  8
6.0
100
AcDbCircle
 10
699.4999999999982
 20
-592.500000000003
 30
0.0
 40
3.0
  0
CIRCLE
  5
1012C70
330
1012B83
100
AcDbEntity
  8
6.0
100
AcDbCircle
 10
699.4999999999982
 20
-512.500000000002
 30
0.0
 40
3.0
  0
CIRCLE
  5
1012C71
330
1012B83
100
AcDbEntity
  8
3.5
100
AcDbCircle
 10
759.499999999999
 20
-540.5000000000029
 30
0.0
 40
1.75
  0
CIRCLE
  5
1012C72
330
1012B83
100
AcDbEntity
  8
3.5
100
AcDbCircle
 10
759.499999999999
 20
-524.5000000000029
 30
0.0
 40
1.75
  0
CIRCLE
  5
1012C73
330
1012B83
100
AcDbEntity
  8
3.5
100
AcDbCircle
 10
767.499999999999
 20
-532.5000000000029
 30
0.0
 40
1.75
  0
CIRCLE
  5
1012C74
330
1012B83
100
AcDbEntity
  8
10++
100
AcDbCircle
 10
759.4999999999981
 20
-475.000000000002
 30
0.0
 40
10.5
  0
CIRCLE
  5
1012C75
330
1012B83
100
AcDbEntity
  8
3.5
100
AcDbCircle
 10
751.499999999999
 20
-532.5000000000029
 30
0.0
 40
1.75
  0
CIRCLE
  5
1012C76
330
1012B83
100
AcDbEntity
  8
10++
100
AcDbCircle
 10
759.499999999999
 20
-532.5000000000029
 30
0.0
 40
5.099999999999999
  0
CIRCLE
  5
1012C77
330
1012B83
100
AcDbEntity
  8
10++
100
AcDbCircle
 10
759.4999999999981
 20
-590.0000000000029
 30
0.0
 40
10.5
  0
CIRCLE
  5
1012C78
330
1012B83
100
AcDbEntity
  8
4.5
100
AcDbCircle
 10
770.813708498983
 20
-578.6862915010181
 30
0.0
 40
2.25
  0
CIRCLE
  5
1012C79
330
1012B83
100
AcDbEntity
  8
4.5
100
AcDbCircle
 10
770.813708498983
 20
-601.3137084989878
 30
0.0
 40
2.25
  0
CIRCLE
  5
1012C7A
330
1012B83
100
AcDbEntity
  8
4.5
100
AcDbCircle
 10
748.1862915010133
 20
-601.3137084989878
 30
0.0
 40
2.25
  0
CIRCLE
  5
1012C7B
330
1012B83
100
AcDbEntity
  8
4.5
100
AcDbCircle
 10
748.1862915010142
 20
-578.686291501019
 30
0.0
 40
2.25
  0
CIRCLE
  5
1012C7C
330
1012B83
100
AcDbEntity
  8
4.5
100
AcDbCircle
 10
770.813708498983
 20
-486.3137084989869
 30
0.0
 40
2.25
  0
CIRCLE
  5
1012C7D
330
1012B83
100
AcDbEntity
  8
4.5
100
AcDbCircle
 10
748.1862915010133
 20
-486.3137084989869
 30
0.0
 40
2.25
  0
CIRCLE
  5
1012C7E
330
1012B83
100
AcDbEntity
  8
4.5
100
AcDbCircle
 10
748.1862915010142
 20
-463.6862915010181
 30
0.0
 40
2.25
  0
CIRCLE
  5
1012C7F
330
1012B83
100
AcDbEntity
  8
4.5
100
AcDbCircle
 10
770.813708498983
 20
-463.6862915010172
 30
0.0
 40
2.25
  0
CIRCLE
  5
1012C80
330
1012B83
100
AcDbEntity
  8
8.0
100
AcDbCircle
 10
730.9999999999981
 20
-606.0000000000029
 30
0.0
 40
4.0
  0
CIRCLE
  5
1012C81
330
1012B83
100
AcDbEntity
  8
8.0
100
AcDbCircle
 10
730.9999999999981
 20
-459.000000000002
 30
0.0
 40
4.0
  0
CIRCLE
  5
1012C82
330
1012B83
100
AcDbEntity
  8
8.0
100
AcDbCircle
 10
766.9999999999991
 20
-565.0000000000029
 30
0.0
 40
4.0
  0
CIRCLE
  5
1012C83
330
1012B83
100
AcDbEntity
  8
8.0
100
AcDbCircle
 10
766.9999999999991
 20
-500.000000000002
 30
0.0
 40
4.0
  0
CIRCLE
  5
1012C84
330
1012B83
100
AcDbEntity
  8
6.0
100
AcDbCircle
 10
724.4999999999982
 20
-592.500000000003
 30
0.0
 40
3.0
  0
CIRCLE
  5
1012C85
330
1012B83
100
AcDbEntity
  8
6.0
100
AcDbCircle
 10
724.4999999999982
 20
-512.5000000000029
 30
0.0
 40
3.0
  0
CIRCLE
  5
1012C86
330
1012B83
100
AcDbEntity
  8
6.0
100
AcDbCircle
 10
724.4999999999982
 20
-472.500000000002
 30
0.0
 40
3.0
  0
CIRCLE
  5
1012C87
330
1012B83
100
AcDbEntity
  8
6.0
100
AcDbCircle
 10
724.4999999999982
 20
-552.5000000000029
 30
0.0
 40
3.0
  0
LWPOLYLINE
  5
1012C88
330
1012B83
100
AcDbEntity
  8
0
100
AcDbPolyline
 90
        8
 70
     1
 43
0.0
 10
770.9999999999982
 20
-450.000000000002
 10
722.9999999999981
 20
-450.000000000002
 42
0.4142135623730951
 10
716.9999999999982
 20
-456.000000000002
 10
716.9999999999982
 20
-609.000000000003
 42
0.4142135623730951
 10
722.9999999999981
 20
-615.0000000000029
 10
770.9999999999982
 20
-615.0000000000029
 42
0.4142135623730951
 10
776.9999999999981
 20
-609.000000000003
 10
776.9999999999981
 20
-456.000000000002
 42
0.4142135623730951
  0
LWPOLYLINE
  5
1012C89
330
1012B83
100
AcDbEntity
  8
0
100
AcDbPolyline
 90
        8
 70
     1
 43
0.0
 10
90.99999999999864
 20
-595.0000000000028
 10
158.9999999999986
 20
-595.0000000000009
 42
0.4142135623730951
 10
164.9999999999986
 20
-589.000000000001
 10
164.9999999999986
 20
-571.000000000001
 42
0.4142135623730951
 10
158.9999999999986
 20
-565.000000000001
 10
90.99999999999772
 20
-565.000000000001
 42
0.4142135623730838
 10
84.99999999999863
 20
-571.0000000000019
 10
84.99999999999863
 20
-589.000000000001
 42
0.4142135623730951
  0
CIRCLE
  5
1012C8A
330
1012B83
100
AcDbEntity
  8
8.5
100
AcDbCircle
 10
114.9999999999986
 20
-580.000000000001
 30
0.0
 40
4.25
  0
LWPOLYLINE
  5
1012C8B
330
1012B83
100
AcDbEntity
  8
0
100
AcDbPolyline
 90
        8
 70
     1
 43
0.0
 10
946.0
 20
-6.000000000000909
 10
946.0000000000018
 20
-74.0000000000009
 42
0.4142135623730951
 10
952.0000000000019
 20
-80.0000000000009
 10
970.0000000000018
 20
-80.0000000000009
 42
0.4142135623730951
 10
976.0000000000017
 20
-74.0000000000009
 10
976.0000000000017
 20
-6.0
 42
0.4142135623730838
 10
970.0000000000009
 20
-0.0000000000009095
 10
952.0000000000019
 20
-0.0000000000009095
 42
0.4142135623730951
  0
CIRCLE
  5
1012C8C
330
1012B83
100
AcDbEntity
  8
8.5
100
AcDbCircle
 10
961.0000000000018
 20
-30.00000000000091
 30
0.0
 40
4.25
  0
DIMENSION
  5
1012C8D
330
1012B83
100
AcDbEntity
  8
dim
100
AcDbDimension
280
     0
  2
*D2
 10
989.9999999999991
 20
160.991234113424
 30
0.0
 11
494.9999999999995
 21
169.2748289292494
 31
0.0
 12
3889.757792317294
 22
-1321.642164704449
 32
0.0
 71
     5
 42
989.9999999999991
 73
     0
 74
     0
 75
     0
  3
ISO-25
100
AcDbAlignedDimension
 13
0.0
 23
83.77830892783004
 33
0.0
 14
989.9999999999991
 24
63.77830892782913
 34
0.0
100
AcDbRotatedDimension
1001
ACAD
1000
DSTYLE
1002
{
1070
   141
1040
21.21320343559643
1002
}
  0
LWPOLYLINE
  5
1012C8E
330
1012B83
100
AcDbEntity
  8
0
100
AcDbPolyline
 90
        8
 70
     1
 43
0.0
 10
234.9999999999986
 20
-545.0000000000009
 10
234.9999999999986
 20
-345.000000000001
 42
0.4142135623730951
 10
224.9999999999986
 20
-335.000000000001
 10
94.99999999999863
 20
-335.000000000001
 42
0.4142135623730951
 10
84.99999999999863
 20
-345.000000000001
 10
84.99999999999863
 20
-545.0000000000009
 42
0.4142135623730951
 10
94.99999999999863
 20
-555.000000000001
 10
224.9999999999986
 20
-555.000000000001
 42
0.4142135623730951
  0
CIRCLE
  5
1012C8F
330
1012B83
100
AcDbEntity
  8
5.0
100
AcDbCircle
 10
563.4628040695274
 20
-431.000000000001
 30
0.0
 40
2.5
  0
CIRCLE
  5
1012C90
330
1012B83
100
AcDbEntity
  8
5.0
100
AcDbCircle
 10
526.9628040695274
 20
-431.000000000001
 30
0.0
 40
2.5
  0
CIRCLE
  5
1012C91
330
1012B83
100
AcDbEntity
  8
10.0
100
AcDbCircle
 10
507.9197103952733
 20
-565.000000000001
 30
0.0
 40
5.0
  0
CIRCLE
  5
1012C92
330
1012B83
100
AcDbEntity
  8
10.0
100
AcDbCircle
 10
482.3099542977124
 20
-355.0000000000013
 30
0.0
 40
5.0
  0
CIRCLE
  5
1012C93
330
1012B83
100
AcDbEntity
  8
10++
100
AcDbCircle
 10
545.2128040695279
 20
-491.0000000000009
 30
0.0
 40
10.0
  0
CIRCLE
  5
1012C94
330
1012B83
100
AcDbEntity
  8
10++
100
AcDbCircle
 10
545.2128040695288
 20
-371.000000000001
 30
0.0
 40
10.0
  0
CIRCLE
  5
1012C95
330
1012B83
100
AcDbEntity
  8
0
100
AcDbCircle
 10
569.2128040695288
 20
-371.000000000001
 30
0.0
 40
3.5
  0
CIRCLE
  5
1012C96
330
1012B83
100
AcDbEntity
  8
6.5
100
AcDbCircle
 10
569.2128040695288
 20
-371.000000000001
 30
0.0
 40
3.25
  0
CIRCLE
  5
1012C97
330
1012B83
100
AcDbEntity
  8
0
100
AcDbCircle
 10
521.2128040695288
 20
-371.000000000001
 30
0.0
 40
3.5
  0
CIRCLE
  5
1012C98
330
1012B83
100
AcDbEntity
  8
6.5
100
AcDbCircle
 10
521.2128040695288
 20
-371.000000000001
 30
0.0
 40
3.25
  0
CIRCLE
  5
1012C99
330
1012B83
100
AcDbEntity
  8
10++
100
AcDbCircle
 10
545.2128040695274
 20
-431.000000000001
 30
0.0
 40
12.9
  0
CIRCLE
  5
1012C9A
330
1012B83
100
AcDbEntity
  8
5.0
100
AcDbCircle
 10
521.6428040695273
 20
-454.5700000000011
 30
0.0
 40
2.5
  0
CIRCLE
  5
1012C9B
330
1012B83
100
AcDbEntity
  8
5.0
100
AcDbCircle
 10
568.7828040695276
 20
-407.4300000000013
 30
0.0
 40
2.5
  0
CIRCLE
  5
1012C9C
330
1012B83
100
AcDbEntity
  8
5.0
100
AcDbCircle
 10
568.7828040695271
 20
-454.5700000000011
 30
0.0
 40
2.5
  0
CIRCLE
  5
1012C9D
330
1012B83
100
AcDbEntity
  8
5.0
100
AcDbCircle
 10
521.6428040695273
 20
-407.4300000000013
 30
0.0
 40
2.5
  0
CIRCLE
  5
1012C9E
330
1012B83
100
AcDbEntity
  8
10.0
100
AcDbCircle
 10
582.505897743782
 20
-565.0000000000017
 30
0.0
 40
5.0
  0
CIRCLE
  5
1012C9F
330
1012B83
100
AcDbEntity
  8
10.0
100
AcDbCircle
 10
475.2128040695283
 20
-110.0000000000009
 30
0.0
 40
5.0
  0
CIRCLE
  5
1012CA0
330
1012B83
100
AcDbEntity
  8
10.0
100
AcDbCircle
 10
475.2128040695283
 20
-150.0000000000009
 30
0.0
 40
5.0
  0
CIRCLE
  5
1012CA1
330
1012B83
100
AcDbEntity
  8
10.0
100
AcDbCircle
 10
545.2128040695283
 20
-110.0000000000009
 30
0.0
 40
5.0
  0
CIRCLE
  5
1012CA2
330
1012B83
100
AcDbEntity
  8
10.0
100
AcDbCircle
 10
545.2128040695283
 20
-150.0000000000009
 30
0.0
 40
5.0
  0
CIRCLE
  5
1012CA3
330
1012B83
100
AcDbEntity
  8
10.0
100
AcDbCircle
 10
615.2128040695283
 20
-110.0000000000009
 30
0.0
 40
5.0
  0
CIRCLE
  5
1012CA4
330
1012B83
100
AcDbEntity
  8
10.0
100
AcDbCircle
 10
615.2128040695283
 20
-150.0000000000009
 30
0.0
 40
5.0
  0
LWPOLYLINE
  5
1012CA5
330
1012B83
100
AcDbEntity
  8
0
100
AcDbPolyline
 90
        8
 70
     1
 43
0.0
 10
445.2128040695279
 20
-170.0000000000007
 10
494.1409191613707
 20
-571.2105437531126
 42
0.3791008518982452
 10
504.0673779368757
 20
-580.000000000001
 10
586.3582302021791
 20
-580.0000000000017
 42
0.3791008518982452
 10
596.2846889776847
 20
-571.210543753112
 10
645.2128040695283
 20
-170.0000000000009
 10
645.2128040695283
 20
-90.0000000000009
 10
445.2128040695283
 20
-90.0000000000009
  0
CIRCLE
  5
1012CA6
330
1012B83
100
AcDbEntity
  8
6.5
100
AcDbCircle
 10
569.2128040695279
 20
-491.0000000000009
 30
0.0
 40
3.25
  0
CIRCLE
  5
1012CA7
330
1012B83
100
AcDbEntity
  8
6.5
100
AcDbCircle
 10
521.2128040695279
 20
-491.0000000000009
 30
0.0
 40
3.25
  0
CIRCLE
  5
1012CA8
330
1012B83
100
AcDbEntity
  8
5.0
100
AcDbCircle
 10
346.7499999999995
 20
-239.0000000000009
 30
0.0
 40
2.5
  0
CIRCLE
  5
1012CA9
330
1012B83
100
AcDbEntity
  8
5.0
100
AcDbCircle
 10
383.2499999999996
 20
-239.0000000000009
 30
0.0
 40
2.5
  0
CIRCLE
  5
1012CAA
330
1012B83
100
AcDbEntity
  8
10.0
100
AcDbCircle
 10
402.2930936742536
 20
-105.0000000000009
 30
0.0
 40
5.0
  0
CIRCLE
  5
1012CAB
330
1012B83
100
AcDbEntity
  8
10.0
100
AcDbCircle
 10
427.9028497718145
 20
-315.0000000000006
 30
0.0
 40
5.0
  0
CIRCLE
  5
1012CAC
330
1012B83
100
AcDbEntity
  8
10++
100
AcDbCircle
 10
364.9999999999991
 20
-179.0000000000009
 30
0.0
 40
10.0
  0
CIRCLE
  5
1012CAD
330
1012B83
100
AcDbEntity
  8
10++
100
AcDbCircle
 10
364.9999999999982
 20
-299.0000000000008
 30
0.0
 40
10.0
  0
CIRCLE
  5
1012CAE
330
1012B83
100
AcDbEntity
  8
0
100
AcDbCircle
 10
340.9999999999982
 20
-299.0000000000008
 30
0.0
 40
3.5
  0
CIRCLE
  5
1012CAF
330
1012B83
100
AcDbEntity
  8
6.5
100
AcDbCircle
 10
340.9999999999982
 20
-299.0000000000008
 30
0.0
 40
3.25
  0
CIRCLE
  5
1012CB0
330
1012B83
100
AcDbEntity
  8
0
100
AcDbCircle
 10
388.9999999999982
 20
-299.0000000000008
 30
0.0
 40
3.5
  0
CIRCLE
  5
1012CB1
330
1012B83
100
AcDbEntity
  8
6.5
100
AcDbCircle
 10
388.9999999999982
 20
-299.0000000000008
 30
0.0
 40
3.25
  0
CIRCLE
  5
1012CB2
330
1012B83
100
AcDbEntity
  8
10++
100
AcDbCircle
 10
364.9999999999995
 20
-239.0000000000009
 30
0.0
 40
12.9
  0
CIRCLE
  5
1012CB3
330
1012B83
100
AcDbEntity
  8
5.0
100
AcDbCircle
 10
388.5699999999997
 20
-215.4300000000008
 30
0.0
 40
2.5
  0
CIRCLE
  5
1012CB4
330
1012B83
100
AcDbEntity
  8
5.0
100
AcDbCircle
 10
341.4299999999994
 20
-262.5700000000006
 30
0.0
 40
2.5
  0
CIRCLE
  5
1012CB5
330
1012B83
100
AcDbEntity
  8
5.0
100
AcDbCircle
 10
341.4299999999999
 20
-215.4300000000008
 30
0.0
 40
2.5
  0
CIRCLE
  5
1012CB6
330
1012B83
100
AcDbEntity
  8
5.0
100
AcDbCircle
 10
388.5699999999997
 20
-262.5700000000006
 30
0.0
 40
2.5
  0
CIRCLE
  5
1012CB7
330
1012B83
100
AcDbEntity
  8
10.0
100
AcDbCircle
 10
327.706906325745
 20
-105.0
 30
0.0
 40
5.0
  0
CIRCLE
  5
1012CB8
330
1012B83
100
AcDbEntity
  8
10.0
100
AcDbCircle
 10
434.9999999999986
 20
-560.0000000000007
 30
0.0
 40
5.0
  0
CIRCLE
  5
1012CB9
330
1012B83
100
AcDbEntity
  8
10.0
100
AcDbCircle
 10
434.9999999999986
 20
-520.0000000000008
 30
0.0
 40
5.0
  0
CIRCLE
  5
1012CBA
330
1012B83
100
AcDbEntity
  8
10.0
100
AcDbCircle
 10
364.9999999999987
 20
-560.0000000000007
 30
0.0
 40
5.0
  0
CIRCLE
  5
1012CBB
330
1012B83
100
AcDbEntity
  8
10.0
100
AcDbCircle
 10
364.9999999999987
 20
-520.0000000000008
 30
0.0
 40
5.0
  0
CIRCLE
  5
1012CBC
330
1012B83
100
AcDbEntity
  8
10.0
100
AcDbCircle
 10
294.9999999999986
 20
-560.0000000000007
 30
0.0
 40
5.0
  0
CIRCLE
  5
1012CBD
330
1012B83
100
AcDbEntity
  8
10.0
100
AcDbCircle
 10
294.9999999999986
 20
-520.0000000000008
 30
0.0
 40
5.0
  0
LWPOLYLINE
  5
1012CBE
330
1012B83
100
AcDbEntity
  8
0
100
AcDbPolyline
 90
        8
 70
     1
 43
0.0
 10
464.999999999999
 20
-500.000000000001
 10
416.0718849081563
 20
-98.78945624688913
 42
0.3791008518982452
 10
406.1454261326511
 20
-90.0000000000009
 10
323.8545738673479
 20
-90.0
 42
0.3791008518982452
 10
313.9281150918423
 20
-98.78945624688959
 10
264.9999999999987
 20
-500.0000000000007
 10
264.9999999999987
 20
-580.0000000000007
 10
464.9999999999986
 20
-580.0000000000007
  0
CIRCLE
  5
1012CBF
330
1012B83
100
AcDbEntity
  8
6.5
100
AcDbCircle
 10
340.9999999999991
 20
-179.0000000000009
 30
0.0
 40
3.25
  0
CIRCLE
  5
1012CC0
330
1012B83
100
AcDbEntity
  8
6.5
100
AcDbCircle
 10
388.9999999999991
 20
-179.0000000000009
 30
0.0
 40
3.25
  0
DIMENSION
  5
1012CC1
330
1012B83
100
AcDbEntity
  8
dim
100
AcDbDimension
280
     0
  2
*D3
 10
1214.595785704303
 20
-615.0000000000026
 30
0.0
 11
1206.312190888478
 21
-305.0000000000006
 31
0.0
 12
3889.757792317294
 22
-1321.642164704449
 32
0.0
 71
     5
 42
620.0000000000028
 73
     0
 74
     0
 75
     0
  3
ISO-25
100
AcDbAlignedDimension
 13
752.1806190740571
 23
4.999999999999772
 33
0.0
 14
794.6806190740553
 24
-615.0000000000029
 34
0.0
 50
90.0
100
AcDbRotatedDimension
1001
ACAD
1000
DSTYLE
1002
{
1070
   141
1040
21.21320343559643
1002
}
  0
LWPOLYLINE
  5
1012CC2
330
1012B83
100
AcDbEntity
  8
0
100
AcDbPolyline
 90
        8
 70
     1
 43
0.0
 10
180.9999999999986
 20
-595.0000000000028
 10
248.9999999999986
 20
-595.0000000000009
 42
0.4142135623730951
 10
254.9999999999986
 20
-589.000000000001
 10
254.9999999999986
 20
-571.000000000001
 42
0.4142135623730951
 10
248.9999999999986
 20
-565.000000000001
 10
180.9999999999977
 20
-565.000000000001
 42
0.4142135623730838
 10
174.9999999999986
 20
-571.0000000000019
 10
174.9999999999986
 20
-589.000000000001
 42
0.4142135623730951
  0
CIRCLE
  5
1012CC3
330
1012B83
100
AcDbEntity
  8
8.5
100
AcDbCircle
 10
204.9999999999986
 20
-580.000000000001
 30
0.0
 40
4.25
  0
CIRCLE
  5
1012CC4
330
1012B83
100
AcDbEntity
  8
10.0
100
AcDbCircle
 10
302.0971502281832
 20
-315.0000000000006
 30
0.0
 40
5.0
  0
CIRCLE
  5
1012CC5
330
1012B83
100
AcDbEntity
  8
10.0
100
AcDbCircle
 10
608.1156538413442
 20
-355.0000000000013
 30
0.0
 40
5.0
  0
TEXT
  5
1012CC6
330
1012B83
100
AcDbEntity
  8
dim
100
AcDbText
 10
536.1221920631979
 20
-257.6083868850064
 30
0.0
 40
20.0
  1
2
100
AcDbText
  0
CIRCLE
  5
1012CC7
330
1012B83
100
AcDbEntity
  8
dim
100
AcDbCircle
 10
543.9815107223548
 20
-248.8433898870598
 30
0.0
 40
20.0
  0
TEXT
  5
1012CC8
330
1012B83
100
AcDbEntity
  8
dim
100
AcDbText
 10
354.7830203371304
 20
-408.9399702776854
 30
0.0
 40
20.0
  1
2
100
AcDbText
  0
CIRCLE
  5
1012CC9
330
1012B83
100
AcDbEntity
  8
dim
100
AcDbCircle
 10
362.6423389962874
 20
-400.1749732797389
 30
0.0
 40
20.0
  0
TEXT
  5
1012CCA
330
1012B83
100
AcDbEntity
  8
dim
100
AcDbText
 10
66.98640055619399
 20
-48.72817554790799
 30
0.0
 40
20.0
  1
1
100
AcDbText
  0
CIRCLE
  5
1012CCB
330
1012B83
100
AcDbEntity
  8
dim
100
AcDbCircle
 10
74.84571921535098
 20
-39.96317854996141
 30
0.0
 40
20.0
  0
TEXT
  5
1012CCC
330
1012B83
100
AcDbEntity
  8
dim
100
AcDbText
 10
820.8668722821585
 20
-192.5353309862421
 30
0.0
 40
20.0
  1
5
100
AcDbText
  0
CIRCLE
  5
1012CCD
330
1012B83
100
AcDbEntity
  8
dim
100
AcDbCircle
 10
828.7261909413155
 20
-183.7703339882955
 30
0.0
 40
20.0
  0
TEXT
  5
1012CCE
330
1012B83
100
AcDbEntity
  8
dim
100
AcDbText
 10
539.3344042039298
 20
-49.08801871398555
 30
0.0
 40
20.0
  1
1
100
AcDbText
  0
CIRCLE
  5
1012CCF
330
1012B83
100
AcDbEntity
  8
dim
100
AcDbCircle
 10
547.1937228630868
 20
-40.32302171603896
 30
0.0
 40
20.0
  0
TEXT
  5
1012CD0
330
1012B83
100
AcDbEntity
  8
dim
100
AcDbText
 10
1009.549517274014
 20
-496.376491436823
 30
0.0
 40
20.0
  1
3
100
AcDbText
  0
CIRCLE
  5
1012CD1
330
1012B83
100
AcDbEntity
  8
dim
100
AcDbCircle
 10
1017.408835933171
 20
-487.6114944388764
 30
0.0
 40
20.0
  0
TEXT
  5
1012CD2
330
1012B83
100
AcDbEntity
  8
dim
100
AcDbText
 10
1008.661520790471
 20
-569.1249125598779
 30
0.0
 40
20.0
  1
3
100
AcDbText
  0
CIRCLE
  5
1012CD3
330
1012B83
100
AcDbEntity
  8
dim
100
AcDbCircle
 10
1016.520839449627
 20
-560.3599155619312
 30
0.0
 40
20.0
  0
TEXT
  5
1012CD4
330
1012B83
100
AcDbEntity
  8
dim
100
AcDbText
 10
202.9382847747184
 20
-215.3994311876595
 30
0.0
 40
20.0
  1
4
100
AcDbText
  0
CIRCLE
  5
1012CD5
330
1012B83
100
AcDbEntity
  8
dim
100
AcDbCircle
 10
210.7976034338753
 20
-206.6344341897129
 30
0.0
 40
20.0
  0
TEXT
  5
1012CD6
330
1012B83
100
AcDbEntity
  8
dim
100
AcDbText
 10
24.19676948382221
 20
-172.6493416814055
 30
0.0
 40
20.0
  1
4
100
AcDbText
  0
CIRCLE
  5
1012CD7
330
1012B83
100
AcDbEntity
  8
dim
100
AcDbCircle
 10
32.05608814297921
 20
-163.8843446834589
 30
0.0
 40
20.0
  0
TEXT
  5
1012CD8
330
1012B83
100
AcDbEntity
  8
dim
100
AcDbText
 10
-33.8214515015261
 20
-293.6181594960081
 30
0.0
 40
20.0
  1
6
100
AcDbText
  0
CIRCLE
  5
1012CD9
330
1012B83
100
AcDbEntity
  8
dim
100
AcDbCircle
 10
-25.9621328423691
 20
-284.8531624980615
 30
0.0
 40
20.0
  0
TEXT
  5
1012CDA
330
1012B83
100
AcDbEntity
  8
dim
100
AcDbText
 10
-34.76470371371033
 20
-478.3274321640374
 30
0.0
 40
20.0
  1
6
100
AcDbText
  0
CIRCLE
  5
1012CDB
330
1012B83
100
AcDbEntity
  8
dim
100
AcDbCircle
 10
-26.90538505455334
 20
-469.5624351660908
 30
0.0
 40
20.0
  0
TEXT
  5
1012CDC
330
1012B83
100
AcDbEntity
  8
dim
100
AcDbText
 10
671.057073519838
 20
-648.175598994022
 30
0.0
 40
20.0
  1
7
100
AcDbText
  0
CIRCLE
  5
1012CDD
330
1012B83
100
AcDbEntity
  8
dim
100
AcDbCircle
 10
678.916392178995
 20
-639.4106019960754
 30
0.0
 40
20.0
  0
TEXT
  5
1012CDE
330
1012B83
100
AcDbEntity
  8
dim
100
AcDbText
 10
738.4858581115641
 20
-648.6247087796946
 30
0.0
 40
20.0
  1
7
100
AcDbText
  0
CIRCLE
  5
1012CDF
330
1012B83
100
AcDbEntity
  8
dim
100
AcDbCircle
 10
746.345176770721
 20
-639.859711781748
 30
0.0
 40
20.0
  0
TEXT
  5
1012CE0
330
1012B83
100
AcDbEntity
  8
dim
100
AcDbText
 10
152.6209511059405
 20
-418.3234207315972
 30
0.0
 40
20.0
  1
8
100
AcDbText
  0
CIRCLE
  5
1012CE1
330
1012B83
100
AcDbEntity
  8
dim
100
AcDbCircle
 10
160.4802697650975
 20
-409.5584237336506
 30
0.0
 40
20.0
  0
ENDBLK
  5
1012B85
330
1012B83
100
AcDbEntity
  8
0
100
AcDbBlockEnd
  0
BLOCK
  5
1012D4F
330
1012D4E
100
AcDbEntity
  8
0
100
AcDbBlockBegin
  2
*D6
 70
     1
 10
0.0
 20
0.0
 30
0.0
  3
*D6
  1

  0
LINE
  5
1012D5B
330
1012D4E
100
AcDbEntity
  8
dim
 62
     0
440
 16777216
370
    -2
100
AcDbLine
 10
262.455355112657
 20
1360.811978371453
 30
0.0
 11
588.2911119518543
 21
1360.811978371453
 31
0.0
  0
LINE
  5
1012D5C
330
1012D4E
100
AcDbEntity
  8
dim
 62
     0
440
 16777216
370
    -2
100
AcDbLine
 10
296.4406364868938
 20
740.8119783714501
 30
0.0
 11
588.2911119518545
 21
740.8119783714501
 31
0.0
  0
LINE
  5
1012D5D
330
1012D4E
100
AcDbEntity
  8
dim
 62
     0
440
 16777216
370
    -2
100
AcDbLine
 10
587.0411119518543
 20
1358.311978371453
 30
0.0
 11
587.0411119518545
 21
743.31197837145
 31
0.0
  0
SOLID
  5
1012D5E
330
1012D4E
100
AcDbEntity
  8
dim
 62
     0
440
 16777216
100
AcDbTrace
 10
586.6244452851876
 20
1358.311978371453
 30
0.0
 11
587.4577786185209
 21
1358.311978371453
 31
0.0
 12
587.0411119518543
 22
1360.811978371453
 32
0.0
 13
587.0411119518543
 23
1360.811978371453
 33
0.0
  0
SOLID
  5
1012D5F
330
1012D4E
100
AcDbEntity
  8
dim
 62
     0
440
 16777216
100
AcDbTrace
 10
586.6244452851879
 20
743.31197837145
 30
0.0
 11
587.4577786185211
 21
743.31197837145
 31
0.0
 12
587.0411119518545
 22
740.8119783714501
 32
0.0
 13
587.0411119518545
 23
740.8119783714501
 33
0.0
  0
MTEXT
  5
1012D60
330
1012D4E
100
AcDbEntity
  8
dim
 62
     0
440
 16777216
100
AcDbMText
 10
578.7575171360292
 20
1050.811978371451
 30
0.0
 40
15.0
 41
0.0
 46
0.0
 71
     5
 72
     1
  1
620
 11
0.0000000000000001
 21
1.0
 31
0.0
 73
     1
 44
1.0
  0
POINT
  5
1012D61
330
1012D4E
100
AcDbEntity
  8
Defpoints
 62
     0
440
 16777216
100
AcDbPoint
 10
261.830355112657
 20
1360.811978371453
 30
0.0
  0
POINT
  5
1012D62
330
1012D4E
100
AcDbEntity
  8
Defpoints
 62
     0
440
 16777216
100
AcDbPoint
 10
295.8156364868938
 20
740.8119783714501
 30
0.0
  0
POINT
  5
1012D63
330
1012D4E
100
AcDbEntity
  8
Defpoints
 62
     0
440
 16777216
100
AcDbPoint
 10
587.0411119518545
 20
740.8119783714501
 30
0.0
  0
ENDBLK
  5
1012D50
330
1012D4E
100
AcDbEntity
  8
0
100
AcDbBlockEnd
  0
ENDSEC
  0
SECTION
  2
ENTITIES
  0
CIRCLE
  5
C28F
330
1F
100
AcDbEntity
  8
6.5
100
AcDbCircle
 10
489.8156364868945
 20
970.8119783714519
 30
0.0
 40
3.25
  0
CIRCLE
  5
C290
330
1F
100
AcDbEntity
  8
6.5
100
AcDbCircle
 10
354.8156364868946
 20
970.8119783714519
 30
0.0
 40
3.25
  0
CIRCLE
  5
C291
330
1F
100
AcDbEntity
  8
6.5
100
AcDbCircle
 10
219.8156364868946
 20
970.8119783714519
 30
0.0
 40
3.25
  0
CIRCLE
  5
C292
330
1F
100
AcDbEntity
  8
6.5
100
AcDbCircle
 10
489.8156364868945
 20
1050.811978371452
 30
0.0
 40
3.25
  0
CIRCLE
  5
C293
330
1F
100
AcDbEntity
  8
6.5
100
AcDbCircle
 10
354.8156364868946
 20
1050.811978371452
 30
0.0
 40
3.25
  0
CIRCLE
  5
C294
330
1F
100
AcDbEntity
  8
6.5
100
AcDbCircle
 10
219.8156364868946
 20
1050.811978371452
 30
0.0
 40
3.25
  0
CIRCLE
  5
C295
330
1F
100
AcDbEntity
  8
6.5
100
AcDbCircle
 10
489.8156364868945
 20
1130.811978371452
 30
0.0
 40
3.25
  0
CIRCLE
  5
C296
330
1F
100
AcDbEntity
  8
6.5
100
AcDbCircle
 10
354.8156364868946
 20
1130.811978371452
 30
0.0
 40
3.25
  0
CIRCLE
  5
C297
330
1F
100
AcDbEntity
  8
6.5
100
AcDbCircle
 10
219.8156364868946
 20
1130.811978371452
 30
0.0
 40
3.25
  0
CIRCLE
  5
C298
330
1F
100
AcDbEntity
  8
6.5
100
AcDbCircle
 10
489.8156364868945
 20
1210.811978371453
 30
0.0
 40
3.25
  0
CIRCLE
  5
C299
330
1F
100
AcDbEntity
  8
6.5
100
AcDbCircle
 10
354.8156364868946
 20
1210.811978371453
 30
0.0
 40
3.25
  0
CIRCLE
  5
C29A
330
1F
100
AcDbEntity
  8
6.5
100
AcDbCircle
 10
219.8156364868946
 20
1210.811978371453
 30
0.0
 40
3.25
  0
CIRCLE
  5
C29B
330
1F
100
AcDbEntity
  8
6.5
100
AcDbCircle
 10
449.8156364868946
 20
1014.311978371452
 30
0.0
 40
3.25
  0
CIRCLE
  5
C29C
330
1F
100
AcDbEntity
  8
6.5
100
AcDbCircle
 10
259.8156364868946
 20
1014.311978371452
 30
0.0
 40
3.25
  0
CIRCLE
  5
C29D
330
1F
100
AcDbEntity
  8
6.5
100
AcDbCircle
 10
259.8156364868946
 20
1064.311978371452
 30
0.0
 40
3.25
  0
CIRCLE
  5
C29E
330
1F
100
AcDbEntity
  8
6.5
100
AcDbCircle
 10
259.8156364868946
 20
1114.311978371452
 30
0.0
 40
3.25
  0
CIRCLE
  5
C29F
330
1F
100
AcDbEntity
  8
6.5
100
AcDbCircle
 10
259.8156364868946
 20
1164.311978371452
 30
0.0
 40
3.25
  0
CIRCLE
  5
C2A0
330
1F
100
AcDbEntity
  8
6.5
100
AcDbCircle
 10
449.8156364868946
 20
1164.311978371452
 30
0.0
 40
3.25
  0
CIRCLE
  5
C2A1
330
1F
100
AcDbEntity
  8
6.5
100
AcDbCircle
 10
449.8156364868946
 20
1114.311978371452
 30
0.0
 40
3.25
  0
CIRCLE
  5
C2A2
330
1F
100
AcDbEntity
  8
6.5
100
AcDbCircle
 10
449.8156364868946
 20
1064.311978371452
 30
0.0
 40
3.25
  0
CIRCLE
  5
C2A3
330
1F
100
AcDbEntity
  8
6.8
100
AcDbCircle
 10
474.8156364868946
 20
1247.811978371452
 30
0.0
 40
3.399999999999999
  0
CIRCLE
  5
C2A4
330
1F
100
AcDbEntity
  8
6.8
100
AcDbCircle
 10
414.8156364868945
 20
1247.811978371452
 30
0.0
 40
3.399999999999999
  0
CIRCLE
  5
C2A5
330
1F
100
AcDbEntity
  8
6.8
100
AcDbCircle
 10
354.8156364868946
 20
1247.811978371452
 30
0.0
 40
3.399999999999999
  0
CIRCLE
  5
C2A6
330
1F
100
AcDbEntity
  8
6.8
100
AcDbCircle
 10
294.8156364868946
 20
1247.811978371452
 30
0.0
 40
3.399999999999999
  0
CIRCLE
  5
C2A7
330
1F
100
AcDbEntity
  8
6.8
100
AcDbCircle
 10
234.8156364868946
 20
1247.811978371452
 30
0.0
 40
3.399999999999999
  0
CIRCLE
  5
C2A8
330
1F
100
AcDbEntity
  8
6.8
100
AcDbCircle
 10
474.8156364868946
 20
1090.811978371452
 30
0.0
 40
3.399999999999999
  0
CIRCLE
  5
C2A9
330
1F
100
AcDbEntity
  8
6.8
100
AcDbCircle
 10
414.8156364868945
 20
1090.811978371452
 30
0.0
 40
3.399999999999999
  0
CIRCLE
  5
C2AA
330
1F
100
AcDbEntity
  8
6.8
100
AcDbCircle
 10
354.8156364868946
 20
1090.811978371452
 30
0.0
 40
3.399999999999999
  0
CIRCLE
  5
C2AB
330
1F
100
AcDbEntity
  8
6.8
100
AcDbCircle
 10
294.8156364868946
 20
1090.811978371452
 30
0.0
 40
3.399999999999999
  0
CIRCLE
  5
C2AC
330
1F
100
AcDbEntity
  8
6.8
100
AcDbCircle
 10
474.8156364868946
 20
933.8119783714509
 30
0.0
 40
3.399999999999999
  0
CIRCLE
  5
C2AD
330
1F
100
AcDbEntity
  8
6.8
100
AcDbCircle
 10
414.8156364868945
 20
933.8119783714509
 30
0.0
 40
3.399999999999999
  0
CIRCLE
  5
C2AE
330
1F
100
AcDbEntity
  8
6.8
100
AcDbCircle
 10
354.8156364868946
 20
933.8119783714509
 30
0.0
 40
3.399999999999999
  0
CIRCLE
  5
C2AF
330
1F
100
AcDbEntity
  8
6.8
100
AcDbCircle
 10
294.8156364868946
 20
933.8119783714509
 30
0.0
 40
3.399999999999999
  0
CIRCLE
  5
C2B0
330
1F
100
AcDbEntity
  8
6.8
100
AcDbCircle
 10
234.8156364868946
 20
933.8119783714509
 30
0.0
 40
3.399999999999999
  0
CIRCLE
  5
C2B1
330
1F
100
AcDbEntity
  8
6.8
100
AcDbCircle
 10
234.8156364868946
 20
1090.811978371452
 30
0.0
 40
3.399999999999999
  0
LWPOLYLINE
  5
C2B2
330
1F
100
AcDbEntity
  8
0
100
AcDbPolyline
 90
        8
 70
     1
 43
0.0
 10
194.8156364868946
 20
925.8119783714517
 42
0.4142135623730951
 10
204.8156364868946
 20
915.8119783714518
 10
504.815636486895
 20
915.8119783714509
 42
0.4142135623730951
 10
514.8156364868951
 20
925.8119783714509
 10
514.8156364868941
 20
1255.811978371452
 42
0.4142135623730951
 10
504.8156364868941
 20
1265.811978371452
 10
204.8156364868946
 20
1265.811978371451
 42
0.4142135623730951
 10
194.8156364868946
 20
1255.811978371452
  0
CIRCLE
  5
C2B3
330
1F
100
AcDbEntity
  8
5.5
100
AcDbCircle
 10
484.8156364868946
 20
1253.311978371451
 30
0.0
 40
2.75
  0
CIRCLE
  5
C2B4
330
1F
100
AcDbEntity
  8
5.5
100
AcDbCircle
 10
224.8156364868946
 20
1253.311978371452
 30
0.0
 40
2.75
  0
CIRCLE
  5
C2B5
330
1F
100
AcDbEntity
  8
5.5
100
AcDbCircle
 10
364.8156364868946
 20
1253.311978371451
 30
0.0
 40
2.75
  0
CIRCLE
  5
C2EB
330
1F
100
AcDbEntity
  8
5.5
100
AcDbCircle
 10
-459.1843635131048
 20
1060.811978371452
 30
0.0
 40
2.75
  0
LWPOLYLINE
  5
C2EC
330
1F
100
AcDbEntity
  8
0
100
AcDbPolyline
 90
        8
 70
     1
 43
0.0
 10
-200.184363513104
 20
1040.811978371452
 10
-200.184363513104
 20
1095.811978371452
 42
0.4142135623730951
 10
-210.184363513104
 20
1105.811978371452
 10
-465.1843635131049
 20
1105.811978371452
 42
0.4142135623730951
 10
-475.1843635131049
 20
1095.811978371452
 10
-475.1843635131049
 20
1040.811978371452
 42
0.4142135623730951
 10
-465.1843635131049
 20
1030.811978371452
 10
-210.184363513104
 20
1030.811978371452
 42
0.4142135623730951
  0
CIRCLE
  5
C2ED
330
1F
100
AcDbEntity
  8
3.5
100
AcDbCircle
 10
-337.6843635131049
 20
1052.811978371452
 30
0.0
 40
1.75
  0
CIRCLE
  5
C2EE
330
1F
100
AcDbEntity
  8
3.5
100
AcDbCircle
 10
-337.6843635131049
 20
1068.811978371452
 30
0.0
 40
1.75
  0
CIRCLE
  5
C2EF
330
1F
100
AcDbEntity
  8
3.5
100
AcDbCircle
 10
-329.6843635131049
 20
1060.811978371452
 30
0.0
 40
1.75
  0
CIRCLE
  5
C2F0
330
1F
100
AcDbEntity
  8
3.5
100
AcDbCircle
 10
-345.6843635131049
 20
1060.811978371452
 30
0.0
 40
1.75
  0
CIRCLE
  5
C2F1
330
1F
100
AcDbEntity
  8
10++
100
AcDbCircle
 10
-337.6843635131049
 20
1060.811978371452
 30
0.0
 40
5.099999999999999
  0
CIRCLE
  5
C2F2
330
1F
100
AcDbEntity
  8
10++
100
AcDbCircle
 10
-237.684363513104
 20
1060.811978371452
 30
0.0
 40
16.0
  0
CIRCLE
  5
C2F3
330
1F
100
AcDbEntity
  8
5.5
100
AcDbCircle
 10
-237.684363513104
 20
1082.311978371452
 30
0.0
 40
2.75
  0
CIRCLE
  5
C2F4
330
1F
100
AcDbEntity
  8
5.5
100
AcDbCircle
 10
-237.684363513104
 20
1039.311978371452
 30
0.0
 40
2.75
  0
CIRCLE
  5
C2F5
330
1F
100
AcDbEntity
  8
5.5
100
AcDbCircle
 10
-259.184363513104
 20
1060.811978371452
 30
0.0
 40
2.75
  0
CIRCLE
  5
C2F6
330
1F
100
AcDbEntity
  8
5.5
100
AcDbCircle
 10
-216.184363513104
 20
1060.811978371452
 30
0.0
 40
2.75
  0
CIRCLE
  5
C2F7
330
1F
100
AcDbEntity
  8
10++
100
AcDbCircle
 10
-437.6843635131049
 20
1060.811978371452
 30
0.0
 40
16.0
  0
CIRCLE
  5
C2F8
330
1F
100
AcDbEntity
  8
5.5
100
AcDbCircle
 10
-437.6843635131049
 20
1082.311978371452
 30
0.0
 40
2.75
  0
CIRCLE
  5
C2F9
330
1F
100
AcDbEntity
  8
5.5
100
AcDbCircle
 10
-437.6843635131049
 20
1039.311978371452
 30
0.0
 40
2.75
  0
CIRCLE
  5
C2FA
330
1F
100
AcDbEntity
  8
5.5
100
AcDbCircle
 10
-416.1843635131049
 20
1060.811978371452
 30
0.0
 40
2.75
  0
CIRCLE
  5
C2FB
330
1F
100
AcDbEntity
  8
3.5
100
AcDbCircle
 10
-422.1843635131054
 20
883.3119783714519
 30
0.0
 40
1.75
  0
CIRCLE
  5
C2FC
330
1F
100
AcDbEntity
  8
5.5
100
AcDbCircle
 10
-451.6843635131054
 20
983.3119783714519
 30
0.0
 40
2.75
  0
CIRCLE
  5
C2FD
330
1F
100
AcDbEntity
  8
10++
100
AcDbCircle
 10
-430.1843635131054
 20
883.3119783714519
 30
0.0
 40
5.099999999999999
  0
LWPOLYLINE
  5
C2FE
330
1F
100
AcDbEntity
  8
0
100
AcDbPolyline
 90
        8
 70
     1
 43
0.0
 10
-475.1843635131053
 20
1010.811978371451
 10
-475.1843635131053
 20
755.8119783714517
 42
0.4142135623730951
 10
-465.1843635131053
 20
745.8119783714518
 10
-410.1843635131054
 20
745.8119783714518
 42
0.4142135623730951
 10
-400.1843635131053
 20
755.8119783714517
 10
-400.1843635131053
 20
1010.811978371451
 42
0.4142135623730951
 10
-410.1843635131054
 20
1020.811978371452
 10
-465.1843635131053
 20
1020.811978371452
 42
0.4142135623730951
  0
CIRCLE
  5
C2FF
330
1F
100
AcDbEntity
  8
3.5
100
AcDbCircle
 10
-438.1843635131054
 20
883.3119783714519
 30
0.0
 40
1.75
  0
CIRCLE
  5
C300
330
1F
100
AcDbEntity
  8
3.5
100
AcDbCircle
 10
-430.1843635131054
 20
891.3119783714519
 30
0.0
 40
1.75
  0
CIRCLE
  5
C301
330
1F
100
AcDbEntity
  8
5.5
100
AcDbCircle
 10
-408.6843635131053
 20
983.3119783714519
 30
0.0
 40
2.75
  0
CIRCLE
  5
C302
330
1F
100
AcDbEntity
  8
3.5
100
AcDbCircle
 10
-430.1843635131054
 20
875.3119783714518
 30
0.0
 40
1.75
  0
CIRCLE
  5
C303
330
1F
100
AcDbEntity
  8
10++
100
AcDbCircle
 10
-430.1843635131054
 20
983.3119783714519
 30
0.0
 40
16.0
  0
CIRCLE
  5
C304
330
1F
100
AcDbEntity
  8
5.5
100
AcDbCircle
 10
-430.1843635131054
 20
961.8119783714517
 30
0.0
 40
2.75
  0
CIRCLE
  5
C305
330
1F
100
AcDbEntity
  8
5.5
100
AcDbCircle
 10
-430.1843635131054
 20
1004.811978371452
 30
0.0
 40
2.75
  0
CIRCLE
  5
C306
330
1F
100
AcDbEntity
  8
10++
100
AcDbCircle
 10
-430.1843635131054
 20
783.3119783714518
 30
0.0
 40
16.0
  0
CIRCLE
  5
C307
330
1F
100
AcDbEntity
  8
5.5
100
AcDbCircle
 10
-451.6843635131054
 20
783.3119783714518
 30
0.0
 40
2.75
  0
CIRCLE
  5
C308
330
1F
100
AcDbEntity
  8
5.5
100
AcDbCircle
 10
-430.1843635131054
 20
804.8119783714518
 30
0.0
 40
2.75
  0
CIRCLE
  5
C309
330
1F
100
AcDbEntity
  8
5.5
100
AcDbCircle
 10
-408.6843635131053
 20
783.3119783714518
 30
0.0
 40
2.75
  0
CIRCLE
  5
C30A
330
1F
100
AcDbEntity
  8
5.5
100
AcDbCircle
 10
-430.1843635131054
 20
761.8119783714518
 30
0.0
 40
2.75
  0
CIRCLE
  5
C30B
330
1F
100
AcDbEntity
  8
6.0
100
AcDbCircle
 10
-458.1843635131053
 20
963.3119783714509
 30
0.0
 40
3.0
  0
CIRCLE
  5
C30C
330
1F
100
AcDbEntity
  8
6.0
100
AcDbCircle
 10
-445.1843635131053
 20
923.3119783714508
 30
0.0
 40
3.0
  0
CIRCLE
  5
C30D
330
1F
100
AcDbEntity
  8
6.0
100
AcDbCircle
 10
-461.1843635131053
 20
883.3119783714519
 30
0.0
 40
3.0
  0
CIRCLE
  5
C30E
330
1F
100
AcDbEntity
  8
6.0
100
AcDbCircle
 10
-458.1843635131053
 20
803.3119783714527
 30
0.0
 40
3.0
  0
CIRCLE
  5
C30F
330
1F
100
AcDbEntity
  8
6.0
100
AcDbCircle
 10
-445.1843635131053
 20
843.3119783714527
 30
0.0
 40
3.0
  0
CIRCLE
  5
C310
330
1F
100
AcDbEntity
  8
6.0
100
AcDbCircle
 10
-257.6843635131049
 20
1088.811978371452
 30
0.0
 40
3.0
  0
CIRCLE
  5
C311
330
1F
100
AcDbEntity
  8
6.0
100
AcDbCircle
 10
-337.6843635131049
 20
1091.811978371452
 30
0.0
 40
3.0
  0
CIRCLE
  5
C312
330
1F
100
AcDbEntity
  8
6.0
100
AcDbCircle
 10
-297.6843635131049
 20
1075.811978371452
 30
0.0
 40
3.0
  0
CIRCLE
  5
C313
330
1F
100
AcDbEntity
  8
6.0
100
AcDbCircle
 10
-417.684363513104
 20
1088.811978371452
 30
0.0
 40
3.0
  0
CIRCLE
  5
C314
330
1F
100
AcDbEntity
  8
6.0
100
AcDbCircle
 10
-377.684363513104
 20
1075.811978371452
 30
0.0
 40
3.0
  0
CIRCLE
  5
C334
330
1F
100
AcDbEntity
  8
5.5
100
AcDbCircle
 10
368.5184322824043
 20
886.0147741669631
 30
0.0
 40
2.75
  0
LWPOLYLINE
  5
C335
330
1F
100
AcDbEntity
  8
0
100
AcDbPolyline
 90
        4
 70
     1
 43
0.0
 10
514.8156364868937
 20
835.8119783714517
 10
311.8156364868937
 20
835.8119783714526
 10
311.8156364868937
 20
905.8119783714507
 10
514.8156364868941
 20
905.8119783714516
  0
CIRCLE
  5
C336
330
1F
100
AcDbEntity
  8
3.5
100
AcDbCircle
 10
405.3156364868937
 20
870.8119783714517
 30
0.0
 40
1.75
  0
CIRCLE
  5
C337
330
1F
100
AcDbEntity
  8
3.5
100
AcDbCircle
 10
421.3156364868937
 20
870.8119783714517
 30
0.0
 40
1.75
  0
CIRCLE
  5
C338
330
1F
100
AcDbEntity
  8
3.5
100
AcDbCircle
 10
413.3156364868937
 20
862.8119783714517
 30
0.0
 40
1.75
  0
CIRCLE
  5
C339
330
1F
100
AcDbEntity
  8
3.5
100
AcDbCircle
 10
413.3156364868937
 20
878.8119783714517
 30
0.0
 40
1.75
  0
CIRCLE
  5
C33A
330
1F
100
AcDbEntity
  8
10++
100
AcDbCircle
 10
413.3156364868937
 20
870.8119783714517
 30
0.0
 40
5.099999999999999
  0
CIRCLE
  5
C33B
330
1F
100
AcDbEntity
  8
8.0
100
AcDbCircle
 10
413.3156364868937
 20
893.8119783714517
 30
0.0
 40
4.0
  0
CIRCLE
  5
C33C
330
1F
100
AcDbEntity
  8
8.0
100
AcDbCircle
 10
413.3156364868937
 20
847.8119783714516
 30
0.0
 40
4.0
  0
CIRCLE
  5
C33D
330
1F
100
AcDbEntity
  8
10++
100
AcDbCircle
 10
353.3156364868937
 20
870.8119783714517
 30
0.0
 40
16.0
  0
CIRCLE
  5
C33E
330
1F
100
AcDbEntity
  8
5.5
100
AcDbCircle
 10
338.1128406913831
 20
886.0147741669631
 30
0.0
 40
2.75
  0
CIRCLE
  5
C33F
330
1F
100
AcDbEntity
  8
5.5
100
AcDbCircle
 10
368.5184322824043
 20
855.6091825759411
 30
0.0
 40
2.75
  0
CIRCLE
  5
C340
330
1F
100
AcDbEntity
  8
5.5
100
AcDbCircle
 10
338.1128406913831
 20
855.6091825759411
 30
0.0
 40
2.75
  0
CIRCLE
  5
C341
330
1F
100
AcDbEntity
  8
10++
100
AcDbCircle
 10
473.3156364868936
 20
870.8119783714508
 30
0.0
 40
16.0
  0
CIRCLE
  5
C342
330
1F
100
AcDbEntity
  8
5.5
100
AcDbCircle
 10
458.1128406913822
 20
886.0147741669623
 30
0.0
 40
2.75
  0
CIRCLE
  5
C343
330
1F
100
AcDbEntity
  8
5.5
100
AcDbCircle
 10
488.5184322824043
 20
855.6091825759402
 30
0.0
 40
2.75
  0
CIRCLE
  5
C344
330
1F
100
AcDbEntity
  8
5.5
100
AcDbCircle
 10
458.1128406913831
 20
855.6091825759402
 30
0.0
 40
2.75
  0
CIRCLE
  5
C345
330
1F
100
AcDbEntity
  8
5.5
100
AcDbCircle
 10
488.5184322824043
 20
886.0147741669623
 30
0.0
 40
2.75
  0
CIRCLE
  5
C346
330
1F
100
AcDbEntity
  8
6.0
100
AcDbCircle
 10
507.3156364868942
 20
897.8119783714525
 30
0.0
 40
3.0
  0
CIRCLE
  5
C347
330
1F
100
AcDbEntity
  8
6.0
100
AcDbCircle
 10
507.3156364868942
 20
851.8119783714526
 30
0.0
 40
3.0
  0
CIRCLE
  5
C348
330
1F
100
AcDbEntity
  8
6.0
100
AcDbCircle
 10
319.3156364868937
 20
897.8119783714525
 30
0.0
 40
3.0
  0
CIRCLE
  5
C349
330
1F
100
AcDbEntity
  8
6.0
100
AcDbCircle
 10
319.3156364868937
 20
851.8119783714526
 30
0.0
 40
3.0
  0
LWPOLYLINE
  5
C362
330
1F
100
AcDbEntity
  8
0
100
AcDbPolyline
 90
        6
 70
     1
 43
0.0
 10
-360.1843635131049
 20
1265.811978371452
 10
-475.1843635131044
 20
1265.811978371452
 10
-475.1843635131049
 20
1115.811978371452
 10
-360.1843635131049
 20
1115.811978371452
 42
0.4142135623730951
 10
-350.1843635131049
 20
1125.811978371452
 10
-350.1843635131049
 20
1255.811978371452
 42
0.4142135623730951
  0
CIRCLE
  5
C363
330
1F
100
AcDbEntity
  8
5.0
100
AcDbCircle
 10
-385.1843635131049
 20
1172.561978371452
 30
0.0
 40
2.5
  0
CIRCLE
  5
C364
330
1F
100
AcDbEntity
  8
5.0
100
AcDbCircle
 10
-385.1843635131049
 20
1209.061978371452
 30
0.0
 40
2.5
  0
CIRCLE
  5
C365
330
1F
100
AcDbEntity
  8
10++
100
AcDbCircle
 10
-385.1843635131049
 20
1190.811978371452
 30
0.0
 40
12.9
  0
CIRCLE
  5
C366
330
1F
100
AcDbEntity
  8
5.0
100
AcDbCircle
 10
-400.7728207812252
 20
1124.311978371451
 30
0.0
 40
2.5
  0
CIRCLE
  5
C367
330
1F
100
AcDbEntity
  8
5.0
100
AcDbCircle
 10
-369.5959062449852
 20
1142.311978371451
 30
0.0
 40
2.5
  0
CIRCLE
  5
C368
330
1F
100
AcDbEntity
  8
5.0
100
AcDbCircle
 10
-400.7728207812252
 20
1257.311978371453
 30
0.0
 40
2.5
  0
CIRCLE
  5
C369
330
1F
100
AcDbEntity
  8
5.0
100
AcDbCircle
 10
-369.5959062449852
 20
1239.311978371453
 30
0.0
 40
2.5
  0
CIRCLE
  5
C36A
330
1F
100
AcDbEntity
  8
10++
100
AcDbCircle
 10
-385.1843635131049
 20
1248.311978371453
 30
0.0
 40
6.0
  0
CIRCLE
  5
C36B
330
1F
100
AcDbEntity
  8
10++
100
AcDbCircle
 10
-385.1843635131049
 20
1133.311978371451
 30
0.0
 40
6.0
  0
CIRCLE
  5
C36C
330
1F
100
AcDbEntity
  8
6.0
100
AcDbCircle
 10
-326.6843635131049
 20
1169.811978371451
 30
0.0
 40
3.0
  0
CIRCLE
  5
C36D
330
1F
100
AcDbEntity
  8
6.0
100
AcDbCircle
 10
-326.6843635131049
 20
1123.811978371451
 30
0.0
 40
3.0
  0
CIRCLE
  5
C36E
330
1F
100
AcDbEntity
  8
5.0
100
AcDbCircle
 10
-216.684363513104
 20
1221.400435639571
 30
0.0
 40
2.5
  0
CIRCLE
  5
C36F
330
1F
100
AcDbEntity
  8
6.0
100
AcDbCircle
 10
-203.6843635131049
 20
1123.811978371451
 30
0.0
 40
3.0
  0
CIRCLE
  5
C370
330
1F
100
AcDbEntity
  8
6.0
100
AcDbCircle
 10
-203.6843635131049
 20
1169.811978371451
 30
0.0
 40
3.0
  0
CIRCLE
  5
C371
330
1F
100
AcDbEntity
  8
5.0
100
AcDbCircle
 10
-246.9343635131049
 20
1205.811978371451
 30
0.0
 40
2.5
  0
CIRCLE
  5
C372
330
1F
100
AcDbEntity
  8
5.0
100
AcDbCircle
 10
-283.4343635131049
 20
1205.811978371451
 30
0.0
 40
2.5
  0
CIRCLE
  5
C373
330
1F
100
AcDbEntity
  8
10++
100
AcDbCircle
 10
-265.1843635131049
 20
1205.811978371451
 30
0.0
 40
12.9
  0
CIRCLE
  5
C374
330
1F
100
AcDbEntity
  8
5.0
100
AcDbCircle
 10
-198.684363513104
 20
1190.223521103331
 30
0.0
 40
2.5
  0
CIRCLE
  5
C375
330
1F
100
AcDbEntity
  8
5.0
100
AcDbCircle
 10
-313.6843635131058
 20
1221.400435639571
 30
0.0
 40
2.5
  0
CIRCLE
  5
C376
330
1F
100
AcDbEntity
  8
5.0
100
AcDbCircle
 10
-331.6843635131058
 20
1190.223521103331
 30
0.0
 40
2.5
  0
CIRCLE
  5
C377
330
1F
100
AcDbEntity
  8
10++
100
AcDbCircle
 10
-322.6843635131058
 20
1205.811978371451
 30
0.0
 40
6.0
  0
CIRCLE
  5
C378
330
1F
100
AcDbEntity
  8
10++
100
AcDbCircle
 10
-207.684363513104
 20
1205.811978371451
 30
0.0
 40
6.0
  0
CIRCLE
  5
C379
330
1F
100
AcDbEntity
  8
6.0
100
AcDbCircle
 10
-421.1843635131049
 20
1252.311978371452
 30
0.0
 40
3.0
  0
CIRCLE
  5
C37A
330
1F
100
AcDbEntity
  8
6.0
100
AcDbCircle
 10
-467.1843635131049
 20
1252.311978371452
 30
0.0
 40
3.0
  0
CIRCLE
  5
C37B
330
1F
100
AcDbEntity
  8
6.0
100
AcDbCircle
 10
-467.1843635131049
 20
1129.311978371452
 30
0.0
 40
3.0
  0
CIRCLE
  5
C37C
330
1F
100
AcDbEntity
  8
6.0
100
AcDbCircle
 10
-421.1843635131049
 20
1129.311978371452
 30
0.0
 40
3.0
  0
LWPOLYLINE
  5
C37D
330
1F
100
AcDbEntity
  8
0
100
AcDbPolyline
 90
        6
 70
     1
 43
0.0
 10
-340.1843635131049
 20
1230.811978371451
 10
-340.1843635131049
 20
1115.811978371452
 10
-190.1843635131049
 20
1115.811978371451
 10
-190.1843635131049
 20
1230.811978371451
 42
0.4142135623730951
 10
-200.1843635131049
 20
1240.811978371451
 10
-330.1843635131049
 20
1240.811978371451
 42
0.4142135623730951
  0
CIRCLE
  5
C37E
330
1F
100
AcDbEntity
  8
0
100
AcDbCircle
 10
-288.7543635131046
 20
1229.381978371451
 30
0.0
 40
2.5
  0
CIRCLE
  5
C37F
330
1F
100
AcDbEntity
  8
0
100
AcDbCircle
 10
-241.6143635131052
 20
1182.241978371451
 30
0.0
 40
2.5
  0
CIRCLE
  5
C380
330
1F
100
AcDbEntity
  8
0
100
AcDbCircle
 10
-288.7543635131046
 20
1182.241978371451
 30
0.0
 40
2.5
  0
CIRCLE
  5
C381
330
1F
100
AcDbEntity
  8
0
100
AcDbCircle
 10
-241.6143635131052
 20
1229.381978371451
 30
0.0
 40
2.5
  0
CIRCLE
  5
C382
330
1F
100
AcDbEntity
  8
0
100
AcDbCircle
 10
-361.6143635131048
 20
1214.381978371452
 30
0.0
 40
2.5
  0
CIRCLE
  5
C383
330
1F
100
AcDbEntity
  8
0
100
AcDbCircle
 10
-408.7543635131051
 20
1167.241978371452
 30
0.0
 40
2.5
  0
CIRCLE
  5
C384
330
1F
100
AcDbEntity
  8
0
100
AcDbCircle
 10
-408.7543635131046
 20
1214.381978371452
 30
0.0
 40
2.5
  0
CIRCLE
  5
C385
330
1F
100
AcDbEntity
  8
0
100
AcDbCircle
 10
-361.6143635131048
 20
1167.241978371452
 30
0.0
 40
2.5
  0
LWPOLYLINE
  5
C38A
330
1F
100
AcDbEntity
  8
0
100
AcDbPolyline
 90
       12
 70
     1
 43
0.0
 10
-206.9270042002236
 20
1272.569337684333
 42
-0.1989123673796635
 10
-211.1696448873431
 20
1270.811978371452
 10
-276.1990821388658
 20
1270.811978371452
 42
-0.1989123673796645
 10
-280.4417228259854
 20
1272.569337684333
 10
-281.9270042002236
 20
1274.054619058571
 42
0.1989123673796721
 10
-286.1696448873431
 20
1275.811978371452
 10
-475.1843635131044
 20
1275.811978371452
 10
-475.1843635131044
 20
1355.811978371453
 10
-12.18436351310447
 20
1355.811978371453
 10
-12.18436351310447
 20
1275.811978371453
 10
-201.1990821388658
 20
1275.811978371452
 42
0.1989123673796711
 10
-205.4417228259854
 20
1274.054619058571
  0
CIRCLE
  5
C38B
330
1F
100
AcDbEntity
  8
10.0
100
AcDbCircle
 10
-47.18436351310356
 20
1290.811978371453
 30
0.0
 40
5.0
  0
CIRCLE
  5
C38C
330
1F
100
AcDbEntity
  8
10++
100
AcDbCircle
 10
-343.6843635131045
 20
1305.811978371453
 30
0.0
 40
10.0
  0
CIRCLE
  5
C38D
330
1F
100
AcDbEntity
  8
10.0
100
AcDbCircle
 10
-440.1843635131045
 20
1340.811978371453
 30
0.0
 40
5.0
  0
CIRCLE
  5
C38E
330
1F
100
AcDbEntity
  8
10.0
100
AcDbCircle
 10
-440.1843635131045
 20
1290.811978371453
 30
0.0
 40
5.0
  0
CIRCLE
  5
C38F
330
1F
100
AcDbEntity
  8
10.0
100
AcDbCircle
 10
-458.1843635131044
 20
1315.811978371453
 30
0.0
 40
5.0
  0
CIRCLE
  5
C390
330
1F
100
AcDbEntity
  8
10.0
100
AcDbCircle
 10
-47.18436351310356
 20
1340.811978371453
 30
0.0
 40
5.0
  0
CIRCLE
  5
C391
330
1F
100
AcDbEntity
  8
5.0
100
AcDbCircle
 10
-225.4343635131045
 20
1305.811978371453
 30
0.0
 40
2.5
  0
CIRCLE
  5
C392
330
1F
100
AcDbEntity
  8
10.0
100
AcDbCircle
 10
-29.18436351310356
 20
1315.811978371453
 30
0.0
 40
5.0
  0
CIRCLE
  5
C393
330
1F
100
AcDbEntity
  8
5.0
100
AcDbCircle
 10
-261.9343635131045
 20
1305.811978371453
 30
0.0
 40
2.5
  0
CIRCLE
  5
C394
330
1F
100
AcDbEntity
  8
10++
100
AcDbCircle
 10
-243.6843635131045
 20
1305.811978371453
 30
0.0
 40
12.9
  0
CIRCLE
  5
C395
330
1F
100
AcDbEntity
  8
10++
100
AcDbCircle
 10
-143.6843635131045
 20
1305.811978371453
 30
0.0
 40
10.0
  0
CIRCLE
  5
C396
330
1F
100
AcDbEntity
  8
6.5
100
AcDbCircle
 10
-367.6843635131045
 20
1305.811978371453
 30
0.0
 40
3.25
  0
CIRCLE
  5
C397
330
1F
100
AcDbEntity
  8
6.5
100
AcDbCircle
 10
-319.6843635131045
 20
1305.811978371453
 30
0.0
 40
3.25
  0
CIRCLE
  5
C398
330
1F
100
AcDbEntity
  8
6.5
100
AcDbCircle
 10
-167.6843635131044
 20
1305.811978371453
 30
0.0
 40
3.25
  0
CIRCLE
  5
C399
330
1F
100
AcDbEntity
  8
5.0
100
AcDbCircle
 10
-267.2543635131042
 20
1329.381978371452
 30
0.0
 40
2.5
  0
CIRCLE
  5
C39A
330
1F
100
AcDbEntity
  8
6.5
100
AcDbCircle
 10
-119.6843635131035
 20
1305.811978371453
 30
0.0
 40
3.25
  0
CIRCLE
  5
C39B
330
1F
100
AcDbEntity
  8
5.0
100
AcDbCircle
 10
-267.2543635131042
 20
1282.241978371452
 30
0.0
 40
2.5
  0
CIRCLE
  5
C39C
330
1F
100
AcDbEntity
  8
5.0
100
AcDbCircle
 10
-220.1143635131048
 20
1282.241978371452
 30
0.0
 40
2.5
  0
CIRCLE
  5
C39D
330
1F
100
AcDbEntity
  8
5.0
100
AcDbCircle
 10
-220.1143635131048
 20
1329.381978371452
 30
0.0
 40
2.5
  0
LWPOLYLINE
  5
C3A0
102
{ACAD_REACTORS
330
1012D64
102
}
330
1F
100
AcDbEntity
  8
0
100
AcDbPolyline
 90
       12
 70
     1
 43
0.0
 10
266.0729957997765
 20
1359.054619058572
 42
0.1989123673796635
 10
261.8303551126569
 20
1360.811978371452
 10
196.8009178611341
 20
1360.811978371452
 42
0.1989123673796645
 10
192.5582771740146
 20
1359.054619058572
 10
191.0729957997764
 20
1357.569337684333
 42
-0.1989123673796721
 10
186.8303551126569
 20
1355.811978371452
 10
-2.184363513104472
 20
1355.811978371453
 10
-2.184363513104472
 20
1275.811978371452
 10
460.8156364868955
 20
1275.811978371452
 10
460.8156364868955
 20
1355.811978371452
 10
271.8009178611342
 20
1355.811978371452
 42
-0.1989123673796711
 10
267.5582771740146
 20
1357.569337684333
  0
CIRCLE
  5
C3A1
330
1F
100
AcDbEntity
  8
10.0
100
AcDbCircle
 10
425.8156364868964
 20
1340.811978371452
 30
0.0
 40
5.0
  0
CIRCLE
  5
C3A2
330
1F
100
AcDbEntity
  8
10++
100
AcDbCircle
 10
129.3156364868955
 20
1325.811978371452
 30
0.0
 40
10.0
  0
CIRCLE
  5
C3A3
330
1F
100
AcDbEntity
  8
10.0
100
AcDbCircle
 10
32.81563648689553
 20
1290.811978371452
 30
0.0
 40
5.0
  0
CIRCLE
  5
C3A4
330
1F
100
AcDbEntity
  8
10.0
100
AcDbCircle
 10
32.81563648689553
 20
1340.811978371452
 30
0.0
 40
5.0
  0
CIRCLE
  5
C3A5
330
1F
100
AcDbEntity
  8
10.0
100
AcDbCircle
 10
14.81563648689553
 20
1315.811978371452
 30
0.0
 40
5.0
  0
CIRCLE
  5
C3A6
330
1F
100
AcDbEntity
  8
10.0
100
AcDbCircle
 10
425.8156364868964
 20
1290.811978371452
 30
0.0
 40
5.0
  0
CIRCLE
  5
C3A7
330
1F
100
AcDbEntity
  8
5.0
100
AcDbCircle
 10
247.5656364868955
 20
1325.811978371452
 30
0.0
 40
2.5
  0
CIRCLE
  5
C3A8
330
1F
100
AcDbEntity
  8
10.0
100
AcDbCircle
 10
443.8156364868964
 20
1315.811978371452
 30
0.0
 40
5.0
  0
CIRCLE
  5
C3A9
330
1F
100
AcDbEntity
  8
5.0
100
AcDbCircle
 10
211.0656364868955
 20
1325.811978371452
 30
0.0
 40
2.5
  0
CIRCLE
  5
C3AA
330
1F
100
AcDbEntity
  8
10++
100
AcDbCircle
 10
229.3156364868955
 20
1325.811978371452
 30
0.0
 40
12.9
  0
CIRCLE
  5
C3AB
330
1F
100
AcDbEntity
  8
10++
100
AcDbCircle
 10
329.3156364868955
 20
1325.811978371452
 30
0.0
 40
10.0
  0
CIRCLE
  5
C3AC
330
1F
100
AcDbEntity
  8
6.5
100
AcDbCircle
 10
105.3156364868955
 20
1325.811978371452
 30
0.0
 40
3.25
  0
CIRCLE
  5
C3AD
330
1F
100
AcDbEntity
  8
6.5
100
AcDbCircle
 10
153.3156364868955
 20
1325.811978371452
 30
0.0
 40
3.25
  0
CIRCLE
  5
C3AE
330
1F
100
AcDbEntity
  8
6.5
100
AcDbCircle
 10
305.3156364868955
 20
1325.811978371452
 30
0.0
 40
3.25
  0
CIRCLE
  5
C3AF
330
1F
100
AcDbEntity
  8
5.0
100
AcDbCircle
 10
205.7456364868958
 20
1302.241978371452
 30
0.0
 40
2.5
  0
CIRCLE
  5
C3B0
330
1F
100
AcDbEntity
  8
6.5
100
AcDbCircle
 10
353.3156364868964
 20
1325.811978371452
 30
0.0
 40
3.25
  0
CIRCLE
  5
C3B1
330
1F
100
AcDbEntity
  8
5.0
100
AcDbCircle
 10
205.7456364868958
 20
1349.381978371452
 30
0.0
 40
2.5
  0
CIRCLE
  5
C3B2
330
1F
100
AcDbEntity
  8
5.0
100
AcDbCircle
 10
252.8856364868953
 20
1349.381978371452
 30
0.0
 40
2.5
  0
CIRCLE
  5
C3B3
330
1F
100
AcDbEntity
  8
5.0
100
AcDbCircle
 10
252.8856364868953
 20
1302.241978371452
 30
0.0
 40
2.5
  0
CIRCLE
  5
C3BC
330
1F
100
AcDbEntity
  8
6.0
100
AcDbCircle
 10
-262.6843635131049
 20
892.8119783714517
 30
0.0
 40
3.0
  0
CIRCLE
  5
C3BD
330
1F
100
AcDbEntity
  8
6.0
100
AcDbCircle
 10
-367.6843635131049
 20
892.8119783714517
 30
0.0
 40
3.0
  0
CIRCLE
  5
C3BE
330
1F
100
AcDbEntity
  8
6.0
100
AcDbCircle
 10
-315.1843635131049
 20
892.8119783714517
 30
0.0
 40
3.0
  0
CIRCLE
  5
C3BF
330
1F
100
AcDbEntity
  8
6.0
100
AcDbCircle
 10
-262.6843635131049
 20
998.8119783714518
 30
0.0
 40
3.0
  0
CIRCLE
  5
C3C0
330
1F
100
AcDbEntity
  8
6.0
100
AcDbCircle
 10
-367.6843635131049
 20
998.8119783714518
 30
0.0
 40
3.0
  0
CIRCLE
  5
C3C1
330
1F
100
AcDbEntity
  8
6.0
100
AcDbCircle
 10
-315.1843635131049
 20
998.8119783714518
 30
0.0
 40
3.0
  0
CIRCLE
  5
C3C2
330
1F
100
AcDbEntity
  8
8.0
100
AcDbCircle
 10
-275.184363513104
 20
860.8119783714537
 30
0.0
 40
4.0
  0
CIRCLE
  5
C3C3
330
1F
100
AcDbEntity
  8
8.0
100
AcDbCircle
 10
-355.184363513104
 20
860.8119783714537
 30
0.0
 40
4.0
  0
CIRCLE
  5
C3C4
330
1F
100
AcDbEntity
  8
8.0
100
AcDbCircle
 10
-365.1843635131049
 20
839.8119783714518
 30
0.0
 40
4.0
  0
CIRCLE
  5
C3C5
330
1F
100
AcDbEntity
  8
8.0
100
AcDbCircle
 10
-265.184363513104
 20
839.8119783714518
 30
0.0
 40
4.0
  0
CIRCLE
  5
C3D7
330
1F
100
AcDbEntity
  8
5.5
100
AcDbCircle
 10
368.5184322824043
 20
806.0147741669641
 30
0.0
 40
2.75
  0
LWPOLYLINE
  5
C3D8
330
1F
100
AcDbEntity
  8
0
100
AcDbPolyline
 90
        4
 70
     1
 43
0.0
 10
514.8156364868937
 20
755.8119783714525
 10
311.8156364868937
 20
755.8119783714535
 10
311.8156364868937
 20
825.8119783714516
 10
514.8156364868941
 20
825.8119783714526
  0
CIRCLE
  5
C3D9
330
1F
100
AcDbEntity
  8
3.5
100
AcDbCircle
 10
405.3156364868937
 20
790.8119783714526
 30
0.0
 40
1.75
  0
CIRCLE
  5
C3DA
330
1F
100
AcDbEntity
  8
3.5
100
AcDbCircle
 10
421.3156364868937
 20
790.8119783714526
 30
0.0
 40
1.75
  0
CIRCLE
  5
C3DB
330
1F
100
AcDbEntity
  8
3.5
100
AcDbCircle
 10
413.3156364868937
 20
782.8119783714526
 30
0.0
 40
1.75
  0
CIRCLE
  5
C3DC
330
1F
100
AcDbEntity
  8
3.5
100
AcDbCircle
 10
413.3156364868937
 20
798.8119783714526
 30
0.0
 40
1.75
  0
CIRCLE
  5
C3DD
330
1F
100
AcDbEntity
  8
10++
100
AcDbCircle
 10
413.3156364868937
 20
790.8119783714526
 30
0.0
 40
5.099999999999999
  0
CIRCLE
  5
C3DE
330
1F
100
AcDbEntity
  8
8.0
100
AcDbCircle
 10
413.3156364868937
 20
813.8119783714525
 30
0.0
 40
4.0
  0
CIRCLE
  5
C3DF
330
1F
100
AcDbEntity
  8
8.0
100
AcDbCircle
 10
413.3156364868937
 20
767.8119783714525
 30
0.0
 40
4.0
  0
CIRCLE
  5
C3E0
330
1F
100
AcDbEntity
  8
10++
100
AcDbCircle
 10
353.3156364868937
 20
790.8119783714526
 30
0.0
 40
16.0
  0
CIRCLE
  5
C3E1
330
1F
100
AcDbEntity
  8
5.5
100
AcDbCircle
 10
338.1128406913831
 20
806.0147741669641
 30
0.0
 40
2.75
  0
CIRCLE
  5
C3E2
330
1F
100
AcDbEntity
  8
5.5
100
AcDbCircle
 10
368.5184322824043
 20
775.609182575942
 30
0.0
 40
2.75
  0
CIRCLE
  5
C3E3
330
1F
100
AcDbEntity
  8
5.5
100
AcDbCircle
 10
338.1128406913831
 20
775.609182575942
 30
0.0
 40
2.75
  0
CIRCLE
  5
C3E4
330
1F
100
AcDbEntity
  8
10++
100
AcDbCircle
 10
473.3156364868936
 20
790.8119783714517
 30
0.0
 40
16.0
  0
CIRCLE
  5
C3E5
330
1F
100
AcDbEntity
  8
5.5
100
AcDbCircle
 10
458.1128406913822
 20
806.0147741669632
 30
0.0
 40
2.75
  0
CIRCLE
  5
C3E6
330
1F
100
AcDbEntity
  8
5.5
100
AcDbCircle
 10
488.5184322824043
 20
775.609182575941
 30
0.0
 40
2.75
  0
CIRCLE
  5
C3E7
330
1F
100
AcDbEntity
  8
5.5
100
AcDbCircle
 10
458.1128406913831
 20
775.609182575941
 30
0.0
 40
2.75
  0
CIRCLE
  5
C3E8
330
1F
100
AcDbEntity
  8
5.5
100
AcDbCircle
 10
488.5184322824043
 20
806.0147741669632
 30
0.0
 40
2.75
  0
CIRCLE
  5
C3E9
330
1F
100
AcDbEntity
  8
6.0
100
AcDbCircle
 10
507.3156364868942
 20
817.8119783714535
 30
0.0
 40
3.0
  0
CIRCLE
  5
C3EA
330
1F
100
AcDbEntity
  8
6.0
100
AcDbCircle
 10
507.3156364868942
 20
771.8119783714535
 30
0.0
 40
3.0
  0
CIRCLE
  5
C3EB
330
1F
100
AcDbEntity
  8
6.0
100
AcDbCircle
 10
319.3156364868937
 20
817.8119783714535
 30
0.0
 40
3.0
  0
CIRCLE
  5
C3EC
330
1F
100
AcDbEntity
  8
6.0
100
AcDbCircle
 10
319.3156364868937
 20
771.8119783714535
 30
0.0
 40
3.0
  0
CIRCLE
  5
C3F7
330
1F
100
AcDbEntity
  8
3.5
100
AcDbCircle
 10
189.3156364868937
 20
831.3119783714508
 30
0.0
 40
1.75
  0
CIRCLE
  5
C3F8
330
1F
100
AcDbEntity
  8
10++
100
AcDbCircle
 10
189.3156364868937
 20
765.8119783714498
 30
0.0
 40
10.5
  0
CIRCLE
  5
C3F9
330
1F
100
AcDbEntity
  8
4.5
100
AcDbCircle
 10
200.6293449858776
 20
869.4982698724668
 30
0.0
 40
2.25
  0
LWPOLYLINE
  5
C3FA
330
1F
100
AcDbEntity
  8
0
100
AcDbPolyline
 90
        8
 70
     1
 43
0.0
 10
177.8156364868937
 20
740.8119783714498
 10
225.8156364868937
 20
740.8119783714498
 42
0.4142135623730951
 10
231.8156364868937
 20
746.8119783714499
 10
231.8156364868937
 20
899.8119783714507
 42
0.4142135623730951
 10
225.8156364868937
 20
905.8119783714507
 10
177.8156364868937
 20
905.8119783714507
 42
0.4142135623730951
 10
171.8156364868937
 20
899.8119783714507
 10
171.8156364868937
 20
746.8119783714499
 42
0.4142135623730951
  0
CIRCLE
  5
C3FB
330
1F
100
AcDbEntity
  8
3.5
100
AcDbCircle
 10
189.3156364868937
 20
815.3119783714508
 30
0.0
 40
1.75
  0
CIRCLE
  5
C3FC
330
1F
100
AcDbEntity
  8
10++
100
AcDbCircle
 10
189.3156364868937
 20
880.8119783714507
 30
0.0
 40
10.5
  0
CIRCLE
  5
C3FD
330
1F
100
AcDbEntity
  8
3.5
100
AcDbCircle
 10
197.3156364868937
 20
823.3119783714508
 30
0.0
 40
1.75
  0
CIRCLE
  5
C3FE
330
1F
100
AcDbEntity
  8
3.5
100
AcDbCircle
 10
181.3156364868937
 20
823.3119783714508
 30
0.0
 40
1.75
  0
CIRCLE
  5
C3FF
330
1F
100
AcDbEntity
  8
10++
100
AcDbCircle
 10
189.3156364868937
 20
823.3119783714508
 30
0.0
 40
5.099999999999999
  0
CIRCLE
  5
C400
330
1F
100
AcDbEntity
  8
4.5
100
AcDbCircle
 10
178.0019279879088
 20
892.1256868704356
 30
0.0
 40
2.25
  0
CIRCLE
  5
C401
330
1F
100
AcDbEntity
  8
4.5
100
AcDbCircle
 10
178.0019279879088
 20
754.498269872465
 30
0.0
 40
2.25
  0
CIRCLE
  5
C402
330
1F
100
AcDbEntity
  8
4.5
100
AcDbCircle
 10
200.6293449858786
 20
892.1256868704356
 30
0.0
 40
2.25
  0
CIRCLE
  5
C403
330
1F
100
AcDbEntity
  8
4.5
100
AcDbCircle
 10
178.0019279879088
 20
777.1256868704347
 30
0.0
 40
2.25
  0
CIRCLE
  5
C404
330
1F
100
AcDbEntity
  8
4.5
100
AcDbCircle
 10
178.0019279879088
 20
869.4982698724659
 30
0.0
 40
2.25
  0
CIRCLE
  5
C405
330
1F
100
AcDbEntity
  8
4.5
100
AcDbCircle
 10
200.6293449858786
 20
777.1256868704347
 30
0.0
 40
2.25
  0
CIRCLE
  5
C406
330
1F
100
AcDbEntity
  8
4.5
100
AcDbCircle
 10
200.6293449858776
 20
754.4982698724659
 30
0.0
 40
2.25
  0
CIRCLE
  5
C407
330
1F
100
AcDbEntity
  8
8.0
100
AcDbCircle
 10
217.8156364868937
 20
749.8119783714498
 30
0.0
 40
4.0
  0
CIRCLE
  5
C408
330
1F
100
AcDbEntity
  8
8.0
100
AcDbCircle
 10
217.8156364868937
 20
896.8119783714508
 30
0.0
 40
4.0
  0
CIRCLE
  5
C409
330
1F
100
AcDbEntity
  8
8.0
100
AcDbCircle
 10
181.8156364868928
 20
855.8119783714507
 30
0.0
 40
4.0
  0
CIRCLE
  5
C40A
330
1F
100
AcDbEntity
  8
8.0
100
AcDbCircle
 10
181.8156364868928
 20
790.8119783714498
 30
0.0
 40
4.0
  0
CIRCLE
  5
C40B
330
1F
100
AcDbEntity
  8
6.0
100
AcDbCircle
 10
224.3156364868937
 20
883.3119783714508
 30
0.0
 40
3.0
  0
CIRCLE
  5
C40C
330
1F
100
AcDbEntity
  8
6.0
100
AcDbCircle
 10
224.3156364868937
 20
803.3119783714507
 30
0.0
 40
3.0
  0
CIRCLE
  5
C40D
330
1F
100
AcDbEntity
  8
6.0
100
AcDbCircle
 10
224.3156364868937
 20
763.3119783714498
 30
0.0
 40
3.0
  0
CIRCLE
  5
C40E
330
1F
100
AcDbEntity
  8
6.0
100
AcDbCircle
 10
224.3156364868937
 20
843.3119783714507
 30
0.0
 40
3.0
  0
CIRCLE
  5
C40F
330
1F
100
AcDbEntity
  8
3.5
100
AcDbCircle
 10
284.3156364868946
 20
815.3119783714497
 30
0.0
 40
1.75
  0
CIRCLE
  5
C410
330
1F
100
AcDbEntity
  8
3.5
100
AcDbCircle
 10
284.3156364868946
 20
831.3119783714498
 30
0.0
 40
1.75
  0
CIRCLE
  5
C411
330
1F
100
AcDbEntity
  8
3.5
100
AcDbCircle
 10
292.3156364868946
 20
823.3119783714498
 30
0.0
 40
1.75
  0
CIRCLE
  5
C412
330
1F
100
AcDbEntity
  8
10++
100
AcDbCircle
 10
284.3156364868937
 20
880.8119783714507
 30
0.0
 40
10.5
  0
CIRCLE
  5
C413
330
1F
100
AcDbEntity
  8
3.5
100
AcDbCircle
 10
276.3156364868946
 20
823.3119783714498
 30
0.0
 40
1.75
  0
CIRCLE
  5
C414
330
1F
100
AcDbEntity
  8
10++
100
AcDbCircle
 10
284.3156364868946
 20
823.3119783714498
 30
0.0
 40
5.099999999999999
  0
CIRCLE
  5
C415
330
1F
100
AcDbEntity
  8
10++
100
AcDbCircle
 10
284.3156364868937
 20
765.8119783714498
 30
0.0
 40
10.5
  0
CIRCLE
  5
C416
330
1F
100
AcDbEntity
  8
4.5
100
AcDbCircle
 10
295.6293449858786
 20
777.1256868704347
 30
0.0
 40
2.25
  0
CIRCLE
  5
C417
330
1F
100
AcDbEntity
  8
4.5
100
AcDbCircle
 10
295.6293449858786
 20
754.498269872465
 30
0.0
 40
2.25
  0
CIRCLE
  5
C418
330
1F
100
AcDbEntity
  8
4.5
100
AcDbCircle
 10
273.0019279879089
 20
754.498269872465
 30
0.0
 40
2.25
  0
CIRCLE
  5
C419
330
1F
100
AcDbEntity
  8
4.5
100
AcDbCircle
 10
273.0019279879098
 20
777.1256868704337
 30
0.0
 40
2.25
  0
CIRCLE
  5
C41A
330
1F
100
AcDbEntity
  8
4.5
100
AcDbCircle
 10
295.6293449858786
 20
869.4982698724659
 30
0.0
 40
2.25
  0
CIRCLE
  5
C41B
330
1F
100
AcDbEntity
  8
4.5
100
AcDbCircle
 10
273.0019279879089
 20
869.4982698724659
 30
0.0
 40
2.25
  0
CIRCLE
  5
C41C
330
1F
100
AcDbEntity
  8
4.5
100
AcDbCircle
 10
273.0019279879098
 20
892.1256868704347
 30
0.0
 40
2.25
  0
CIRCLE
  5
C41D
330
1F
100
AcDbEntity
  8
4.5
100
AcDbCircle
 10
295.6293449858786
 20
892.1256868704356
 30
0.0
 40
2.25
  0
CIRCLE
  5
C41E
330
1F
100
AcDbEntity
  8
8.0
100
AcDbCircle
 10
255.8156364868937
 20
749.8119783714498
 30
0.0
 40
4.0
  0
CIRCLE
  5
C41F
330
1F
100
AcDbEntity
  8
8.0
100
AcDbCircle
 10
255.8156364868937
 20
896.8119783714508
 30
0.0
 40
4.0
  0
CIRCLE
  5
C420
330
1F
100
AcDbEntity
  8
8.0
100
AcDbCircle
 10
291.8156364868946
 20
790.8119783714498
 30
0.0
 40
4.0
  0
CIRCLE
  5
C421
330
1F
100
AcDbEntity
  8
8.0
100
AcDbCircle
 10
291.8156364868946
 20
855.8119783714507
 30
0.0
 40
4.0
  0
CIRCLE
  5
C422
330
1F
100
AcDbEntity
  8
6.0
100
AcDbCircle
 10
249.3156364868937
 20
763.3119783714498
 30
0.0
 40
3.0
  0
CIRCLE
  5
C423
330
1F
100
AcDbEntity
  8
6.0
100
AcDbCircle
 10
249.3156364868937
 20
843.3119783714499
 30
0.0
 40
3.0
  0
CIRCLE
  5
C424
330
1F
100
AcDbEntity
  8
6.0
100
AcDbCircle
 10
249.3156364868937
 20
883.3119783714508
 30
0.0
 40
3.0
  0
CIRCLE
  5
C425
330
1F
100
AcDbEntity
  8
6.0
100
AcDbCircle
 10
249.3156364868937
 20
803.3119783714498
 30
0.0
 40
3.0
  0
LWPOLYLINE
  5
C426
102
{ACAD_REACTORS
330
1012D64
102
}
330
1F
100
AcDbEntity
  8
0
100
AcDbPolyline
 90
        8
 70
     1
 43
0.0
 10
295.8156364868937
 20
905.8119783714507
 10
247.8156364868937
 20
905.8119783714507
 42
0.4142135623730951
 10
241.8156364868937
 20
899.8119783714507
 10
241.8156364868937
 20
746.8119783714499
 42
0.4142135623730951
 10
247.8156364868937
 20
740.8119783714498
 10
295.8156364868937
 20
740.8119783714498
 42
0.4142135623730951
 10
301.8156364868937
 20
746.8119783714499
 10
301.8156364868937
 20
899.8119783714507
 42
0.4142135623730951
  0
LWPOLYLINE
  5
C431
330
1F
100
AcDbEntity
  8
0
100
AcDbPolyline
 90
        8
 70
     1
 43
0.0
 10
-384.1843635131058
 20
760.8119783714499
 10
-316.1843635131059
 20
760.8119783714518
 42
0.4142135623730951
 10
-310.1843635131058
 20
766.8119783714518
 10
-310.1843635131058
 20
784.8119783714517
 42
0.4142135623730951
 10
-316.1843635131059
 20
790.8119783714518
 10
-384.1843635131068
 20
790.8119783714518
 42
0.4142135623730838
 10
-390.1843635131058
 20
784.8119783714508
 10
-390.1843635131058
 20
766.8119783714518
 42
0.4142135623730951
  0
CIRCLE
  5
C432
330
1F
100
AcDbEntity
  8
8.5
100
AcDbCircle
 10
-360.1843635131058
 20
775.8119783714517
 30
0.0
 40
4.25
  0
LWPOLYLINE
  5
C448
330
1F
100
AcDbEntity
  8
0
100
AcDbPolyline
 90
        8
 70
     1
 43
0.0
 10
470.8156364868955
 20
1349.811978371452
 10
470.8156364868973
 20
1281.811978371452
 42
0.4142135623730951
 10
476.8156364868973
 20
1275.811978371452
 10
494.8156364868973
 20
1275.811978371452
 42
0.4142135623730951
 10
500.8156364868973
 20
1281.811978371452
 10
500.8156364868973
 20
1349.811978371453
 42
0.4142135623730838
 10
494.8156364868964
 20
1355.811978371452
 10
476.8156364868973
 20
1355.811978371452
 42
0.4142135623730951
  0
CIRCLE
  5
C449
330
1F
100
AcDbEntity
  8
8.5
100
AcDbCircle
 10
485.8156364868973
 20
1325.811978371452
 30
0.0
 40
4.25
  0
DIMENSION
  5
C450
330
1F
100
AcDbEntity
  8
dim
100
AcDbDimension
280
     0
  2
*D2
 10
514.8156364868945
 20
1463.637934244211
 30
0.0
 11
19.81563648689507
 21
1471.921529060037
 31
0.0
 70
    32
 71
     5
 42
989.9999999999991
 73
     0
 74
     0
 75
     0
  3
ISO-25
100
AcDbAlignedDimension
 13
-475.1843635131044
 23
1386.425009058617
 33
0.0
 14
514.8156364868945
 24
1366.425009058616
 34
0.0
100
AcDbRotatedDimension
1001
ACAD
1000
DSTYLE
1002
{
1070
   141
1040
21.21320343559643
1002
}
  0
LWPOLYLINE
  5
E83A
330
1F
100
AcDbEntity
  8
0
100
AcDbPolyline
 90
        8
 70
     1
 43
0.0
 10
-240.1843635131058
 20
810.8119783714517
 10
-240.1843635131058
 20
1010.811978371451
 42
0.4142135623730951
 10
-250.1843635131058
 20
1020.811978371452
 10
-380.1843635131058
 20
1020.811978371452
 42
0.4142135623730951
 10
-390.1843635131058
 20
1010.811978371451
 10
-390.1843635131058
 20
810.8119783714517
 42
0.4142135623730951
 10
-380.1843635131058
 20
800.8119783714517
 10
-250.1843635131058
 20
800.8119783714517
 42
0.4142135623730951
  0
CIRCLE
  5
E85B
330
1F
100
AcDbEntity
  8
5.0
100
AcDbCircle
 10
88.278440556423
 20
924.8119783714518
 30
0.0
 40
2.5
  0
CIRCLE
  5
E85C
330
1F
100
AcDbEntity
  8
5.0
100
AcDbCircle
 10
51.77844055642299
 20
924.8119783714518
 30
0.0
 40
2.5
  0
CIRCLE
  5
E85D
330
1F
100
AcDbEntity
  8
10.0
100
AcDbCircle
 10
32.73534688216887
 20
790.8119783714518
 30
0.0
 40
5.0
  0
CIRCLE
  5
E85E
330
1F
100
AcDbEntity
  8
10.0
100
AcDbCircle
 10
7.125590784607993
 20
1000.811978371451
 30
0.0
 40
5.0
  0
CIRCLE
  5
E85F
330
1F
100
AcDbEntity
  8
10++
100
AcDbCircle
 10
70.02844055642345
 20
864.8119783714518
 30
0.0
 40
10.0
  0
CIRCLE
  5
E86B
330
1F
100
AcDbEntity
  8
10++
100
AcDbCircle
 10
70.02844055642436
 20
984.8119783714517
 30
0.0
 40
10.0
  0
CIRCLE
  5
E873
330
1F
100
AcDbEntity
  8
0
100
AcDbCircle
 10
94.02844055642436
 20
984.8119783714517
 30
0.0
 40
3.5
  0
CIRCLE
  5
E874
330
1F
100
AcDbEntity
  8
6.5
100
AcDbCircle
 10
94.02844055642436
 20
984.8119783714517
 30
0.0
 40
3.25
  0
CIRCLE
  5
E875
330
1F
100
AcDbEntity
  8
0
100
AcDbCircle
 10
46.02844055642435
 20
984.8119783714517
 30
0.0
 40
3.5
  0
CIRCLE
  5
E876
330
1F
100
AcDbEntity
  8
6.5
100
AcDbCircle
 10
46.02844055642435
 20
984.8119783714517
 30
0.0
 40
3.25
  0
CIRCLE
  5
E877
330
1F
100
AcDbEntity
  8
10++
100
AcDbCircle
 10
70.02844055642299
 20
924.8119783714518
 30
0.0
 40
12.9
  0
CIRCLE
  5
E878
330
1F
100
AcDbEntity
  8
5.0
100
AcDbCircle
 10
46.45844055642283
 20
901.2419783714516
 30
0.0
 40
2.5
  0
CIRCLE
  5
E879
330
1F
100
AcDbEntity
  8
5.0
100
AcDbCircle
 10
93.59844055642316
 20
948.3819783714515
 30
0.0
 40
2.5
  0
CIRCLE
  5
E87A
330
1F
100
AcDbEntity
  8
5.0
100
AcDbCircle
 10
93.5984405564227
 20
901.2419783714516
 30
0.0
 40
2.5
  0
CIRCLE
  5
E87B
330
1F
100
AcDbEntity
  8
5.0
100
AcDbCircle
 10
46.45844055642283
 20
948.3819783714515
 30
0.0
 40
2.5
  0
CIRCLE
  5
E87E
330
1F
100
AcDbEntity
  8
10.0
100
AcDbCircle
 10
107.3215342306776
 20
790.8119783714511
 30
0.0
 40
5.0
  0
CIRCLE
  5
E8A9
330
1F
100
AcDbEntity
  8
10.0
100
AcDbCircle
 10
0.0284405564239023
 20
1245.811978371452
 30
0.0
 40
5.0
  0
CIRCLE
  5
E8AC
330
1F
100
AcDbEntity
  8
10.0
100
AcDbCircle
 10
0.0284405564239023
 20
1205.811978371452
 30
0.0
 40
5.0
  0
CIRCLE
  5
E8AF
330
1F
100
AcDbEntity
  8
10.0
100
AcDbCircle
 10
70.0284405564239
 20
1245.811978371452
 30
0.0
 40
5.0
  0
CIRCLE
  5
E8B2
330
1F
100
AcDbEntity
  8
10.0
100
AcDbCircle
 10
70.0284405564239
 20
1205.811978371452
 30
0.0
 40
5.0
  0
CIRCLE
  5
E8B5
330
1F
100
AcDbEntity
  8
10.0
100
AcDbCircle
 10
140.0284405564239
 20
1245.811978371452
 30
0.0
 40
5.0
  0
CIRCLE
  5
E8B8
330
1F
100
AcDbEntity
  8
10.0
100
AcDbCircle
 10
140.0284405564239
 20
1205.811978371452
 30
0.0
 40
5.0
  0
CIRCLE
  5
E8BD
330
1F
100
AcDbEntity
  8
6.5
100
AcDbCircle
 10
94.02844055642345
 20
864.8119783714518
 30
0.0
 40
3.25
  0
CIRCLE
  5
E8BE
330
1F
100
AcDbEntity
  8
6.5
100
AcDbCircle
 10
46.02844055642345
 20
864.8119783714518
 30
0.0
 40
3.25
  0
LWPOLYLINE
  5
E8C2
330
1F
100
AcDbEntity
  8
0
100
AcDbPolyline
 90
        8
 70
     1
 43
0.0
 10
-29.97155944357655
 20
1185.811978371452
 10
18.9565556482662
 20
784.6014346183403
 42
0.3791008518982452
 10
28.88301442377133
 20
775.8119783714517
 10
111.1738666890746
 20
775.8119783714511
 42
0.3791008518982452
 10
121.1003254645802
 20
784.6014346183407
 10
170.0284405564239
 20
1185.811978371452
 10
170.0284405564239
 20
1265.811978371452
 10
-29.9715594435761
 20
1265.811978371452
  0
CIRCLE
  5
E8C5
330
1F
100
AcDbEntity
  8
5.0
100
AcDbCircle
 10
-128.4343635131049
 20
1116.811978371452
 30
0.0
 40
2.5
  0
CIRCLE
  5
E8C6
330
1F
100
AcDbEntity
  8
5.0
100
AcDbCircle
 10
-91.93436351310493
 20
1116.811978371452
 30
0.0
 40
2.5
  0
CIRCLE
  5
E8C7
330
1F
100
AcDbEntity
  8
10.0
100
AcDbCircle
 10
-72.8912698388508
 20
1250.811978371452
 30
0.0
 40
5.0
  0
CIRCLE
  5
E8C8
330
1F
100
AcDbEntity
  8
10.0
100
AcDbCircle
 10
-47.28151374128993
 20
1040.811978371452
 30
0.0
 40
5.0
  0
CIRCLE
  5
E8C9
330
1F
100
AcDbEntity
  8
10++
100
AcDbCircle
 10
-110.1843635131054
 20
1176.811978371452
 30
0.0
 40
10.0
  0
CIRCLE
  5
E8CA
330
1F
100
AcDbEntity
  8
10++
100
AcDbCircle
 10
-110.1843635131063
 20
1056.811978371452
 30
0.0
 40
10.0
  0
CIRCLE
  5
E8CB
330
1F
100
AcDbEntity
  8
0
100
AcDbCircle
 10
-134.1843635131063
 20
1056.811978371452
 30
0.0
 40
3.5
  0
CIRCLE
  5
E8CC
330
1F
100
AcDbEntity
  8
6.5
100
AcDbCircle
 10
-134.1843635131063
 20
1056.811978371452
 30
0.0
 40
3.25
  0
CIRCLE
  5
E8CD
330
1F
100
AcDbEntity
  8
0
100
AcDbCircle
 10
-86.18436351310629
 20
1056.811978371452
 30
0.0
 40
3.5
  0
CIRCLE
  5
E8CE
330
1F
100
AcDbEntity
  8
6.5
100
AcDbCircle
 10
-86.18436351310629
 20
1056.811978371452
 30
0.0
 40
3.25
  0
CIRCLE
  5
E8CF
330
1F
100
AcDbEntity
  8
10++
100
AcDbCircle
 10
-110.1843635131049
 20
1116.811978371452
 30
0.0
 40
12.9
  0
CIRCLE
  5
E8D0
330
1F
100
AcDbEntity
  8
5.0
100
AcDbCircle
 10
-86.61436351310475
 20
1140.381978371452
 30
0.0
 40
2.5
  0
CIRCLE
  5
E8D1
330
1F
100
AcDbEntity
  8
5.0
100
AcDbCircle
 10
-133.7543635131051
 20
1093.241978371452
 30
0.0
 40
2.5
  0
CIRCLE
  5
E8D2
330
1F
100
AcDbEntity
  8
5.0
100
AcDbCircle
 10
-133.7543635131046
 20
1140.381978371452
 30
0.0
 40
2.5
  0
CIRCLE
  5
E8D3
330
1F
100
AcDbEntity
  8
5.0
100
AcDbCircle
 10
-86.61436351310475
 20
1093.241978371452
 30
0.0
 40
2.5
  0
CIRCLE
  5
E8D4
330
1F
100
AcDbEntity
  8
10.0
100
AcDbCircle
 10
-147.4774571873595
 20
1250.811978371453
 30
0.0
 40
5.0
  0
CIRCLE
  5
E8D5
330
1F
100
AcDbEntity
  8
10.0
100
AcDbCircle
 10
-40.18436351310583
 20
795.811978371452
 30
0.0
 40
5.0
  0
CIRCLE
  5
E8D6
330
1F
100
AcDbEntity
  8
10.0
100
AcDbCircle
 10
-40.18436351310583
 20
835.8119783714521
 30
0.0
 40
5.0
  0
CIRCLE
  5
E8D7
330
1F
100
AcDbEntity
  8
10.0
100
AcDbCircle
 10
-110.1843635131058
 20
795.811978371452
 30
0.0
 40
5.0
  0
CIRCLE
  5
E8D8
330
1F
100
AcDbEntity
  8
10.0
100
AcDbCircle
 10
-110.1843635131058
 20
835.8119783714521
 30
0.0
 40
5.0
  0
CIRCLE
  5
E8D9
330
1F
100
AcDbEntity
  8
10.0
100
AcDbCircle
 10
-180.1843635131058
 20
795.811978371452
 30
0.0
 40
5.0
  0
CIRCLE
  5
E8DA
330
1F
100
AcDbEntity
  8
10.0
100
AcDbCircle
 10
-180.1843635131058
 20
835.8119783714521
 30
0.0
 40
5.0
  0
LWPOLYLINE
  5
E8DB
330
1F
100
AcDbEntity
  8
0
100
AcDbPolyline
 90
        8
 70
     1
 43
0.0
 10
-10.18436351310538
 20
855.8119783714518
 10
-59.11247860494814
 20
1257.022522124564
 42
0.3791008518982452
 10
-69.03893738045326
 20
1265.811978371452
 10
-151.3297896457566
 20
1265.811978371453
 42
0.3791008518982452
 10
-161.2562484212622
 20
1257.022522124563
 10
-210.1843635131058
 20
855.811978371452
 10
-210.1843635131058
 20
775.811978371452
 10
-10.18436351310583
 20
775.811978371452
  0
CIRCLE
  5
E8DC
330
1F
100
AcDbEntity
  8
6.5
100
AcDbCircle
 10
-134.1843635131054
 20
1176.811978371452
 30
0.0
 40
3.25
  0
CIRCLE
  5
E8DD
330
1F
100
AcDbEntity
  8
6.5
100
AcDbCircle
 10
-86.18436351310538
 20
1176.811978371452
 30
0.0
 40
3.25
  0
LWPOLYLINE
  5
E976
330
1F
100
AcDbEntity
  8
0
100
AcDbPolyline
 90
        8
 70
     1
 43
0.0
 10
-294.1843635131058
 20
760.8119783714499
 10
-226.1843635131058
 20
760.8119783714518
 42
0.4142135623730951
 10
-220.1843635131059
 20
766.8119783714518
 10
-220.1843635131059
 20
784.8119783714517
 42
0.4142135623730951
 10
-226.1843635131058
 20
790.8119783714518
 10
-294.1843635131068
 20
790.8119783714518
 42
0.4142135623730838
 10
-300.1843635131058
 20
784.8119783714508
 10
-300.1843635131058
 20
766.8119783714518
 42
0.4142135623730951
  0
CIRCLE
  5
E977
330
1F
100
AcDbEntity
  8
8.5
100
AcDbCircle
 10
-270.1843635131059
 20
775.8119783714517
 30
0.0
 40
4.25
  0
CIRCLE
  5
EB84
330
1F
100
AcDbEntity
  8
10.0
100
AcDbCircle
 10
-173.0872132849213
 20
1040.811978371452
 30
0.0
 40
5.0
  0
CIRCLE
  5
EB88
330
1F
100
AcDbEntity
  8
10.0
100
AcDbCircle
 10
132.9312903282398
 20
1000.811978371451
 30
0.0
 40
5.0
  0
TEXT
  5
1012B5C
330
1F
100
AcDbEntity
  8
dim
100
AcDbText
 10
60.9378285500934
 20
1098.203591486446
 30
0.0
 40
20.0
  1
2
100
AcDbText
  0
CIRCLE
  5
1012B63
330
1F
100
AcDbEntity
  8
dim
100
AcDbCircle
 10
68.7971472092504
 20
1106.968588484393
 30
0.0
 40
20.0
  0
TEXT
  5
1012B64
330
1F
100
AcDbEntity
  8
dim
100
AcDbText
 10
-120.401343175974
 20
946.8720080937673
 30
0.0
 40
20.0
  1
2
100
AcDbText
  0
CIRCLE
  5
1012B65
330
1F
100
AcDbEntity
  8
dim
100
AcDbCircle
 10
-112.542024516817
 20
955.637005091714
 30
0.0
 40
20.0
  0
TEXT
  5
1012B66
330
1F
100
AcDbEntity
  8
dim
100
AcDbText
 10
-408.1979629569104
 20
1307.083802823545
 30
0.0
 40
20.0
  1
1
100
AcDbText
  0
CIRCLE
  5
1012B67
330
1F
100
AcDbEntity
  8
dim
100
AcDbCircle
 10
-400.3386442977534
 20
1315.848799821491
 30
0.0
 40
20.0
  0
TEXT
  5
1012B6A
330
1F
100
AcDbEntity
  8
dim
100
AcDbText
 10
345.682508769054
 20
1163.27664738521
 30
0.0
 40
20.0
  1
5
100
AcDbText
  0
CIRCLE
  5
1012B6B
330
1F
100
AcDbEntity
  8
dim
100
AcDbCircle
 10
353.541827428211
 20
1172.041644383157
 30
0.0
 40
20.0
  0
TEXT
  5
1012B6C
330
1F
100
AcDbEntity
  8
dim
100
AcDbText
 10
64.15004069082534
 20
1306.723959657467
 30
0.0
 40
20.0
  1
1
100
AcDbText
  0
CIRCLE
  5
1012B6D
330
1F
100
AcDbEntity
  8
dim
100
AcDbCircle
 10
72.00935934998233
 20
1315.488956655414
 30
0.0
 40
20.0
  0
TEXT
  5
1012B71
330
1F
100
AcDbEntity
  8
dim
100
AcDbText
 10
534.3651537609093
 20
859.4354869346298
 30
0.0
 40
20.0
  1
3
100
AcDbText
  0
CIRCLE
  5
1012B72
330
1F
100
AcDbEntity
  8
dim
100
AcDbCircle
 10
542.2244724200663
 20
868.2004839325763
 30
0.0
 40
20.0
  0
TEXT
  5
1012B73
330
1F
100
AcDbEntity
  8
dim
100
AcDbText
 10
533.4771572773661
 20
786.6870658115749
 30
0.0
 40
20.0
  1
3
100
AcDbText
  0
CIRCLE
  5
1012B74
330
1F
100
AcDbEntity
  8
dim
100
AcDbCircle
 10
541.3364759365231
 20
795.4520628095215
 30
0.0
 40
20.0
  0
TEXT
  5
1012B75
330
1F
100
AcDbEntity
  8
dim
100
AcDbText
 10
-272.2460787383861
 20
1140.412547183793
 30
0.0
 40
20.0
  1
4
100
AcDbText
  0
CIRCLE
  5
1012B76
330
1F
100
AcDbEntity
  8
dim
100
AcDbCircle
 10
-264.3867600792291
 20
1149.17754418174
 30
0.0
 40
20.0
  0
TEXT
  5
1012B77
330
1F
100
AcDbEntity
  8
dim
100
AcDbText
 10
-450.9875940292822
 20
1183.162636690047
 30
0.0
 40
20.0
  1
4
100
AcDbText
  0
CIRCLE
  5
1012B78
330
1F
100
AcDbEntity
  8
dim
100
AcDbCircle
 10
-443.1282753701252
 20
1191.927633687994
 30
0.0
 40
20.0
  0
TEXT
  5
1012B79
330
1F
100
AcDbEntity
  8
dim
100
AcDbText
 10
-509.0058150146306
 20
1062.193818875445
 30
0.0
 40
20.0
  1
6
100
AcDbText
  0
CIRCLE
  5
1012B7A
330
1F
100
AcDbEntity
  8
dim
100
AcDbCircle
 10
-501.1464963554735
 20
1070.958815873391
 30
0.0
 40
20.0
  0
TEXT
  5
1012B7B
330
1F
100
AcDbEntity
  8
dim
100
AcDbText
 10
-509.9490672268148
 20
877.4845462074154
 30
0.0
 40
20.0
  1
6
100
AcDbText
  0
CIRCLE
  5
1012B7C
330
1F
100
AcDbEntity
  8
dim
100
AcDbCircle
 10
-502.0897485676577
 20
886.249543205362
 30
0.0
 40
20.0
  0
TEXT
  5
1012B7D
330
1F
100
AcDbEntity
  8
dim
100
AcDbText
 10
195.8727100067335
 20
707.6363793774308
 30
0.0
 40
20.0
  1
7
100
AcDbText
  0
CIRCLE
  5
1012B7E
330
1F
100
AcDbEntity
  8
dim
100
AcDbCircle
 10
203.7320286658905
 20
716.4013763753773
 30
0.0
 40
20.0
  0
TEXT
  5
1012B7F
330
1F
100
AcDbEntity
  8
dim
100
AcDbText
 10
263.3014945984596
 20
707.1872695917582
 30
0.0
 40
20.0
  1
7
100
AcDbText
  0
CIRCLE
  5
1012B80
330
1F
100
AcDbEntity
  8
dim
100
AcDbCircle
 10
271.1608132576166
 20
715.9522665897047
 30
0.0
 40
20.0
  0
TEXT
  5
1012B81
330
1F
100
AcDbEntity
  8
dim
100
AcDbText
 10
-322.5634124071639
 20
937.4885576398556
 30
0.0
 40
20.0
  1
8
100
AcDbText
  0
CIRCLE
  5
1012B82
330
1F
100
AcDbEntity
  8
dim
100
AcDbCircle
 10
-314.7040937480069
 20
946.253554637802
 30
0.0
 40
20.0
  0
DIMENSION
  5
1012D4D
102
{ACAD_XDICTIONARY
360
1012D5A
102
}
102
{ACAD_REACTORS
330
1012D64
102
}
330
1F
100
AcDbEntity
  8
dim
100
AcDbDimension
280
     0
  2
*D6
 10
587.0411119518545
 20
740.8119783714501
 30
0.0
 11
578.7575171360292
 21
1050.811978371451
 31
0.0
 70
    32
 71
     5
 42
620.0000000000029
 73
     0
 74
     0
 75
     0
  3
ISO-25
100
AcDbAlignedDimension
 13
261.8303551126569
 23
1360.811978371452
 33
0.0
 14
295.8156364868937
 24
740.8119783714498
 34
0.0
 50
90.0
100
AcDbRotatedDimension
1001
ACAD
1000
DSTYLE
1002
{
1070
   141
1040
21.21320343559643
1002
}
  0
VIEWPORT
  5
10117D2
102
{ACAD_XDICTIONARY
360
10117D3
102
}
330
D2
100
AcDbEntity
 67
     1
  8
0
100
AcDbViewport
 10
128.5
 20
97.5
 30
0.0
 40
513.5567729831144
 41
222.18
 68
     1
 69
     1
 12
128.5
 22
97.5
 13
0.0
 23
0.0
 14
10.0
 24
10.0
 15
10.0
 25
10.0
 16
0.0
 26
0.0
 36
1.0
 17
0.0
 27
0.0
 37
0.0
 42
50.0
 43
0.0
 44
0.0
 45
222.18
 50
0.0
 51
0.0
 72
  1000
 90
   819232
  1

281
     0
 71
     1
 74
     0
110
0.0
120
0.0
130
0.0
111
1.0
121
0.0
131
0.0
112
0.0
122
1.0
132
0.0
 79
     0
146
0.0
170
     0
 61
     5
348
F5
292
     1
282
     1
141
0.0
142
0.0
 63
   250
421
  3355443
  0
VIEWPORT
  5
10117D6
102
{ACAD_XDICTIONARY
360
10117D7
102
}
330
D2
100
AcDbEntity
 67
     1
  8
dim
100
AcDbViewport
 10
128.5
 20
97.5
 30
0.0
 40
205.6
 41
156.0
 68
     2
 69
     2
 12
-381.4811891291311
 22
1541.984223466476
 13
0.0
 23
0.0
 14
10.0
 24
10.0
 15
10.0
 25
10.0
 16
0.0
 26
0.0
 36
1.0
 17
0.0
 27
0.0
 37
0.0
 42
50.0
 43
0.0
 44
0.0
 45
5388.965812347842
 50
0.0
 51
0.0
 72
  1000
331
ACC8
 90
   819808
  1

281
     0
 71
     1
 74
     0
110
0.0
120
0.0
130
0.0
111
1.0
121
0.0
131
0.0
112
0.0
122
1.0
132
0.0
 79
     0
146
0.0
170
     0
 61
     5
348
F5
292
     1
282
     1
141
0.0
142
0.0
 63
   250
421
  3355443
  0
ENDSEC
  0
SECTION
  2
OBJECTS
  0
DICTIONARY
  5
C
330
0
100
AcDbDictionary
281
     1
  3
ACAD_BACKGROUND
350
64FA
  3
ACAD_CIP_PREVIOUS_PRODUCT_INFO
350
216
  3
ACAD_COLOR
350
6B
  3
ACAD_DETAILVIEWSTYLE
350
21B
  3
ACAD_GROUP
350
D
  3
ACAD_LAYOUT
350
1A
  3
ACAD_MATERIAL
350
6A
  3
ACAD_MLEADERSTYLE
350
12D
  3
ACAD_MLINESTYLE
350
17
  3
ACAD_PLOTSETTINGS
350
19
  3
ACAD_PLOTSTYLENAME
350
E
  3
ACAD_SCALELIST
350
10C
  3
ACAD_SECTIONVIEWSTYLE
350
219
  3
ACAD_TABLESTYLE
350
7E
  3
ACAD_VISUALSTYLE
350
EF
  3
ACDB_RECOMPOSE_DATA
350
1012D93
  3
AcDbVariableDictionary
350
5E
  0
DICTIONARY
  5
1FF
330
2
100
AcDbDictionary
280
     1
281
     1
  3
ACAD_LAYERSTATES
360
200
  0
DICTIONARY
  5
13C
330
10
100
AcDbDictionary
280
     1
281
     1
  0
DICTIONARY
  5
1CE
330
1F
100
AcDbDictionary
280
     1
281
     1
  3
ACAD_SORTENTS
360
24A
  0
DICTIONARY
  5
651A
330
64FD
100
AcDbDictionary
280
     1
281
     1
  3
ACAD_SORTENTS
360
651B
  0
DICTIONARY
  5
1012D5A
330
1012D4D
100
AcDbDictionary
280
     1
281
     1
  3
ACAD_DIMASSOC
360
1012D64
  0
DICTIONARY
  5
10117D3
330
10117D2
100
AcDbDictionary
280
     1
281
     1
  3
ASDK_XREC_ANNOTATION_SCALE_INFO
360
10117D4
  0
DICTIONARY
  5
10117D7
330
10117D6
100
AcDbDictionary
280
     1
281
     1
  3
ASDK_XREC_ANNOTATION_SCALE_INFO
360
10117D8
  0
DICTIONARY
  5
64FA
102
{ACAD_REACTORS
330
C
102
}
330
C
100
AcDbDictionary
281
     1
  0
XRECORD
  5
216
102
{ACAD_REACTORS
330
C
102
}
330
C
100
AcDbXrecord
280
     1
300
ACD
300
2017
300
ACD_F_S
  0
DICTIONARY
  5
6B
102
{ACAD_REACTORS
330
C
102
}
330
C
100
AcDbDictionary
281
     1
  0
DICTIONARY
  5
21B
102
{ACAD_REACTORS
330
C
102
}
330
C
100
AcDbDictionary
281
     1
  3
Metric50
350
21C
  0
DICTIONARY
  5
D
102
{ACAD_REACTORS
330
C
102
}
330
C
100
AcDbDictionary
281
     1
  0
DICTIONARY
  5
1A
102
{ACAD_REACTORS
330
C
102
}
330
C
100
AcDbDictionary
281
     1
  3
Layout1
350
D3
  3
Layout2
350
D7
  3
Model
350
22
  0
DICTIONARY
  5
6A
102
{ACAD_REACTORS
330
C
102
}
330
C
100
AcDbDictionary
281
     1
  3
ByBlock
350
ED
  3
ByLayer
350
EC
  3
Global
350
EE
  0
DICTIONARY
  5
12D
102
{ACAD_REACTORS
330
C
102
}
330
C
100
AcDbDictionary
281
     1
  3
Annotative
350
13B
  3
Standard
350
12E
  0
DICTIONARY
  5
17
102
{ACAD_REACTORS
330
C
102
}
330
C
100
AcDbDictionary
281
     1
  3
Standard
350
18
  0
DICTIONARY
  5
19
102
{ACAD_REACTORS
330
C
102
}
330
C
100
AcDbDictionary
281
     1
  3
Setup1
350
CB7F
  0
ACDBDICTIONARYWDFLT
  5
E
102
{ACAD_REACTORS
330
C
102
}
330
C
100
AcDbDictionary
281
     1
  3
Normal
350
F
100
AcDbDictionaryWithDefault
340
F
  0
DICTIONARY
  5
10C
102
{ACAD_REACTORS
330
C
102
}
330
C
100
AcDbDictionary
281
     1
  3
A0
350
10D
  3
A1
350
1BE
  3
A2
350
1BF
  3
A3
350
1C0
  3
A4
350
1C1
  3
A5
350
1C2
  3
A6
350
1C3
  3
A7
350
1C4
  3
A8
350
1C5
  3
A9
350
1C6
  3
B0
350
1C7
  3
B1
350
1C8
  3
B2
350
1C9
  3
B3
350
1CA
  3
B4
350
1CB
  3
B5
350
1CC
  3
B6
350
1CD
  0
DICTIONARY
  5
219
102
{ACAD_REACTORS
330
C
102
}
330
C
100
AcDbDictionary
281
     1
  3
Metric50
350
21A
  0
DICTIONARY
  5
7E
102
{ACAD_REACTORS
330
C
102
}
330
C
100
AcDbDictionary
281
     1
  3
Standard
350
7F
  0
DICTIONARY
  5
EF
102
{ACAD_REACTORS
330
C
102
}
330
C
100
AcDbDictionary
281
     1
  3
2dWireframe
350
F5
  3
Basic
350
F4
  3
Brighten
350
FB
  3
ColorChange
350
FF
  3
Conceptual
350
F8
  3
Dim
350
FA
  3
EdgeColorOff
350
1E6
  3
Facepattern
350
FE
  3
Flat
350
F0
  3
FlatWithEdges
350
F1
  3
Gouraud
350
F2
  3
GouraudWithEdges
350
F3
  3
Hidden
350
F7
  3
JitterOff
350
1E4
  3
Linepattern
350
FD
  3
OverhangOff
350
1E5
  3
Realistic
350
F9
  3
Shaded
350
1F3
  3
Shaded with edges
350
1F2
  3
Shades of Gray
350
1EF
  3
Sketchy
350
1F0
  3
Thicken
350
FC
  3
Wireframe
350
F6
  3
X-Ray
350
1F1
  0
XRECORD
  5
1012D93
102
{ACAD_REACTORS
330
C
102
}
330
C
100
AcDbXrecord
280
     1
 90
        1
330
7F
330
21A
330
21C
  0
DICTIONARY
  5
5E
102
{ACAD_REACTORS
330
C
102
}
330
C
100
AcDbDictionary
281
     1
  3
CANNOSCALE
350
146
  3
CMLEADERSTYLE
350
145
  3
CTABLESTYLE
350
84
  3
CVIEWDETAILSTYLE
350
227
  3
CVIEWSECTIONSTYLE
350
228
  3
DIMASSOC
350
5F
  3
HIDETEXT
350
63
  3
LAYEREVAL
350
1AE
  3
LAYERNOTIFY
350
1AF
  0
DICTIONARY
  5
200
102
{ACAD_REACTORS
330
1FF
102
}
330
1FF
100
AcDbDictionary
281
     1
  0
SORTENTSTABLE
  5
24A
102
{ACAD_REACTORS
330
1CE
102
}
330
1CE
100
AcDbSortentsTable
330
1F
331
E8DC
  5
EBD2
331
E8D8
  5
EBCC
331
C3FF
  5
C661
331
C3FB
  5
C616
331
C3B0
  5
C422
331
C3F7
  5
C573
331
C3AC
  5
C41E
331
C314
  5
C398
331
C37F
  5
C3E6
331
C3A8
  5
C40F
331
C310
  5
C394
331
E8AF
  5
E9F0
331
C37B
  5
C3E2
331
C377
  5
C3DE
331
C30C
  5
C390
331
C448
  5
C741
331
C373
  5
C3DA
331
C308
  5
C38C
331
E87B
  5
E9E4
331
C2AC
  5
C349
331
C2A8
  5
C345
331
C2A4
  5
C341
331
C2A0
  5
C33D
331
E8D5
  5
EBC9
331
E8D1
  5
EBBC
331
E8CD
  5
EB7E
331
E8C9
  5
EA4D
331
C3A5
  5
C40C
331
C3EC
  5
C570
331
C3E8
  5
C56C
331
C3A1
  5
C408
331
C3E4
  5
C55E
331
C39D
  5
C406
331
C305
  5
C385
331
C36C
  5
C3C2
331
C3E0
  5
C543
331
C368
  5
C3BE
331
C399
  5
C402
331
E874
  5
E9C1
331
C425
  5
C72E
331
C301
  5
C381
331
C364
  5
C3B3
331
C2FD
  5
C37D
331
C421
  5
C6EE
331
C41D
  5
C6DF
331
C2F9
  5
C379
331
C419
  5
C6DB
331
C29D
  5
C33A
331
C299
  5
C313
331
C295
  5
C30F
331
C291
  5
C30B
331
E8C5
  5
E9F7
331
E8BD
  5
E9F5
331
C3DC
  5
C513
331
EB88
  5
ED8D
331
C395
  5
C3FE
331
C3D8
  5
C450
331
C391
  5
C3FA
331
C38D
  5
C3F0
331
C2F5
  5
C375
331
C348
  5
C3AF
331
C415
  5
C6D7
331
E85C
  5
E9BB
331
C2F1
  5
C371
331
C344
  5
C3AB
331
C411
  5
C6D3
331
C2ED
  5
C36D
331
C40D
  5
C6CE
331
C340
  5
C3A7
331
C409
  5
C6CA
331
C3C5
  5
C44C
331
C3C1
  5
C448
331
C404
  5
C6C5
331
C3BD
  5
C431
331
C33D
  5
C3A4
331
C339
  5
C3A0
331
C400
  5
C67C
331
C384
  5
C3EB
331
C335
  5
C39A
331
C380
  5
C3E7
331
C2B5
  5
C36A
331
C2B1
  5
C366
331
E8DD
  5
EBD3
331
E8D9
  5
EBCF
331
C3FC
  5
C617
331
C3F8
  5
C5F2
331
C3B1
  5
C423
331
C3AD
  5
C41F
331
C37C
  5
C3E3
331
C3A9
  5
C41B
331
C311
  5
C395
331
C378
  5
C3DF
331
E8AC
  5
E9E7
331
C374
  5
C3DB
331
C30D
  5
C391
331
C449
  5
C742
331
C370
  5
C3D7
331
C309
  5
C38D
331
C431
  5
C730
331
E878
  5
E9C9
331
C2AD
  5
C362
331
C2A9
  5
C346
331
C2A5
  5
C342
331
C2A1
  5
C33E
331
E8D6
  5
EBCA
331
E8D2
  5
EBC0
331
E8CE
  5
EB81
331
C3A6
  5
C40D
331
E8CA
  5
EAD7
331
C3A2
  5
C409
331
C306
  5
C38A
331
C3E9
  5
C56D
331
C39A
  5
C403
331
C302
  5
C382
331
C426
  5
C72F
331
C36D
  5
C3C3
331
C3E5
  5
C560
331
C3E1
  5
C544
331
C2FE
  5
C37E
331
E875
  5
E9C6
331
C422
  5
C72B
331
C369
  5
C3BF
331
C41E
  5
C6E4
331
C365
  5
C3BB
331
C2FA
  5
C37A
331
C41A
  5
C6DC
331
C29E
  5
C33B
331
C29A
  5
C314
331
C296
  5
C310
331
C292
  5
C30C
331
E8C6
  5
E9F8
331
E8C2
  5
E9F4
331
E8BE
  5
E9F6
331
C396
  5
C3FF
331
C3DD
  5
C514
331
C392
  5
C3FB
331
C38E
  5
C3F7
331
C2F6
  5
C376
331
C3D9
  5
C47A
331
C38A
  5
C3ED
331
C416
  5
C6D8
331
C2F2
  5
C372
331
C2EE
  5
C36E
331
C412
  5
C6D4
331
E85D
  5
E9BC
331
C349
  5
C3B0
331
C40E
  5
C6CF
331
C345
  5
C3AC
331
C40A
  5
C6CB
331
C341
  5
C3A8
331
E976
  5
EBD5
331
C3C2
  5
C449
331
C3BE
  5
C432
331
C33E
  5
C3A5
331
C405
  5
C6C6
331
C33A
  5
C3A1
331
C336
  5
C39B
331
C401
  5
C67D
331
C385
  5
C3EC
331
E8B5
  5
E9F2
331
C381
  5
C3E8
331
C2B2
  5
C367
331
E8DA
  5
EBD0
331
C3FD
  5
C619
331
C3B2
  5
C424
331
C3F9
  5
C613
331
C3AE
  5
C420
331
C3AA
  5
C41C
331
C312
  5
C396
331
C37D
  5
C3E4
331
C379
  5
C3E0
331
C30E
  5
C392
331
E8A9
  5
E9E6
331
C375
  5
C3DC
331
C30A
  5
C38E
331
C432
  5
C740
331
C371
  5
C3D8
331
E879
  5
E9E2
331
C2AE
  5
C363
331
C2AA
  5
C347
331
C2A6
  5
C343
331
C2A2
  5
C33F
331
E8D7
  5
EBCB
331
E8D3
  5
EBC1
331
E8CF
  5
EB84
331
C3A7
  5
C40E
331
E8CB
  5
EB6D
331
C3A3
  5
C40A
331
C3EA
  5
C56E
331
C36E
  5
C3C4
331
C3E6
  5
C56A
331
C307
  5
C38B
331
C3E2
  5
C55C
331
C303
  5
C383
331
C36A
  5
C3C0
331
E876
  5
E9C7
331
C39B
  5
C404
331
C366
  5
C3BC
331
C423
  5
C72C
331
C2FF
  5
C37F
331
C362
  5
C3B1
331
C41F
  5
C6E5
331
C2FB
  5
C37B
331
C41B
  5
C6DD
331
C29F
  5
C33C
331
C29B
  5
C338
331
C297
  5
C311
331
C293
  5
C30D
331
E8C7
  5
E9F9
331
C3DE
  5
C515
331
C397
  5
C400
331
C3DA
  5
C4AA
331
C393
  5
C3FC
331
C38F
  5
C3F8
331
C2F7
  5
C377
331
C38B
  5
C3EE
331
C417
  5
C6D9
331
E85E
  5
E9BD
331
C2F3
  5
C373
331
C346
  5
C3AD
331
C413
  5
C6D5
331
C2EF
  5
C36F
331
C342
  5
C3A9
331
C40F
  5
C6D0
331
C2EB
  5
C36B
331
C40B
  5
C6CC
331
E83A
  5
E9B9
331
C28F
  5
C309
331
E977
  5
EBD6
331
C3C3
  5
C44A
331
C406
  5
C6C7
331
C3BF
  5
C433
331
C33F
  5
C3A6
331
C402
  5
C695
331
C33B
  5
C3A2
331
C337
  5
C39C
331
C382
  5
C3E9
331
E8B2
  5
E9F1
331
C2B3
  5
C368
331
E8DB
  5
EBD1
331
C3FE
  5
C631
331
C3FA
  5
C614
331
C3B3
  5
C425
331
C3AF
  5
C421
331
C37E
  5
C3E5
331
C313
  5
C397
331
C37A
  5
C3E1
331
C3AB
  5
C41D
331
C376
  5
C3DD
331
C30F
  5
C393
331
C372
  5
C3D9
331
E87E
  5
E9E5
331
C30B
  5
C38F
331
E87A
  5
E9E3
331
C2AF
  5
C364
331
C2AB
  5
C348
331
C2A7
  5
C344
331
C2A3
  5
C340
331
E8D4
  5
EBC7
331
E8D0
  5
EB88
331
E8CC
  5
EB7D
331
C3A4
  5
C40B
331
E8C8
  5
EA4C
331
C3EB
  5
C56F
331
C3A0
  5
C407
331
C3E7
  5
C56B
331
C39C
  5
C405
331
C36F
  5
C3C5
331
C304
  5
C384
331
C3E3
  5
C55D
331
C398
  5
C401
331
C36B
  5
C3C1
331
E877
  5
E9C8
331
C424
  5
C72D
331
C300
  5
C380
331
C367
  5
C3BD
331
C2FC
  5
C37C
331
E873
  5
E9C0
331
C420
  5
C6EC
331
C41C
  5
C6DE
331
C363
  5
C3B2
331
C2F8
  5
C378
331
E86B
  5
E9BF
331
C418
  5
C6DA
331
C29C
  5
C339
331
C298
  5
C312
331
C294
  5
C30E
331
C290
  5
C30A
331
E8B8
  5
E9F3
331
C3DF
  5
C516
331
C394
  5
C3FD
331
C3DB
  5
C4AB
331
C390
  5
C3F9
331
C2F4
  5
C374
331
C3D7
  5
C44F
331
C38C
  5
C3EF
331
C414
  5
C6D6
331
E85F
  5
E9BE
331
C2F0
  5
C370
331
C410
  5
C6D1
331
E85B
  5
E9BA
331
C347
  5
C3AE
331
C2EC
  5
C36C
331
C40C
  5
C6CD
331
C343
  5
C3AA
331
C408
  5
C6C9
331
EB84
  5
ED8C
331
C3C4
  5
C44B
331
C3C0
  5
C434
331
C407
  5
C6C8
331
C3BC
  5
C426
331
C33C
  5
C3A3
331
C403
  5
C6AD
331
C338
  5
C39D
331
C334
  5
C399
331
C383
  5
C3EA
331
C450
  5
C743
331
C2B4
  5
C369
331
C2B0
  5
C365
  0
SORTENTSTABLE
  5
651B
102
{ACAD_REACTORS
330
651A
102
}
330
651A
100
AcDbSortentsTable
330
64FD
  0
DIMASSOC
  5
1012D64
102
{ACAD_REACTORS
330
1012D5A
102
}
330
1012D5A
100
AcDbDimAssoc
330
1012D4D
 90
        3
 70
     0
 71
     0
  1
AcDbOsnapPointRef
 72
    13
331
C3A0
 73
     2
 91
        2
 40
0.0
 10
0.0
 20
0.0
 30
2.000000000000000E+50
 75
     0
  1
AcDbOsnapPointRef
 72
     1
331
C426
 73
     2
 91
        5
 40
1.0
 10
0.0
 20
0.0
 30
2.000000000000000E+50
 75
     0
  0
XRECORD
  5
10117D4
102
{ACAD_REACTORS
330
10117D3
102
}
330
10117D3
100
AcDbXrecord
280
     1
 90
        1
340
10D
  0
XRECORD
  5
10117D8
102
{ACAD_REACTORS
330
10117D7
102
}
330
10117D7
100
AcDbXrecord
280
     1
 90
        1
340
10D
  0
ACDBDETAILVIEWSTYLE
  5
21C
102
{ACAD_XDICTIONARY
360
236
102
}
102
{ACAD_REACTORS
330
21B
102
}
330
21B
100
AcDbModelDocViewStyle
 70
     0
  3
Metric50
290
     0
100
AcDbDetailViewStyle
 70
     0
 71
     0
 90
        3
 71
     1
340
11
 62
   256
 40
5.0
340
0
 62
   256
 40
5.0
300

 40
0.0
280
     1
 71
     2
340
16
 90
       25
 62
   256
 71
     3
340
11
 62
   256
 40
5.0
 90
        0
 40
15.0
 90
        1
300
%<\AcVar ViewDetailId>% (%<\AcVar ViewScale \f "%sn">%)
 71
     4
340
16
 90
       25
 62
   256
340
16
 90
       25
 62
   256
280
     0
  0
LAYOUT
  5
D3
102
{ACAD_REACTORS
330
1A
102
}
330
1A
100
AcDbPlotSettings
  1

  2
None
  4
ISO_A4_(210.00_x_297.00_MM)
  6

 40
7.5
 41
20.0
 42
7.5
 43
20.0
 44
210.0
 45
297.0
 46
0.0
 47
0.0
 48
0.0
 49
0.0
140
0.0
141
0.0
142
1.0
143
1.0
 70
   688
 72
     1
 73
     1
 74
     5
  7

 75
    16
147
1.0
 76
     0
 77
     2
 78
   300
148
0.0
149
0.0
100
AcDbLayout
  1
Layout1
 70
     1
 71
     1
 10
-20.0
 20
-7.5
 11
277.0
 21
202.5
 12
0.0
 22
0.0
 32
0.0
 14
25.69999999999999
 24
19.5
 34
0.0
 15
231.3
 25
175.5
 35
0.0
146
0.0
 13
0.0
 23
0.0
 33
0.0
 16
1.0
 26
0.0
 36
0.0
 17
0.0
 27
1.0
 37
0.0
 76
     0
330
D2
331
10117D2
1001
ACAD_PSEXT
1000
None
1000
None
1000
Not applicable
1000
The layout will not be plotted unless a new plotter configuration name is selected.
1070
     0
  0
LAYOUT
  5
D7
102
{ACAD_REACTORS
330
1A
102
}
330
1A
100
AcDbPlotSettings
  1

  2
C:\Documents and Settings\basas\Application Data\Autodesk\AutoCAD 2005\R16.1\enu\plotters\Default Windows System Printer.pc3
  4

  6

 40
0.0
 41
0.0
 42
0.0
 43
0.0
 44
0.0
 45
0.0
 46
0.0
 47
0.0
 48
0.0
 49
0.0
140
0.0
141
0.0
142
1.0
143
1.0
 70
   688
 72
     0
 73
     0
 74
     5
  7

 75
    16
147
1.0
 76
     0
 77
     2
 78
   300
148
0.0
149
0.0
100
AcDbLayout
  1
Layout2
 70
     1
 71
     2
 10
0.0
 20
0.0
 11
12.0
 21
9.0
 12
0.0
 22
0.0
 32
0.0
 14
0.0
 24
0.0
 34
0.0
 15
0.0
 25
0.0
 35
0.0
146
0.0
 13
0.0
 23
0.0
 33
0.0
 16
1.0
 26
0.0
 36
0.0
 17
0.0
 27
1.0
 37
0.0
 76
     0
330
D6
  0
LAYOUT
  5
22
102
{ACAD_XDICTIONARY
360
205
102
}
102
{ACAD_REACTORS
330
1A
102
}
330
1A
100
AcDbPlotSettings
  1

  2
none_device
  4
ISO_A4_(210.00_x_297.00_MM)
  6

 40
7.5
 41
20.0
 42
7.5
 43
20.0
 44
210.0
 45
297.0
 46
11.54999923706054
 47
-13.65000009536743
 48
0.0
 49
0.0
140
0.0
141
0.0
142
1.0
143
8.704084754739808
 70
 11952
 72
     1
 73
     0
 74
     0
  7

 75
     0
147
0.1148885871608098
 76
     0
 77
     2
 78
   300
148
0.0
149
0.0
100
AcDbLayout
  1
Model
 70
     1
 71
     0
 10
0.0
 20
0.0
 11
12.0
 21
9.0
 12
0.0
 22
0.0
 32
0.0
 14
0.0
 24
0.0
 34
0.0
 15
0.0
 25
0.0
 35
0.0
146
0.0
 13
0.0
 23
0.0
 33
0.0
 16
1.0
 26
0.0
 36
0.0
 17
0.0
 27
1.0
 37
0.0
 76
     0
330
1F
331
EA
1001
ACAD_PSEXT
1000
None
1000
None
1000
Not applicable
1000
The layout will not be plotted unless a new plotter configuration name is selected.
1070
     0
  0
MATERIAL
  5
ED
102
{ACAD_XDICTIONARY
360
1F9
102
}
102
{ACAD_REACTORS
330
6A
102
}
330
6A
100
AcDbMaterial
  1
ByBlock
 94
       63
  0
MATERIAL
  5
EC
102
{ACAD_XDICTIONARY
360
1F7
102
}
102
{ACAD_REACTORS
330
6A
102
}
330
6A
100
AcDbMaterial
  1
ByLayer
 94
       63
  0
MATERIAL
  5
EE
102
{ACAD_XDICTIONARY
360
173
102
}
102
{ACAD_REACTORS
330
6A
102
}
330
6A
100
AcDbMaterial
  1
Global
 43
0.0007999999797903
 43
0.0
 43
0.0
 43
0.0
 43
0.0
 43
0.0007999999797903
 43
0.0
 43
0.0
 43
0.0
 43
0.0
 43
1.0
 43
0.0
 43
0.0
 43
0.0
 43
0.0
 43
1.0
 49
0.0007999999797903
 49
0.0
 49
0.0
 49
0.0
 49
0.0
 49
0.0007999999797903
 49
0.0
 49
0.0
 49
0.0
 49
0.0
 49
1.0
 49
0.0
 49
0.0
 49
0.0
 49
0.0
 49
1.0
142
0.0007999999797903
142
0.0
142
0.0
142
0.0
142
0.0
142
0.0007999999797903
142
0.0
142
0.0
142
0.0
142
0.0
142
1.0
142
0.0
142
0.0
142
0.0
142
0.0
142
1.0
144
0.0007999999797903
144
0.0
144
0.0
144
0.0
144
0.0
144
0.0007999999797903
144
0.0
144
0.0
144
0.0
144
0.0
144
1.0
144
0.0
144
0.0
144
0.0
144
0.0
144
1.0
 94
       63
1001
ACAD
1070
    -1
1070
     3
1070
     0
1000

1071
        0
1070
     0
  0
MLEADERSTYLE
  5
13B
102
{ACAD_REACTORS
330
12D
102
}
330
12D
100
AcDbMLeaderStyle
179
     2
170
     2
171
     1
172
     0
 90
        2
 40
0.0
 41
0.0
173
     1
 91
-1056964608
340
14
 92
       -2
290
     1
 42
2.0
291
     1
 43
8.0
  3
Standard
 44
4.0
300

342
11
174
     1
178
     1
175
     1
176
     0
 93
-1056964608
 45
4.0
292
     0
297
     0
 46
4.0
 94
-1056964608
 47
1.0
 49
1.0
140
1.0
293
     1
141
0.0
294
     1
177
     0
142
1.0
295
     0
296
     1
143
3.75
271
     0
272
     9
273
     9
298
     0
  0
MLEADERSTYLE
  5
12E
102
{ACAD_REACTORS
330
12D
102
}
330
12D
100
AcDbMLeaderStyle
179
     2
170
     2
171
     1
172
     0
 90
        2
 40
0.0
 41
0.0
173
     1
 91
-1056964608
340
14
 92
       -2
290
     1
 42
2.0
291
     1
 43
8.0
  3
Standard
 44
4.0
300

342
11
174
     1
178
     1
175
     1
176
     0
 93
-1056964608
 45
4.0
292
     0
297
     0
 46
4.0
 94
-1056964608
 47
1.0
 49
1.0
140
1.0
293
     1
141
0.0
294
     1
177
     0
142
1.0
295
     0
296
     0
143
3.75
271
     0
272
     9
273
     9
298
     0
  0
MLINESTYLE
  5
18
102
{ACAD_REACTORS
330
17
102
}
330
17
100
AcDbMlineStyle
  2
STANDARD
 70
     0
  3

 62
   256
 51
90.0
 52
90.0
 71
     2
 49
0.5
 62
   256
  6
BYLAYER
 49
-0.5
 62
   256
  6
BYLAYER
  0
PLOTSETTINGS
  5
CB7F
102
{ACAD_REACTORS
330
19
102
}
330
19
100
AcDbPlotSettings
  1
Setup1
  2
\\HP\Brother DCP-J105 Printer
  4
A4
  6

 40
3.672416687011718
 41
3.67242431640625
 42
3.84173583984375
 43
3.67242431640625
 44
209.9733276367187
 45
296.8413391113281
 46
0.0
 47
46.12185578713638
 48
-1399.471263696332
 49
372.9422027066757
140
-642.2500087425105
141
1110.690920214529
142
1.0
143
3.740118246273205
 70
 11956
 72
     1
 73
     0
 74
     4
  7

 75
     0
147
0.2673712257617624
 76
     0
 77
     2
 78
   300
148
1399.471263696332
149
-372.9422027066757
1001
ACAD_PSEXT
1000
\\HP\Brother DCP-J105 Printer
1000
Brother DCP-J105 Printer
1000
\\HP
1000
DCP-J105
1070
     0
  0
ACDBPLACEHOLDER
  5
F
102
{ACAD_REACTORS
330
E
102
}
330
E
  0
SCALE
  5
10D
102
{ACAD_REACTORS
330
10C
102
}
330
10C
100
AcDbScale
 70
     0
300
1:1
140
1.0
141
1.0
290
     1
  0
SCALE
  5
1BE
102
{ACAD_REACTORS
330
10C
102
}
330
10C
100
AcDbScale
 70
     0
300
1:2
140
1.0
141
2.0
290
     0
  0
SCALE
  5
1BF
102
{ACAD_REACTORS
330
10C
102
}
330
10C
100
AcDbScale
 70
     0
300
1:4
140
1.0
141
4.0
290
     0
  0
SCALE
  5
1C0
102
{ACAD_REACTORS
330
10C
102
}
330
10C
100
AcDbScale
 70
     0
300
1:5
140
1.0
141
5.0
290
     0
  0
SCALE
  5
1C1
102
{ACAD_REACTORS
330
10C
102
}
330
10C
100
AcDbScale
 70
     0
300
1:8
140
1.0
141
8.0
290
     0
  0
SCALE
  5
1C2
102
{ACAD_REACTORS
330
10C
102
}
330
10C
100
AcDbScale
 70
     0
300
1:10
140
1.0
141
10.0
290
     0
  0
SCALE
  5
1C3
102
{ACAD_REACTORS
330
10C
102
}
330
10C
100
AcDbScale
 70
     0
300
1:16
140
1.0
141
16.0
290
     0
  0
SCALE
  5
1C4
102
{ACAD_REACTORS
330
10C
102
}
330
10C
100
AcDbScale
 70
     0
300
1:20
140
1.0
141
20.0
290
     0
  0
SCALE
  5
1C5
102
{ACAD_REACTORS
330
10C
102
}
330
10C
100
AcDbScale
 70
     0
300
1:30
140
1.0
141
30.0
290
     0
  0
SCALE
  5
1C6
102
{ACAD_REACTORS
330
10C
102
}
330
10C
100
AcDbScale
 70
     0
300
1:40
140
1.0
141
40.0
290
     0
  0
SCALE
  5
1C7
102
{ACAD_REACTORS
330
10C
102
}
330
10C
100
AcDbScale
 70
     0
300
1:50
140
1.0
141
50.0
290
     0
  0
SCALE
  5
1C8
102
{ACAD_REACTORS
330
10C
102
}
330
10C
100
AcDbScale
 70
     0
300
1:100
140
1.0
141
100.0
290
     0
  0
SCALE
  5
1C9
102
{ACAD_REACTORS
330
10C
102
}
330
10C
100
AcDbScale
 70
     0
300
2:1
140
2.0
141
1.0
290
     0
  0
SCALE
  5
1CA
102
{ACAD_REACTORS
330
10C
102
}
330
10C
100
AcDbScale
 70
     0
300
4:1
140
4.0
141
1.0
290
     0
  0
SCALE
  5
1CB
102
{ACAD_REACTORS
330
10C
102
}
330
10C
100
AcDbScale
 70
     0
300
8:1
140
8.0
141
1.0
290
     0
  0
SCALE
  5
1CC
102
{ACAD_REACTORS
330
10C
102
}
330
10C
100
AcDbScale
 70
     0
300
10:1
140
10.0
141
1.0
290
     0
  0
SCALE
  5
1CD
102
{ACAD_REACTORS
330
10C
102
}
330
10C
100
AcDbScale
 70
     0
300
100:1
140
100.0
141
1.0
290
     0
  0
ACDBSECTIONVIEWSTYLE
  5
21A
102
{ACAD_XDICTIONARY
360
234
102
}
102
{ACAD_REACTORS
330
219
102
}
330
219
100
AcDbModelDocViewStyle
 70
     0
  3
Metric50
290
     0
100
AcDbSectionViewStyle
 70
     0
 71
     0
 90
      102
 71
     1
340
11
 62
   256
 40
5.0
340
0
340
0
 62
   256
 40
5.0
300
I, O, Q, S, X, Z
 40
10.0
 90
        0
 40
2.5
 90
        0
 71
     2
340
16
 90
       25
 62
   256
340
16
 90
       50
 62
   256
 40
5.0
 40
2.5
 40
5.0
 71
     3
340
11
 62
   256
 40
5.0
 90
        0
 40
15.0
 90
        1
300
%<\AcVar ViewSectionStartId>%-%<\AcVar ViewSectionEndId>% (%<\AcVar ViewScale \f "%sn">%)
 71
     4
 62
   256
 62
   257
300
ANSI31
 40
1.0
 90
        0
290
     0
290
     0
 90
        6
 40
0.0
 40
1.570796326794896
 40
0.2617993877991494
 40
1.308996938995747
 40
-0.2617993877991494
 40
1.832595714594046
  0
TABLESTYLE
  5
7F
102
{ACAD_XDICTIONARY
360
162
102
}
102
{ACAD_REACTORS
330
7E
102
}
330
7E
100
AcDbTableStyle
280
     0
  3
Standard
 70
     0
 71
     0
 40
1.5
 41
1.5
280
     0
281
     0
  7
Standard
140
4.5
170
     2
 62
     0
 63
     7
283
     0
 90
      512
 91
        0
  1

274
    -2
284
     1
 64
     0
275
    -2
285
     1
 65
     0
276
    -2
286
     1
 66
     0
277
    -2
287
     1
 67
     0
278
    -2
288
     1
 68
     0
279
    -2
289
     1
 69
     0
  7
Standard
140
6.0
170
     5
 62
     0
 63
     7
283
     0
 90
      512
 91
        0
  1

274
    -2
284
     1
 64
     0
275
    -2
285
     1
 65
     0
276
    -2
286
     1
 66
     0
277
    -2
287
     1
 67
     0
278
    -2
288
     1
 68
     0
279
    -2
289
     1
 69
     0
  7
Standard
140
4.5
170
     5
 62
     0
 63
     7
283
     0
 90
      512
 91
        0
  1

274
    -2
284
     1
 64
     0
275
    -2
285
     1
 65
     0
276
    -2
286
     1
 66
     0
277
    -2
287
     1
 67
     0
278
    -2
288
     1
 68
     0
279
    -2
289
     1
 69
     0
  0
VISUALSTYLE
  5
F5
102
{ACAD_REACTORS
330
EF
102
}
330
EF
100
AcDbVisualStyle
  2
2dWireframe
 70
     4
177
     3
291
     0
 70
    58
 90
        0
176
     1
 90
        2
176
     1
 90
        1
176
     1
 90
        0
176
     1
 40
0.6
176
     1
 40
30.0
176
     1
 62
     7
420
 16777215
176
     1
 90
        1
176
     1
 90
        4
176
     1
 62
     7
176
     1
 62
   257
176
     1
 90
        1
176
     1
 90
        1
176
     1
 40
1.0
176
     1
 90
        0
176
     1
 62
   257
176
     1
 40
1.0
176
     1
 90
        1
176
     1
 90
        6
176
     1
 90
        2
176
     1
 62
     7
176
     1
 90
        5
176
     1
 90
        0
176
     1
 90
        0
176
     1
290
     0
176
     1
 90
        1
176
     1
 40
0.0
176
     1
 90
        0
176
     1
290
     1
176
     1
290
     1
176
     1
290
     0
176
     1
290
     0
176
     1
290
     0
176
     1
290
     0
176
     1
290
     0
176
     1
290
     0
176
     1
290
     0
176
     1
 90
       50
176
     1
 40
0.0
176
     1
 40
1.0
176
     1
 90
        0
176
     1
 62
    18
420
        0
176
     1
 90
       50
176
     1
 90
        3
176
     1
 62
     5
420
      255
176
     1
290
     0
176
     1
 90
       50
176
     1
 90
       50
176
     1
 90
       50
176
     1
290
     0
176
     1
 90
       50
176
     1
 62
   256
176
     0
 40
1.0
176
     0
 90
        2
176
     1
  1
strokes_ogs.tif
176
     1
290
     0
176
     1
 40
1.0
176
     1
 40
1.0
176
     1
  0
VISUALSTYLE
  5
F4
102
{ACAD_REACTORS
330
EF
102
}
330
EF
100
AcDbVisualStyle
  2
Basic
 70
     7
177
     3
291
     1
 70
    58
 90
        1
176
     1
 90
        0
176
     1
 90
        1
176
     1
 90
        0
176
     1
 40
0.6
176
     1
 40
30.0
176
     1
 62
     7
420
 16777215
176
     1
 90
        0
176
     1
 90
        4
176
     1
 62
     7
176
     1
 62
   257
176
     1
 90
        1
176
     1
 90
        1
176
     1
 40
1.0
176
     1
 90
        8
176
     1
 62
     7
176
     1
 40
1.0
176
     1
 90
        1
176
     1
 90
        6
176
     1
 90
        2
176
     1
 62
     7
176
     1
 90
        5
176
     1
 90
        0
176
     1
 90
        0
176
     1
290
     0
176
     1
 90
        1
176
     1
 40
0.0
176
     1
 90
        0
176
     1
290
     0
176
     1
290
     1
176
     1
290
     1
176
     1
290
     0
176
     1
290
     0
176
     1
290
     0
176
     1
290
     0
176
     1
290
     0
176
     1
290
     0
176
     1
 90
       50
176
     1
 40
0.0
176
     1
 40
1.0
176
     1
 90
        0
176
     1
 62
    18
420
        0
176
     1
 90
       50
176
     1
 90
        3
176
     1
 62
     5
420
      255
176
     1
290
     0
176
     1
 90
       50
176
     1
 90
       50
176
     1
 90
       50
176
     1
290
     0
176
     1
 90
       50
176
     1
 62
   256
176
     0
 40
1.0
176
     0
 90
        2
176
     1
  1
strokes_ogs.tif
176
     1
290
     0
176
     1
 40
1.0
176
     1
 40
1.0
176
     1
  0
VISUALSTYLE
  5
FB
102
{ACAD_REACTORS
330
EF
102
}
330
EF
100
AcDbVisualStyle
  2
Brighten
 70
    12
177
     3
291
     1
 70
    58
 90
        2
176
     1
 90
        2
176
     1
 90
        1
176
     1
 90
        0
176
     1
 40
0.6
176
     1
 40
30.0
176
     1
 62
     7
420
 16777215
176
     1
 90
        1
176
     1
 90
        4
176
     1
 62
     7
176
     1
 62
   257
176
     1
 90
        1
176
     1
 90
        1
176
     1
 40
1.0
176
     1
 90
        8
176
     1
 62
     7
176
     1
 40
1.0
176
     1
 90
        1
176
     1
 90
        6
176
     1
 90
        2
176
     1
 62
     7
176
     1
 90
        5
176
     1
 90
        0
176
     1
 90
        0
176
     1
290
     0
176
     1
 90
        1
176
     1
 40
50.0
176
     1
 90
        0
176
     1
290
     0
176
     1
290
     1
176
     1
290
     1
176
     1
290
     0
176
     1
290
     0
176
     1
290
     0
176
     1
290
     0
176
     1
290
     0
176
     1
290
     0
176
     1
 90
       50
176
     1
 40
0.0
176
     1
 40
1.0
176
     1
 90
        0
176
     1
 62
    18
420
        0
176
     1
 90
       50
176
     1
 90
        3
176
     1
 62
     5
420
      255
176
     1
290
     0
176
     1
 90
       50
176
     1
 90
       50
176
     1
 90
       50
176
     1
290
     0
176
     1
 90
       50
176
     1
 62
   256
176
     0
 40
1.0
176
     0
 90
        2
176
     1
  1
strokes_ogs.tif
176
     1
290
     0
176
     1
 40
1.0
176
     1
 40
1.0
176
     1
  0
VISUALSTYLE
  5
FF
102
{ACAD_REACTORS
330
EF
102
}
330
EF
100
AcDbVisualStyle
  2
ColorChange
 70
    16
177
     3
291
     1
 70
    58
 90
        2
176
     1
 90
        2
176
     1
 90
        3
176
     1
 90
        0
176
     1
 40
0.6
176
     1
 40
30.0
176
     1
 62
     8
420
  8421504
176
     1
 90
        1
176
     1
 90
        4
176
     1
 62
     7
176
     1
 62
   257
176
     1
 90
        1
176
     1
 90
        1
176
     1
 40
1.0
176
     1
 90
        8
176
     1
 62
     8
420
  8421504
176
     1
 40
1.0
176
     1
 90
        1
176
     1
 90
        6
176
     1
 90
        2
176
     1
 62
     7
176
     1
 90
        5
176
     1
 90
        0
176
     1
 90
        0
176
     1
290
     0
176
     1
 90
        1
176
     1
 40
0.0
176
     1
 90
        0
176
     1
290
     0
176
     1
290
     1
176
     1
290
     1
176
     1
290
     0
176
     1
290
     0
176
     1
290
     0
176
     1
290
     0
176
     1
290
     0
176
     1
290
     0
176
     1
 90
       50
176
     1
 40
0.0
176
     1
 40
1.0
176
     1
 90
        0
176
     1
 62
    18
420
        0
176
     1
 90
       50
176
     1
 90
        3
176
     1
 62
     5
420
      255
176
     1
290
     0
176
     1
 90
       50
176
     1
 90
       50
176
     1
 90
       50
176
     1
290
     0
176
     1
 90
       50
176
     1
 62
   256
176
     0
 40
1.0
176
     0
 90
        2
176
     1
  1
strokes_ogs.tif
176
     1
290
     0
176
     1
 40
1.0
176
     1
 40
1.0
176
     1
  0
VISUALSTYLE
  5
F8
102
{ACAD_REACTORS
330
EF
102
}
330
EF
100
AcDbVisualStyle
  2
Conceptual
 70
     9
177
     3
291
     0
 70
    58
 90
        3
176
     1
 90
        2
176
     1
 90
        1
176
     1
 90
        0
176
     1
 40
0.6
176
     1
 40
30.0
176
     1
 62
     7
420
 16777215
176
     1
 90
        2
176
     1
 90
        2
176
     1
 62
     7
176
     1
 62
   257
176
     1
 90
        1
176
     1
 90
        1
176
     1
 40
40.0
176
     1
 90
        8
176
     1
 62
     7
176
     1
 40
1.0
176
     1
 90
        1
176
     1
 90
        6
176
     1
 90
        2
176
     1
 62
     7
176
     1
 90
        3
176
     1
 90
        0
176
     1
 90
        0
176
     1
290
     0
176
     1
 90
        1
176
     1
 40
0.0
176
     1
 90
        0
176
     1
290
     0
176
     1
290
     1
176
     1
290
     1
176
     1
290
     0
176
     1
290
     0
176
     1
290
     0
176
     1
290
     0
176
     1
290
     0
176
     1
290
     0
176
     1
 90
       50
176
     1
 40
0.0
176
     1
 40
1.0
176
     1
 90
        0
176
     1
 62
    18
420
        0
176
     1
 90
       50
176
     1
 90
        3
176
     1
 62
     5
420
      255
176
     1
290
     0
176
     1
 90
       50
176
     1
 90
       50
176
     1
 90
       50
176
     1
290
     0
176
     1
 90
       50
176
     1
 62
   256
176
     0
 40
1.0
176
     0
 90
        2
176
     1
  1
strokes_ogs.tif
176
     1
290
     0
176
     1
 40
1.0
176
     1
 40
1.0
176
     1
  0
VISUALSTYLE
  5
FA
102
{ACAD_REACTORS
330
EF
102
}
330
EF
100
AcDbVisualStyle
  2
Dim
 70
    11
177
     3
291
     1
 70
    58
 90
        2
176
     1
 90
        2
176
     1
 90
        1
176
     1
 90
        0
176
     1
 40
0.6
176
     1
 40
30.0
176
     1
 62
     7
420
 16777215
176
     1
 90
        1
176
     1
 90
        4
176
     1
 62
     7
176
     1
 62
   257
176
     1
 90
        1
176
     1
 90
        1
176
     1
 40
1.0
176
     1
 90
        8
176
     1
 62
     7
176
     1
 40
1.0
176
     1
 90
        1
176
     1
 90
        6
176
     1
 90
        2
176
     1
 62
     7
176
     1
 90
        5
176
     1
 90
        0
176
     1
 90
        0
176
     1
290
     0
176
     1
 90
        1
176
     1
 40
-50.0
176
     1
 90
        0
176
     1
290
     0
176
     1
290
     1
176
     1
290
     1
176
     1
290
     0
176
     1
290
     0
176
     1
290
     0
176
     1
290
     0
176
     1
290
     0
176
     1
290
     0
176
     1
 90
       50
176
     1
 40
0.0
176
     1
 40
1.0
176
     1
 90
        0
176
     1
 62
    18
420
        0
176
     1
 90
       50
176
     1
 90
        3
176
     1
 62
     5
420
      255
176
     1
290
     0
176
     1
 90
       50
176
     1
 90
       50
176
     1
 90
       50
176
     1
290
     0
176
     1
 90
       50
176
     1
 62
   256
176
     0
 40
1.0
176
     0
 90
        2
176
     1
  1
strokes_ogs.tif
176
     1
290
     0
176
     1
 40
1.0
176
     1
 40
1.0
176
     1
  0
VISUALSTYLE
  5
1E6
102
{ACAD_REACTORS
330
EF
102
}
330
EF
100
AcDbVisualStyle
  2
EdgeColorOff
 70
    22
177
     3
291
     1
 70
    58
 90
        2
176
     0
 90
        2
176
     0
 90
        0
176
     0
 90
        0
176
     0
 40
0.6
176
     0
 40
30.0
176
     0
 62
     7
420
 16777215
176
     0
 90
        1
176
     0
 90
        4
176
     0
 62
     7
176
     0
 62
   257
176
     0
 90
        1
176
     0
 90
        1
176
     0
 40
1.0
176
     0
 90
        8
176
     2
 62
     7
176
     0
 40
1.0
176
     0
 90
        1
176
     0
 90
        6
176
     0
 90
        2
176
     0
 62
     7
176
     0
 90
        5
176
     0
 90
        0
176
     0
 90
        0
176
     0
290
     0
176
     0
 90
        1
176
     0
 40
0.0
176
     0
 90
        0
176
     0
290
     0
176
     1
290
     1
176
     1
290
     1
176
     1
290
     0
176
     1
290
     0
176
     1
290
     0
176
     1
290
     0
176
     1
290
     0
176
     1
290
     0
176
     1
 90
       50
176
     1
 40
0.0
176
     1
 40
1.0
176
     1
 90
        0
176
     1
 62
    18
420
        0
176
     1
 90
       50
176
     1
 90
        3
176
     1
 62
     5
420
      255
176
     1
290
     0
176
     1
 90
       50
176
     1
 90
       50
176
     1
 90
       50
176
     1
290
     0
176
     1
 90
       50
176
     1
 62
   256
176
     0
 40
1.0
176
     0
 90
        2
176
     1
  1
strokes_ogs.tif
176
     1
290
     0
176
     1
 40
1.0
176
     1
 40
1.0
176
     1
  0
VISUALSTYLE
  5
FE
102
{ACAD_REACTORS
330
EF
102
}
330
EF
100
AcDbVisualStyle
  2
Facepattern
 70
    15
177
     3
291
     1
 70
    58
 90
        2
176
     1
 90
        2
176
     1
 90
        1
176
     1
 90
        0
176
     1
 40
0.6
176
     1
 40
30.0
176
     1
 62
     7
420
 16777215
176
     1
 90
        1
176
     1
 90
        4
176
     1
 62
     7
176
     1
 62
   257
176
     1
 90
        1
176
     1
 90
        1
176
     1
 40
1.0
176
     1
 90
        8
176
     1
 62
     7
176
     1
 40
1.0
176
     1
 90
        1
176
     1
 90
        6
176
     1
 90
        2
176
     1
 62
     7
176
     1
 90
        5
176
     1
 90
        0
176
     1
 90
        0
176
     1
290
     0
176
     1
 90
        1
176
     1
 40
0.0
176
     1
 90
        0
176
     1
290
     0
176
     1
290
     1
176
     1
290
     1
176
     1
290
     0
176
     1
290
     0
176
     1
290
     0
176
     1
290
     0
176
     1
290
     0
176
     1
290
     0
176
     1
 90
       50
176
     1
 40
0.0
176
     1
 40
1.0
176
     1
 90
        0
176
     1
 62
    18
420
        0
176
     1
 90
       50
176
     1
 90
        3
176
     1
 62
     5
420
      255
176
     1
290
     0
176
     1
 90
       50
176
     1
 90
       50
176
     1
 90
       50
176
     1
290
     0
176
     1
 90
       50
176
     1
 62
   256
176
     0
 40
1.0
176
     0
 90
        2
176
     1
  1
strokes_ogs.tif
176
     1
290
     0
176
     1
 40
1.0
176
     1
 40
1.0
176
     1
  0
VISUALSTYLE
  5
F0
102
{ACAD_REACTORS
330
EF
102
}
330
EF
100
AcDbVisualStyle
  2
Flat
 70
     0
177
     3
291
     1
 70
    58
 90
        2
176
     1
 90
        1
176
     1
 90
        1
176
     1
 90
        2
176
     1
 40
0.6
176
     1
 40
30.0
176
     1
 62
     7
420
 16777215
176
     1
 90
        0
176
     1
 90
        0
176
     1
 62
     7
176
     1
 62
   257
176
     1
 90
        1
176
     1
 90
        1
176
     1
 40
1.0
176
     1
 90
        8
176
     1
 62
     7
176
     1
 40
1.0
176
     1
 90
        1
176
     1
 90
        6
176
     1
 90
        2
176
     1
 62
     7
176
     1
 90
        5
176
     1
 90
        0
176
     1
 90
        0
176
     1
290
     0
176
     1
 90
       13
176
     1
 40
0.0
176
     1
 90
        0
176
     1
290
     0
176
     1
290
     1
176
     1
290
     1
176
     1
290
     0
176
     1
290
     0
176
     1
290
     0
176
     1
290
     0
176
     1
290
     0
176
     1
290
     0
176
     1
 90
       50
176
     1
 40
0.0
176
     1
 40
1.0
176
     1
 90
        0
176
     1
 62
    18
420
        0
176
     1
 90
       50
176
     1
 90
        3
176
     1
 62
     5
420
      255
176
     1
290
     0
176
     1
 90
       50
176
     1
 90
       50
176
     1
 90
       50
176
     1
290
     0
176
     1
 90
       50
176
     1
 62
   256
176
     0
 40
1.0
176
     0
 90
        2
176
     1
  1
strokes_ogs.tif
176
     1
290
     0
176
     1
 40
1.0
176
     1
 40
1.0
176
     1
  0
VISUALSTYLE
  5
F1
102
{ACAD_REACTORS
330
EF
102
}
330
EF
100
AcDbVisualStyle
  2
FlatWithEdges
 70
     1
177
     3
291
     1
 70
    58
 90
        2
176
     1
 90
        1
176
     1
 90
        1
176
     1
 90
        2
176
     1
 40
0.6
176
     1
 40
30.0
176
     1
 62
     7
420
 16777215
176
     1
 90
        1
176
     1
 90
        0
176
     1
 62
     7
176
     1
 62
   257
176
     1
 90
        1
176
     1
 90
        1
176
     1
 40
1.0
176
     1
 90
        0
176
     1
 62
   257
176
     1
 40
1.0
176
     1
 90
        1
176
     1
 90
        6
176
     1
 90
        2
176
     1
 62
     7
176
     1
 90
        5
176
     1
 90
        0
176
     1
 90
        0
176
     1
290
     0
176
     1
 90
       13
176
     1
 40
0.0
176
     1
 90
        0
176
     1
290
     0
176
     1
290
     1
176
     1
290
     1
176
     1
290
     0
176
     1
290
     0
176
     1
290
     0
176
     1
290
     0
176
     1
290
     0
176
     1
290
     0
176
     1
 90
       50
176
     1
 40
0.0
176
     1
 40
1.0
176
     1
 90
        0
176
     1
 62
    18
420
        0
176
     1
 90
       50
176
     1
 90
        3
176
     1
 62
     5
420
      255
176
     1
290
     0
176
     1
 90
       50
176
     1
 90
       50
176
     1
 90
       50
176
     1
290
     0
176
     1
 90
       50
176
     1
 62
   256
176
     0
 40
1.0
176
     0
 90
        2
176
     1
  1
strokes_ogs.tif
176
     1
290
     0
176
     1
 40
1.0
176
     1
 40
1.0
176
     1
  0
VISUALSTYLE
  5
F2
102
{ACAD_REACTORS
330
EF
102
}
330
EF
100
AcDbVisualStyle
  2
Gouraud
 70
     2
177
     3
291
     1
 70
    58
 90
        2
176
     1
 90
        2
176
     1
 90
        1
176
     1
 90
        2
176
     1
 40
0.6
176
     1
 40
30.0
176
     1
 62
     7
420
 16777215
176
     1
 90
        0
176
     1
 90
        0
176
     1
 62
     7
176
     1
 62
   257
176
     1
 90
        1
176
     1
 90
        1
176
     1
 40
1.0
176
     1
 90
        0
176
     1
 62
     7
176
     1
 40
1.0
176
     1
 90
        1
176
     1
 90
        6
176
     1
 90
        2
176
     1
 62
     7
176
     1
 90
        5
176
     1
 90
        0
176
     1
 90
        0
176
     1
290
     0
176
     1
 90
       13
176
     1
 40
0.0
176
     1
 90
        0
176
     1
290
     0
176
     1
290
     1
176
     1
290
     1
176
     1
290
     0
176
     1
290
     0
176
     1
290
     0
176
     1
290
     0
176
     1
290
     0
176
     1
290
     0
176
     1
 90
       50
176
     1
 40
0.0
176
     1
 40
1.0
176
     1
 90
        0
176
     1
 62
    18
420
        0
176
     1
 90
       50
176
     1
 90
        3
176
     1
 62
     5
420
      255
176
     1
290
     0
176
     1
 90
       50
176
     1
 90
       50
176
     1
 90
       50
176
     1
290
     0
176
     1
 90
       50
176
     1
 62
   256
176
     0
 40
1.0
176
     0
 90
        2
176
     1
  1
strokes_ogs.tif
176
     1
290
     0
176
     1
 40
1.0
176
     1
 40
1.0
176
     1
  0
VISUALSTYLE
  5
F3
102
{ACAD_REACTORS
330
EF
102
}
330
EF
100
AcDbVisualStyle
  2
GouraudWithEdges
 70
     3
177
     3
291
     1
 70
    58
 90
        2
176
     1
 90
        2
176
     1
 90
        1
176
     1
 90
        2
176
     1
 40
0.6
176
     1
 40
30.0
176
     1
 62
     7
420
 16777215
176
     1
 90
        1
176
     1
 90
        0
176
     1
 62
     7
176
     1
 62
   257
176
     1
 90
        1
176
     1
 90
        1
176
     1
 40
1.0
176
     1
 90
        0
176
     1
 62
   257
176
     1
 40
1.0
176
     1
 90
        1
176
     1
 90
        6
176
     1
 90
        2
176
     1
 62
     7
176
     1
 90
        5
176
     1
 90
        0
176
     1
 90
        0
176
     1
290
     0
176
     1
 90
       13
176
     1
 40
0.0
176
     1
 90
        0
176
     1
290
     0
176
     1
290
     1
176
     1
290
     1
176
     1
290
     0
176
     1
290
     0
176
     1
290
     0
176
     1
290
     0
176
     1
290
     0
176
     1
290
     0
176
     1
 90
       50
176
     1
 40
0.0
176
     1
 40
1.0
176
     1
 90
        0
176
     1
 62
    18
420
        0
176
     1
 90
       50
176
     1
 90
        3
176
     1
 62
     5
420
      255
176
     1
290
     0
176
     1
 90
       50
176
     1
 90
       50
176
     1
 90
       50
176
     1
290
     0
176
     1
 90
       50
176
     1
 62
   256
176
     0
 40
1.0
176
     0
 90
        2
176
     1
  1
strokes_ogs.tif
176
     1
290
     0
176
     1
 40
1.0
176
     1
 40
1.0
176
     1
  0
VISUALSTYLE
  5
F7
102
{ACAD_REACTORS
330
EF
102
}
330
EF
100
AcDbVisualStyle
  2
Hidden
 70
     6
177
     3
291
     0
 70
    58
 90
        1
176
     1
 90
        2
176
     1
 90
        2
176
     1
 90
        0
176
     1
 40
0.6
176
     1
 40
30.0
176
     1
 62
     7
420
 16777215
176
     1
 90
        2
176
     1
 90
        2
176
     1
 62
     7
176
     1
 62
   257
176
     1
 90
        2
176
     1
 90
        1
176
     1
 40
40.0
176
     1
 90
        0
176
     1
 62
   257
176
     1
 40
1.0
176
     1
 90
        1
176
     1
 90
        6
176
     1
 90
        2
176
     1
 62
     7
176
     1
 90
        3
176
     1
 90
        0
176
     1
 90
        0
176
     1
290
     0
176
     1
 90
        1
176
     1
 40
0.0
176
     1
 90
        0
176
     1
290
     0
176
     1
290
     1
176
     1
290
     1
176
     1
290
     0
176
     1
290
     0
176
     1
290
     0
176
     1
290
     0
176
     1
290
     0
176
     1
290
     0
176
     1
 90
       50
176
     1
 40
0.0
176
     1
 40
1.0
176
     1
 90
        0
176
     1
 62
    18
420
        0
176
     1
 90
       50
176
     1
 90
        3
176
     1
 62
     5
420
      255
176
     1
290
     0
176
     1
 90
       50
176
     1
 90
       50
176
     1
 90
       50
176
     1
290
     0
176
     1
 90
       50
176
     1
 62
   256
176
     0
 40
1.0
176
     0
 90
        2
176
     1
  1
strokes_ogs.tif
176
     1
290
     0
176
     1
 40
1.0
176
     1
 40
1.0
176
     1
  0
VISUALSTYLE
  5
1E4
102
{ACAD_REACTORS
330
EF
102
}
330
EF
100
AcDbVisualStyle
  2
JitterOff
 70
    20
177
     3
291
     1
 70
    58
 90
        2
176
     0
 90
        2
176
     0
 90
        0
176
     0
 90
        0
176
     0
 40
0.6
176
     0
 40
30.0
176
     0
 62
     7
420
 16777215
176
     0
 90
        1
176
     0
 90
        4
176
     0
 62
     7
176
     0
 62
   257
176
     0
 90
        1
176
     0
 90
        1
176
     0
 40
1.0
176
     0
 90
       10
176
     2
 62
     7
176
     0
 40
1.0
176
     0
 90
        1
176
     0
 90
        6
176
     0
 90
        2
176
     0
 62
     7
176
     0
 90
        5
176
     0
 90
        0
176
     0
 90
        0
176
     0
290
     0
176
     0
 90
        1
176
     0
 40
0.0
176
     0
 90
        0
176
     0
290
     0
176
     1
290
     1
176
     1
290
     1
176
     1
290
     0
176
     1
290
     0
176
     1
290
     0
176
     1
290
     0
176
     1
290
     0
176
     1
290
     0
176
     1
 90
       50
176
     1
 40
0.0
176
     1
 40
1.0
176
     1
 90
        0
176
     1
 62
    18
420
        0
176
     1
 90
       50
176
     1
 90
        3
176
     1
 62
     5
420
      255
176
     1
290
     0
176
     1
 90
       50
176
     1
 90
       50
176
     1
 90
       50
176
     1
290
     0
176
     1
 90
       50
176
     1
 62
   256
176
     0
 40
1.0
176
     0
 90
        2
176
     1
  1
strokes_ogs.tif
176
     1
290
     0
176
     1
 40
1.0
176
     1
 40
1.0
176
     1
  0
VISUALSTYLE
  5
FD
102
{ACAD_REACTORS
330
EF
102
}
330
EF
100
AcDbVisualStyle
  2
Linepattern
 70
    14
177
     3
291
     1
 70
    58
 90
        2
176
     1
 90
        2
176
     1
 90
        1
176
     1
 90
        0
176
     1
 40
0.6
176
     1
 40
30.0
176
     1
 62
     7
420
 16777215
176
     1
 90
        1
176
     1
 90
        4
176
     1
 62
     7
176
     1
 62
   257
176
     1
 90
        7
176
     1
 90
        7
176
     1
 40
1.0
176
     1
 90
        8
176
     1
 62
     7
176
     1
 40
1.0
176
     1
 90
        1
176
     1
 90
        6
176
     1
 90
        2
176
     1
 62
     7
176
     1
 90
        5
176
     1
 90
        0
176
     1
 90
        0
176
     1
290
     0
176
     1
 90
        1
176
     1
 40
0.0
176
     1
 90
        0
176
     1
290
     0
176
     1
290
     1
176
     1
290
     1
176
     1
290
     0
176
     1
290
     0
176
     1
290
     0
176
     1
290
     0
176
     1
290
     0
176
     1
290
     0
176
     1
 90
       50
176
     1
 40
0.0
176
     1
 40
1.0
176
     1
 90
        0
176
     1
 62
    18
420
        0
176
     1
 90
       50
176
     1
 90
        3
176
     1
 62
     5
420
      255
176
     1
290
     0
176
     1
 90
       50
176
     1
 90
       50
176
     1
 90
       50
176
     1
290
     0
176
     1
 90
       50
176
     1
 62
   256
176
     0
 40
1.0
176
     0
 90
        2
176
     1
  1
strokes_ogs.tif
176
     1
290
     0
176
     1
 40
1.0
176
     1
 40
1.0
176
     1
  0
VISUALSTYLE
  5
1E5
102
{ACAD_REACTORS
330
EF
102
}
330
EF
100
AcDbVisualStyle
  2
OverhangOff
 70
    21
177
     3
291
     1
 70
    58
 90
        2
176
     0
 90
        2
176
     0
 90
        0
176
     0
 90
        0
176
     0
 40
0.6
176
     0
 40
30.0
176
     0
 62
     7
420
 16777215
176
     0
 90
        1
176
     0
 90
        4
176
     0
 62
     7
176
     0
 62
   257
176
     0
 90
        1
176
     0
 90
        1
176
     0
 40
1.0
176
     0
 90
        9
176
     2
 62
     7
176
     0
 40
1.0
176
     0
 90
        1
176
     0
 90
        6
176
     0
 90
        2
176
     0
 62
     7
176
     0
 90
        5
176
     0
 90
        0
176
     0
 90
        0
176
     0
290
     0
176
     0
 90
        1
176
     0
 40
0.0
176
     0
 90
        0
176
     0
290
     0
176
     1
290
     1
176
     1
290
     1
176
     1
290
     0
176
     1
290
     0
176
     1
290
     0
176
     1
290
     0
176
     1
290
     0
176
     1
290
     0
176
     1
 90
       50
176
     1
 40
0.0
176
     1
 40
1.0
176
     1
 90
        0
176
     1
 62
    18
420
        0
176
     1
 90
       50
176
     1
 90
        3
176
     1
 62
     5
420
      255
176
     1
290
     0
176
     1
 90
       50
176
     1
 90
       50
176
     1
 90
       50
176
     1
290
     0
176
     1
 90
       50
176
     1
 62
   256
176
     0
 40
1.0
176
     0
 90
        2
176
     1
  1
strokes_ogs.tif
176
     1
290
     0
176
     1
 40
1.0
176
     1
 40
1.0
176
     1
  0
VISUALSTYLE
  5
F9
102
{ACAD_REACTORS
330
EF
102
}
330
EF
100
AcDbVisualStyle
  2
Realistic
 70
     8
177
     3
291
     0
 70
    58
 90
        2
176
     1
 90
        3
176
     1
 90
        0
176
     1
 90
        2
176
     1
 40
0.6
176
     1
 40
30.0
176
     1
 62
     7
420
 16777215
176
     1
 90
        0
176
     1
 90
        0
176
     1
 62
     7
176
     1
 62
   257
176
     1
 90
        1
176
     1
 90
        1
176
     1
 40
1.0
176
     1
 90
        8
176
     1
 62
   257
176
     1
 40
1.0
176
     1
 90
        1
176
     1
 90
        6
176
     1
 90
        2
176
     1
 62
     7
176
     1
 90
        3
176
     1
 90
        0
176
     1
 90
        0
176
     1
290
     0
176
     1
 90
       13
176
     1
 40
0.0
176
     1
 90
        0
176
     1
290
     0
176
     1
290
     1
176
     1
290
     1
176
     1
290
     0
176
     1
290
     0
176
     1
290
     0
176
     1
290
     0
176
     1
290
     0
176
     1
290
     0
176
     1
 90
       50
176
     1
 40
0.0
176
     1
 40
1.0
176
     1
 90
        0
176
     1
 62
    18
420
        0
176
     1
 90
       50
176
     1
 90
        3
176
     1
 62
     5
420
      255
176
     1
290
     0
176
     1
 90
       50
176
     1
 90
       50
176
     1
 90
       50
176
     1
290
     0
176
     1
 90
       50
176
     1
 62
   256
176
     0
 40
1.0
176
     0
 90
        2
176
     1
  1
strokes_ogs.tif
176
     1
290
     0
176
     1
 40
1.0
176
     1
 40
1.0
176
     1
  0
VISUALSTYLE
  5
1F3
102
{ACAD_REACTORS
330
EF
102
}
330
EF
100
AcDbVisualStyle
  2
Shaded
 70
    27
177
     3
291
     0
 70
    58
 90
        2
176
     1
 90
        2
176
     1
 90
        1
176
     1
 90
        2
176
     1
 40
0.6
176
     1
 40
30.0
176
     1
 62
     7
420
 16777215
176
     1
 90
        0
176
     1
 90
        4
176
     1
 62
     7
176
     1
 62
   257
176
     1
 90
        1
176
     1
 90
        1
176
     1
 40
1.0
176
     1
 90
        8
176
     1
 62
   257
176
     1
 40
1.0
176
     1
 90
        1
176
     1
 90
        6
176
     1
 90
        2
176
     1
 62
     8
420
  7895160
176
     1
 90
        3
176
     1
 90
        0
176
     1
 90
        0
176
     1
290
     0
176
     1
 90
        5
176
     1
 40
0.0
176
     1
 90
        0
176
     1
290
     0
176
     1
290
     1
176
     1
290
     1
176
     1
290
     0
176
     1
290
     0
176
     1
290
     0
176
     1
290
     0
176
     1
290
     0
176
     1
290
     0
176
     1
 90
       50
176
     1
 40
0.0
176
     1
 40
1.0
176
     1
 90
        0
176
     1
 62
    18
420
        0
176
     1
 90
       50
176
     1
 90
        3
176
     1
 62
     5
420
      255
176
     1
290
     0
176
     1
 90
       50
176
     1
 90
       50
176
     1
 90
       50
176
     1
290
     0
176
     1
 90
       50
176
     1
 62
   256
176
     0
 40
1.0
176
     0
 90
        2
176
     1
  1
strokes_ogs.tif
176
     1
290
     0
176
     1
 40
1.0
176
     1
 40
1.0
176
     1
  0
VISUALSTYLE
  5
1F2
102
{ACAD_REACTORS
330
EF
102
}
330
EF
100
AcDbVisualStyle
  2
Shaded with edges
 70
    26
177
     3
291
     0
 70
    58
 90
        2
176
     1
 90
        2
176
     1
 90
        1
176
     1
 90
        2
176
     1
 40
0.6
176
     1
 40
30.0
176
     1
 62
     7
420
 16777215
176
     1
 90
        1
176
     1
 90
        2
176
     1
 62
     7
176
     1
 62
   257
176
     1
 90
        2
176
     1
 90
        1
176
     1
 40
1.0
176
     1
 90
        8
176
     1
 62
   257
176
     1
 40
1.0
176
     1
 90
        1
176
     1
 90
        6
176
     1
 90
        2
176
     1
 62
     7
176
     1
 90
        3
176
     1
 90
        0
176
     1
 90
        0
176
     1
290
     0
176
     1
 90
        5
176
     1
 40
0.0
176
     1
 90
        0
176
     1
290
     0
176
     1
290
     1
176
     1
290
     1
176
     1
290
     0
176
     1
290
     0
176
     1
290
     0
176
     1
290
     0
176
     1
290
     0
176
     1
290
     0
176
     1
 90
       50
176
     1
 40
0.0
176
     1
 40
1.0
176
     1
 90
        0
176
     1
 62
    18
420
        0
176
     1
 90
       50
176
     1
 90
        3
176
     1
 62
     5
420
      255
176
     1
290
     0
176
     1
 90
       50
176
     1
 90
       50
176
     1
 90
       50
176
     1
290
     0
176
     1
 90
       50
176
     1
 62
   256
176
     0
 40
1.0
176
     0
 90
        2
176
     1
  1
strokes_ogs.tif
176
     1
290
     0
176
     1
 40
1.0
176
     1
 40
1.0
176
     1
  0
VISUALSTYLE
  5
1EF
102
{ACAD_REACTORS
330
EF
102
}
330
EF
100
AcDbVisualStyle
  2
Shades of Gray
 70
    23
177
     3
291
     0
 70
    58
 90
        2
176
     1
 90
        2
176
     1
 90
        3
176
     1
 90
        0
176
     1
 40
0.6
176
     1
 40
30.0
176
     1
 62
     7
420
 16777215
176
     1
 90
        2
176
     1
 90
        2
176
     1
 62
     7
176
     1
 62
     7
176
     1
 90
        1
176
     1
 90
        1
176
     1
 40
40.0
176
     1
 90
        8
176
     1
 62
     7
176
     1
 40
1.0
176
     1
 90
        1
176
     1
 90
        6
176
     1
 90
        2
176
     1
 62
     7
176
     1
 90
        3
176
     1
 90
        0
176
     1
 90
        0
176
     1
290
     0
176
     1
 90
        1
176
     1
 40
0.0
176
     1
 90
        0
176
     1
290
     0
176
     1
290
     1
176
     1
290
     1
176
     1
290
     0
176
     1
290
     0
176
     1
290
     0
176
     1
290
     0
176
     1
290
     0
176
     1
290
     0
176
     1
 90
       50
176
     1
 40
0.0
176
     1
 40
1.0
176
     1
 90
        0
176
     1
 62
    18
420
        0
176
     1
 90
       50
176
     1
 90
        3
176
     1
 62
     5
420
      255
176
     1
290
     0
176
     1
 90
       50
176
     1
 90
       50
176
     1
 90
       50
176
     1
290
     0
176
     1
 90
       50
176
     1
 62
   256
176
     0
 40
1.0
176
     0
 90
        2
176
     1
  1
strokes_ogs.tif
176
     1
290
     0
176
     1
 40
1.0
176
     1
 40
1.0
176
     1
  0
VISUALSTYLE
  5
1F0
102
{ACAD_REACTORS
330
EF
102
}
330
EF
100
AcDbVisualStyle
  2
Sketchy
 70
    24
177
     3
291
     0
 70
    58
 90
        1
176
     1
 90
        2
176
     1
 90
        2
176
     1
 90
        0
176
     1
 40
0.6
176
     1
 40
30.0
176
     1
 62
     7
420
 16777215
176
     1
 90
        2
176
     1
 90
        2
176
     1
 62
     7
176
     1
 62
     7
176
     1
 90
        1
176
     1
 90
        1
176
     1
 40
40.0
176
     1
 90
       11
176
     1
 62
     7
176
     1
 40
1.0
176
     1
 90
        1
176
     1
 90
        6
176
     1
 90
        2
176
     1
 62
     7
176
     1
 90
        6
176
     1
 90
        0
176
     1
 90
        0
176
     1
290
     0
176
     1
 90
        1
176
     1
 40
0.0
176
     1
 90
        0
176
     1
290
     0
176
     1
290
     1
176
     1
290
     1
176
     1
290
     0
176
     1
290
     0
176
     1
290
     0
176
     1
290
     0
176
     1
290
     0
176
     1
290
     0
176
     1
 90
       50
176
     1
 40
0.0
176
     1
 40
1.0
176
     1
 90
        0
176
     1
 62
    18
420
        0
176
     1
 90
       50
176
     1
 90
        3
176
     1
 62
     5
420
      255
176
     1
290
     0
176
     1
 90
       50
176
     1
 90
       50
176
     1
 90
       50
176
     1
290
     0
176
     1
 90
       50
176
     1
 62
   256
176
     0
 40
1.0
176
     0
 90
        2
176
     1
  1
strokes_ogs.tif
176
     1
290
     0
176
     1
 40
1.0
176
     1
 40
1.0
176
     1
  0
VISUALSTYLE
  5
FC
102
{ACAD_REACTORS
330
EF
102
}
330
EF
100
AcDbVisualStyle
  2
Thicken
 70
    13
177
     3
291
     1
 70
    58
 90
        2
176
     1
 90
        2
176
     1
 90
        1
176
     1
 90
        0
176
     1
 40
0.6
176
     1
 40
30.0
176
     1
 62
     7
420
 16777215
176
     1
 90
        1
176
     1
 90
        4
176
     1
 62
     7
176
     1
 62
   257
176
     1
 90
        1
176
     1
 90
        1
176
     1
 40
1.0
176
     1
 90
       12
176
     1
 62
     7
176
     1
 40
1.0
176
     1
 90
        1
176
     1
 90
        6
176
     1
 90
        2
176
     1
 62
     7
176
     1
 90
        5
176
     1
 90
        0
176
     1
 90
        0
176
     1
290
     0
176
     1
 90
        1
176
     1
 40
0.0
176
     1
 90
        0
176
     1
290
     0
176
     1
290
     1
176
     1
290
     1
176
     1
290
     0
176
     1
290
     0
176
     1
290
     0
176
     1
290
     0
176
     1
290
     0
176
     1
290
     0
176
     1
 90
       50
176
     1
 40
0.0
176
     1
 40
1.0
176
     1
 90
        0
176
     1
 62
    18
420
        0
176
     1
 90
       50
176
     1
 90
        3
176
     1
 62
     5
420
      255
176
     1
290
     0
176
     1
 90
       50
176
     1
 90
       50
176
     1
 90
       50
176
     1
290
     0
176
     1
 90
       50
176
     1
 62
   256
176
     0
 40
1.0
176
     0
 90
        2
176
     1
  1
strokes_ogs.tif
176
     1
290
     0
176
     1
 40
1.0
176
     1
 40
1.0
176
     1
  0
VISUALSTYLE
  5
F6
102
{ACAD_REACTORS
330
EF
102
}
330
EF
100
AcDbVisualStyle
  2
Wireframe
 70
     5
177
     3
291
     0
 70
    58
 90
        0
176
     1
 90
        2
176
     1
 90
        0
176
     1
 90
        0
176
     1
 40
0.6
176
     1
 40
30.0
176
     1
 62
     7
420
 16777215
176
     1
 90
        1
176
     1
 90
        4
176
     1
 62
     7
176
     1
 62
   257
176
     1
 90
        1
176
     1
 90
        1
176
     1
 40
1.0
176
     1
 90
        0
176
     1
 62
   257
176
     1
 40
1.0
176
     1
 90
        1
176
     1
 90
        6
176
     1
 90
        2
176
     1
 62
     7
176
     1
 90
        3
176
     1
 90
        0
176
     1
 90
        0
176
     1
290
     0
176
     1
 90
        1
176
     1
 40
0.0
176
     1
 90
        0
176
     1
290
     0
176
     1
290
     1
176
     1
290
     1
176
     1
290
     0
176
     1
290
     0
176
     1
290
     0
176
     1
290
     0
176
     1
290
     0
176
     1
290
     0
176
     1
 90
       50
176
     1
 40
0.0
176
     1
 40
1.0
176
     1
 90
        0
176
     1
 62
    18
420
        0
176
     1
 90
       50
176
     1
 90
        3
176
     1
 62
     5
420
      255
176
     1
290
     0
176
     1
 90
       50
176
     1
 90
       50
176
     1
 90
       50
176
     1
290
     0
176
     1
 90
       50
176
     1
 62
   256
176
     0
 40
1.0
176
     0
 90
        2
176
     1
  1
strokes_ogs.tif
176
     1
290
     0
176
     1
 40
1.0
176
     1
 40
1.0
176
     1
  0
VISUALSTYLE
  5
1F1
102
{ACAD_REACTORS
330
EF
102
}
330
EF
100
AcDbVisualStyle
  2
X-Ray
 70
    25
177
     3
291
     0
 70
    58
 90
        2
176
     1
 90
        2
176
     1
 90
        1
176
     1
 90
        1
176
     1
 40
0.5
176
     1
 40
30.0
176
     1
 62
     7
420
 16777215
176
     1
 90
        1
176
     1
 90
        0
176
     1
 62
     7
176
     1
 62
   257
176
     1
 90
        1
176
     1
 90
        1
176
     1
 40
1.0
176
     1
 90
        8
176
     1
 62
     7
176
     1
 40
1.0
176
     1
 90
        1
176
     1
 90
        6
176
     1
 90
        2
176
     1
 62
     7
176
     1
 90
        3
176
     1
 90
        0
176
     1
 90
        0
176
     1
290
     0
176
     1
 90
       13
176
     1
 40
0.0
176
     1
 90
        0
176
     1
290
     0
176
     1
290
     1
176
     1
290
     1
176
     1
290
     0
176
     1
290
     0
176
     1
290
     0
176
     1
290
     0
176
     1
290
     0
176
     1
290
     0
176
     1
 90
       50
176
     1
 40
0.0
176
     1
 40
1.0
176
     1
 90
        0
176
     1
 62
    18
420
        0
176
     1
 90
       50
176
     1
 90
        3
176
     1
 62
     5
420
      255
176
     1
290
     0
176
     1
 90
       50
176
     1
 90
       50
176
     1
 90
       50
176
     1
290
     0
176
     1
 90
       50
176
     1
 62
   256
176
     0
 40
1.0
176
     0
 90
        2
176
     1
  1
strokes_ogs.tif
176
     1
290
     0
176
     1
 40
1.0
176
     1
 40
1.0
176
     1
  0
DICTIONARYVAR
  5
146
102
{ACAD_REACTORS
330
5E
102
}
330
5E
100
DictionaryVariables
280
     0
  1
1:1
  0
DICTIONARYVAR
  5
145
102
{ACAD_REACTORS
330
5E
102
}
330
5E
100
DictionaryVariables
280
     0
  1
STANDARD
  0
DICTIONARYVAR
  5
84
102
{ACAD_REACTORS
330
5E
102
}
330
5E
100
DictionaryVariables
280
     0
  1
STANDARD
  0
DICTIONARYVAR
  5
227
102
{ACAD_REACTORS
330
5E
102
}
330
5E
100
DictionaryVariables
280
     0
  1
Metric50
  0
DICTIONARYVAR
  5
228
102
{ACAD_REACTORS
330
5E
102
}
330
5E
100
DictionaryVariables
280
     0
  1
Metric50
  0
DICTIONARYVAR
  5
5F
102
{ACAD_REACTORS
330
5E
102
}
330
5E
100
DictionaryVariables
280
     0
  1
2
  0
DICTIONARYVAR
  5
63
102
{ACAD_REACTORS
330
5E
102
}
330
5E
100
DictionaryVariables
280
     0
  1
1
  0
DICTIONARYVAR
  5
1AE
102
{ACAD_REACTORS
330
5E
102
}
330
5E
100
DictionaryVariables
280
     0
  1
0
  0
DICTIONARYVAR
  5
1AF
102
{ACAD_REACTORS
330
5E
102
}
330
5E
100
DictionaryVariables
280
     0
  1
0
  0
DICTIONARY
  5
236
330
21C
100
AcDbDictionary
280
     1
281
     1
  3
ACAD_XREC_ROUNDTRIP
360
1012D92
  0
DICTIONARY
  5
205
330
22
100
AcDbDictionary
280
     1
281
     1
  0
DICTIONARY
  5
1F9
330
ED
100
AcDbDictionary
280
     1
281
     1
  3
FBXASSET
360
1FA
  0
DICTIONARY
  5
1F7
330
EC
100
AcDbDictionary
280
     1
281
     1
  3
FBXASSET
360
1F8
  0
DICTIONARY
  5
173
330
EE
100
AcDbDictionary
280
     1
281
     1
  3
BUMPTILE
360
175
  3
DIFFUSETILE
360
174
  3
FBXASSET
360
1FB
  3
OPACITYTILE
360
176
  3
REFLECTIONTILE
360
177
  0
DICTIONARY
  5
234
330
21A
100
AcDbDictionary
280
     1
281
     1
  3
ACAD_XREC_ROUNDTRIP
360
1012D91
  0
DICTIONARY
  5
162
330
7F
100
AcDbDictionary
280
     1
281
     1
  3
ACAD_ROUNDTRIP_2008_TABLESTYLE_CELLSTYLEMAP
360
1012D90
  0
XRECORD
  5
1012D92
102
{ACAD_REACTORS
330
236
102
}
330
236
100
AcDbXrecord
280
     1
102
DISPLAYNAME
  1
Metric50
102
FLAGS
 90
        0
  0
XRECORD
  5
1FA
102
{ACAD_REACTORS
330
1F9
102
}
330
1F9
100
AcDbXrecord
280
     1
 70
     1
 90
429727718
  1
D62C5603-E3A1-4AEA-B7FB-FE5D8D0755AF
310
504B03040A0000080000CC70623B3DEE336E79000000790000001B0000006175746F6465736B2D64657369676E2D7061636B6167652E786D6C3C3F786D6C2076657273696F6E3D22312E302220656E636F64696E673D227574662D3822203F3E3C666F726D6174733E3C666F726D61743E687474703A2F2F736368656D612E
310
6175746F6465736B2E636F6D2F64657369676E2D7061636B6167652F323030393C2F666F726D61743E3C2F666F726D6174733E504B0304140006080800CC70623BD486FD9CA0000000F4000000130000005B436F6E74656E745F54797065735D2E786D6C7D8EC10E82300C865F65E91D8A1E8C310C0EEA1BF002731658846E
310
D98AC1B77784ABF1D8FE5FBFBF75BBCE937A534CCEB38643598122B6FEE978D0B0485F9C41B54DDD7D022595594E1A469170414C76A4D9A4D207E29CF43ECE46F218070CC6BECC4078ACAA135ACF422C856C0E68EA1BF5669944DDD7BCDE7B1F8E415D77AECB980613C2E4AC91FC167A2B244592486606FC29C8FD7F045B9A
310
EF7053A7E60B504B0304140006080800CC70623B853B8169EB0000007C01000008000000636F72652E786D6C8D90416EC3201045AF62CDB6C206821CC7C244919D9CA01740401C94182C03558F5F9C3852BBEB6A467FFE9B197D7EFC9E1EC5975982F5AE035262288C535E5B377690E21535501C055FBC8FBF6C503839990E
310
5619041F179FE64D52DE45E362569DD7661365082642A11EB9E920A89B99642953CC8E702F67A9EE7234257977194EC9EAE275C4EABCCF5EAD5940D4AC6F0E35A568B8F43562CD7046CD199FD07E60174276A7BE677B5EADB0E0D14EEFFB6A31321A0D82627C4084204C3F096B71DD52F6819B16635EADF63F509AF53FA164
310
5DDCD1EDDD17164090FCC8732078B56691CB33A85CD7DCC40F504B0304140006080800CC70623B55019EA25F0000007C00000007000000636E782E786D6C4DCB3B0E80201045D1AD90E915ED2CF8AC45050C11660C8261F98AB1B07AC9C97D42D718D865D3E909258CFD00CCE24AC6E326A164D74DC0B4128928FF32603847
310
2BA13128B1252AC747C6BAB984FC68F0B87FE8960A5C09FE86CFB69FBA01504B0304140006080800CC70623BDBABAAF470010000D40300000C0000006662782F636F72652E786D6CC553D16E823014FD95A6AF4B694182CC941A83FA05FB810A9511A125A5257EFE2E82712ECEB8A7F100CD39F7F69E734AF9FADC366850B6
310
AF8DCE7018308C942E4C59EB2AC3DE1D498AD15A706B8CFB56869196ADCAF00863C12B6B7C374385D14E6907A836A59A41D9F7CA615434B0C8705F7CAA5606D23BA8E84F41278B93AC54100640439DE0BDB320004D43C63716C7C399D30917DCFBBA9CD9BA8469F5B156168B24CED3F7248AC8769F27244EB73B92EED8862C
310
B7F13E0C179B3C8F979C8ECD82BBBABDAA2BAC924E9558448CBD9330242CFA08E3154B5651FCC6D215639C8EE5774DBE2B5F6CF2B5768B68963BB5F5588420E442FC700B1139D4CB01F450C1E918227C2E09DF070D8140C84E1E9AAB8F1340832A9CB13130A5F1376A908D57309505ECF2A0DF179C4E9D30F5B239B87E3823
310
7A79C6F31DE1A8A5AEC08474B03C7837EAE4938639B44E5932B833D2C6B6B279CDC613877FA26EE21F4A2A4C63EC7F29A2F301D1F9F7A0E37D145F504B0304140006080800CC70623B9C113CC27E0000009D0000000B0000006662782F636E782E786D6C4DCCDF0A83201C86E15B91DFB94BFB330DD428C8FB886521330DA7
310
6397BF1A1DECE883878F57749FCDA1B7892F1BBC047A23808C7F84D9FA55424E0BE6803A256208E9EF06C84F9B91703228B1C690F78B66B34CD9A5439DF5CF0BFBF65E35BCA1B8D6A5C6F540381E886698B5741C695F9503EBA150A2F8958E3DC3EA0B504B0304140006080800CC70623B7DF2F77C2A010000120200003100
310
00006662782F41393633353835312D344632462D344230382D423046372D3739314545314133324237412F636F72652E786D6C8D51DB8EC22014FC15C2939B0D2DB4B45643319AE817EC0F6041255A68B86CFCFC856D4D76DF7CE190393373060EDB3DC707F856CE6B6B7A480A0C81328395DA5C7B18C3057510EC3873D686
310
3F34088C18550F330C39BB3A1BA7051AAC09CA84841A2BD5020AEF55806078A44B0FFD7053A328440C89E1EFC52486BBB8AA8214A99D789CF9E05200300FC927E4FB4D5B375D43103D5527440FB843077C5AA3F5861C8F645F5787F59E95B390B318B55CE45AA638FAA2957BD7248B390B7A7CC51F9C124149C82B8C378810
310
84AB2F42B7B8DD56F413775B8C5999E9FF4471926F8AA236A1AE96B8B3CC434E5839373893369E1FAF30EA395917409EB7F26AF8801C171837A4A6AC9C89E9F9C9B1A58BA30FD6A5EF5DDDCF894B9AD9B6A59C957943A9FCAE2FD5BC4DFE03504B0304140006080800CC70623BAD7543B64E01000033030000300000006662
310
782F41393633353835312D344632462D344230382D423046372D3739314545314133324237412F636E782E786D6CD593CD6EC32010845F0571AD6CE3D48AD20813A9873E410FBD12D82434182C7EAAE6EDBB2424CD25871E7B41D6EC30B3FA84F9E67BB2E40B4234DE8DB46F1925E094D7C6ED479AD3AE5951B2113C789FEE
310
6C943839C1488B4C05DF079FE72A69D8C96C13AAD6B8631503449F83828872B949AC57D26200B826A308D316B4064D6E46FCDA41C05550DC9E483A00797BFD207EFB092A45DE9514C1BBD22178396BD39D891265658C238DEA00936C654E5E433CB65A26D9F6EDB5EBC14EBF49A45CB856E66048291F6939A9A81BB5C89177
310
38143CA680F4AA299D66A042CEB3354A2684DC9D8D178FE0D9B8B41CAAD720F880EE7EF93C0C18769E099ECC04D5A102C8049A8A05632F4DDF376CF1DE0F6BB65C2F8627B65A33C6BB62177CEBBDAD973006829F89F22E814B54F4BC2BE347F8AA8F681390B50FA73F804400B5F542E796F19FF974E7F78DB802FE05E20750
310
4B0304140006080800CC70623BE75B7789680500003C100000340000006662782F41393633353835312D344632462D344230382D423046372D3739314545314133324237412F6F626A656374732E786D6CAD575B8F9B3818FD2B887D06C22499CB8AA1CA655245D5B455A356FB305264C061D8018C6C3393D95FBFC7600890
310
A4CD5EF210B0B1BFEBF98E3F7B1FF6596ABC522E1296DF9BAE3D320D9A872C4AF2F8DE2CE5CEBA358D0FBEC719939D65A691938CDE9B6ADAF4BD98B3B2D05311DD91329583D9D5FC0F438434A7A611A644887B5384CF34233629258BA878B12322891DEFF6B66BD70BFB62634E8AE781D082709A4B588AF91C528CDA28B73F
310
1C998EEF39EABBEFA97FBD6A7C7E9553F9D3D79FE442923C3C523610337627CB87ABE99D359D4CC6D6E4FACAB5E6ABF9D2726FC6A3C5F56271377BB88362213924694B38DD99FE47C48627A1E7D49F5A8BB5E1A74C0A599ED3B0F21F1E56366B89112D681E218F0915D0D6F17AD41FBA2A369DCF6335D62ABBD39779D5DDD1
310
11D4D8DE3CBB96B2E04FB8202E41051754A1AA8E8F76B4C6DFE810B580B1547F4B84911149794252234D024EF8BBE963A95AE27B3D310A9D5C215C7960FAEE415ED75694C6AFB17BCACA5D99A60A9AA65F217B0BFC53292ACB92BF283FAD0D3621576592CB5BED907C2FA8E9DF794E35E97BEA31BED21FEB401ABB94C44839
310
DCACBF0E1C5DA8DA5B2F4DFFD32AD86F543D9E565E7056502E157C00AD2671CD534549AB752FCA9CDA00677A313F04E51B22FF19E57B300579E3C97EB29F682D92935CEC18CF901B7B54FD8C51F362B56FC72FE0B3C1EAE335EDCCBF5AEC39ADB17DC238973F804BA5E6F6BFE7AF1FB32E523BE9F3BD571418E3631DCA4D48
310
5250CF639223210A9446CA30052EDF057BD35F8329C1ECD84552BF0DC8D18BE7BCE23BFE6BD960AB4A7DE79923A103BEBD80F911CBAA2C60DB19B01CF164A5583B772EE6D3FFA56666CBCDA74DC97724A48F9A58967497E489C4D979006FD7A05E227A1EBDD0F737C623387A9C844D3709995625106D157315F8B8392CD4E0
310
A0B9A720C4BE9829CEF37EA1E13111214D53925356365ADA634861B52519DD27A00AEB808EAF0628E6F435519D446F45CF2C9CF5214F0A15B2F6D06B79DA3EE3CBF7F56780D2F4E7EF73A0F5E5B02A38D07DC852C6B7C1FBB6664213E0C39E3EBA7FF4E1AD23EA2829407C85E586727488B751B2DB9502BC7B228A3FD68B6E
310
A65A22397E690AA8D158D7E404EC8CDA235CC3B7D1898680131CEC2CDF2638C65196279577750F15884AEE19F94199155B92B13297978469D4F8D358DF0AEF7631E28DC8F0D9F437D5D39A83B2231A1D52D543813A824EF8D44BCFF2FA6A31BD1E8DAD87F1CCB526B3879935BF59CDADD5C37479BB1CDD4CA7B3556B516589
310
EF352754B706114D9C885EC9131DE6EFEB43D99AFE2391C2F958179413D7CFEF6B1B6DB1E7600F00DE6E5C67454A339A4BA2E0FBA85ED26F045D454F463DBFCE484C2F90F2E5E3666003662ED8F755951A7D1BECD5B30B550B2785C8E7320B7292A4838DDA71BBC863ED7613CAF659337A3354231D4FF4A182A54904C2898C
310
98B28C4AD0CE056CCF332A80986E571EE9DBC305BB5FEB7E509220A58D25CF042D712A806AC0AD0C657FDEF80D2D9CEAA2EE4D1C76F60BFE74219A06527D6F82DF6412526107381E55E353090704D085B52408A8913C4ED159D79BDA71BB4BC506F4831350EB6F975CD22D69BF7AC49B91A2C0A9DDA3D5CA36AD20FC478E37
310
E61844E2352865EBCB61A275A65283CAAA9DD27703B4102F5AF51EF5F573B75CBB5AD38BC845F7A49F82A0966A49C2E3EA5EA0ECD326CD965F1DB402C6FA8B51A4658C5C5E2EC9E214602E55810345408596591009A82E7E7FFACA19EEA299B14A0081A705CB3296EBC14CDF658DCD336EA6D1136881AAEB87B81AB9EE53D5
310
F5EB8BC8362082DA24122F98680A4E7930C01A0079749CEA14382A0783E5EBA5A10F8C098456A03D6A4AEB6BB881E2513747552A5DB22C7EDAF83BD5528081A365F7FF06504B0304140006080000CC70623B000000000000000000000000350000006662782F41393633353835312D344632462D344230382D423046372D37
310
39314545314133324237412F76657274696365732E62696E504B0304140006080800CC70623BF270F1330600000004000000360000006662782F41393633353835312D344632462D344230382D423046372D3739314545314133324237412F747269616E676C65732E62696E636660600000504B0304140006080000CC7062
310
3B000000000000000000000000370000006662782F41393633353835312D344632462D344230382D423046372D3739314545314133324237412F617474726962757465732E62696E504B0304140006080800CC70623B08DA0BD19000000041010000360000006662782F41393633353835312D344632462D344230382D4230
310
46372D3739314545314133324237412F6469726563746F72792E786D6C858F410AC3201045AF22B36F53E9A60B35CBEEBAE80D244E44489C6234F4F835464A48035D0DF398FF9F8AF63D0E6CC63039F212F8F9020C7D47C6792B21C5FE7403D62A1188E2E60C98D7234A5830286103A55745067B9D86B8A3CF9C7F90C11DE6
310
07FB144396D7B6A82D282E9A152AD114D5EF2CB866EEE831B8EEA07A7BB5A8D7D61A2BAAEB7FD5F70921FF497D00504B0304140006080800CC70623BEDD1DC58FD000000A00100003B0000006662782F41393633353835312D344632462D344230382D423046372D3739314545314133324237412F7265736F75726365732F
310
636F72652E786D6C8D504B6E833010BD0A9A6D65B00922041947112427E8052C33A156828DFCA97AFC9A40A576D7CDCCE87D344F8F9FBFE667F689CE6B6B3A6039850C8DB2A336530731DC4903D95970676DF82583CCC8193B5861107C72362E3BA4AC096842428D1D7107A5F7182053CF7474E0D507CE32973124857FE48B
310
540F3961CEF244279DE03EB81420DB9EAC1384436FA353E879B1B182C7A8C75DA3C7F453DF353A1075D537A7BA6464B8F535A99AE14A9A2BBD90E350DD183B5CFABE3AF262350B1EF4FC9351399401471025A527C218A1E53BAB5A5AB765F5469B96525EACF23FA6B88CFF34456DC2A1DCE36E360F82A5202F42F062ED2BAD
310
579969AFDD8A6F504B010214000A0000080000CC70623B3DEE336E79000000790000001B00000000000000000000000000000000006175746F6465736B2D64657369676E2D7061636B6167652E786D6C504B01021400140006080800CC70623BD486FD9CA0000000F40000001300000000000000000000000000B20000005B
310
436F6E74656E745F54797065735D2E786D6C504B01021400140006080800CC70623B853B8169EB0000007C010000080000000000000000000000000083010000636F72652E786D6C504B01021400140006080800CC70623B55019EA25F0000007C000000070000000000000000000000000094020000636E782E786D6C504B
310
01021400140006080800CC70623BDBABAAF470010000D40300000C00000000000000000000000000180300006662782F636F72652E786D6C504B01021400140006080800CC70623B9C113CC27E0000009D0000000B00000000000000000000000000B20400006662782F636E782E786D6C504B01021400140006080800CC70
310
623B7DF2F77C2A010000120200003100000000000000000000000000590500006662782F41393633353835312D344632462D344230382D423046372D3739314545314133324237412F636F72652E786D6C504B01021400140006080800CC70623BAD7543B64E010000330300003000000000000000000000000000D2060000
310
6662782F41393633353835312D344632462D344230382D423046372D3739314545314133324237412F636E782E786D6C504B01021400140006080800CC70623BE75B7789680500003C10000034000000000000000000000000006E0800006662782F41393633353835312D344632462D344230382D423046372D3739314545
310
314133324237412F6F626A656374732E786D6C504B01021400140006080000CC70623B0000000000000000000000003500000000000000000000000000280E00006662782F41393633353835312D344632462D344230382D423046372D3739314545314133324237412F76657274696365732E62696E504B01021400140006
310
080800CC70623BF270F133060000000400000036000000000000000000000000007B0E00006662782F41393633353835312D344632462D344230382D423046372D3739314545314133324237412F747269616E676C65732E62696E504B01021400140006080000CC70623B0000000000000000000000003700000000000000
310
000000000000D50E00006662782F41393633353835312D344632462D344230382D423046372D3739314545314133324237412F617474726962757465732E62696E504B01021400140006080800CC70623B08DA0BD1900000004101000036000000000000000000000000002A0F00006662782F41393633353835312D344632
310
462D344230382D423046372D3739314545314133324237412F6469726563746F72792E786D6C504B01021400140006080800CC70623BEDD1DC58FD000000A00100003B000000000000000000000000000E1000006662782F41393633353835312D344632462D344230382D423046372D3739314545314133324237412F7265
310
736F75726365732F636F72652E786D6C504B0506000000000E000E0080040000641100000000
  0
XRECORD
  5
1F8
102
{ACAD_REACTORS
330
1F7
102
}
330
1F7
100
AcDbXrecord
280
     1
 70
     1
 90
429727718
  1
30362254-06B7-45E0-A893-8CFA70E3D6BC
310
504B03040A0000080000CC70623B3DEE336E79000000790000001B0000006175746F6465736B2D64657369676E2D7061636B6167652E786D6C3C3F786D6C2076657273696F6E3D22312E302220656E636F64696E673D227574662D3822203F3E3C666F726D6174733E3C666F726D61743E687474703A2F2F736368656D612E
310
6175746F6465736B2E636F6D2F64657369676E2D7061636B6167652F323030393C2F666F726D61743E3C2F666F726D6174733E504B0304140006080800CC70623BD486FD9CA0000000F4000000130000005B436F6E74656E745F54797065735D2E786D6C7D8EC10E82300C865F65E91D8A1E8C310C0EEA1BF002731658846E
310
D98AC1B77784ABF1D8FE5FBFBF75BBCE937A534CCEB38643598122B6FEE978D0B0485F9C41B54DDD7D022595594E1A469170414C76A4D9A4D207E29CF43ECE46F218070CC6BECC4078ACAA135ACF422C856C0E68EA1BF5669944DDD7BCDE7B1F8E415D77AECB980613C2E4AC91FC167A2B244592486606FC29C8FD7F045B9A
310
EF7053A7E60B504B0304140006080800CC70623B1EC5D7A3EB0000007C01000008000000636F72652E786D6C8D90416EC3201045AF82665B6103C6756C6122AB4D4ED00B204C5C94182C03558F5F9C3852BBEB6A467FFE9B197D71FC9E6FE8CBACC17AD7032D0820E3B41FAD9B7A48F1820F808E52ACDEC75F36404ECDA687
310
4D0629A6D5A76597B477D1B89855E747B38B2A041301E95B6E7A08FAD3CCAA50296647B8168BD2573599823EBB0CA76447F43862C7BCCF5EAC59410E4DDD9C7973C2755553CCCFA4C603E3040F1565ED3B1FDE4E432BCA0D9622DAF9795FAF464533826484B498524CD807E51D79ED187F21878E10516EF63F505AC67F42C9
310
BA58B1FDDD071640D2FCC87D2045B96591CB3DA85CB7DCE40F504B0304140006080800CC70623B55019EA25F0000007C00000007000000636E782E786D6C4DCB3B0E80201045D1AD90E915ED2CF8AC45050C11660C8261F98AB1B07AC9C97D42D718D865D3E909258CFD00CCE24AC6E326A164D74DC0B4128928FF32603847
310
2BA13128B1252AC747C6BAB984FC68F0B87FE8960A5C09FE86CFB69FBA01504B0304140006080800CC70623B8C9102E971010000D40300000C0000006662782F636F72652E786D6CC5535B6E833010BC8AE5DF0A6C08340F1947A84D4ED00B38C6A128602363A31CBFCB234A53A551FA553EC09AD9F5CE8C31DB9E9B1AF5CA
310
7695D1198E428A91D2D214952E33ECDD315861B4E5CC1AE3BE9561A445A3323CC098B3D21ADFCE9034DA29ED00D5A6503328BA4E398C640D8B0C77F253352214DE4145770A5B214FA2546114020D759C75CE8200340D19DE981F0F6746269C33EFAB6266AB02A655C74A59CCF365BADC27CB5D902ED22848F6340DF238A141
310
BE88E2F57B92BFEDF23523433367AE6A2EEAA455C2A902F398D2751045018D3FA264435F3771F242571B4A1919CA6F9A7C5B3CD9E42BED16F12C776AEB308F40C848FC700B1139D4891EF410CEC810227CC6846F8386402064270EF5C5C709A05E49676C024C61FC95EA45ED154CA5211D1FF4FB8291A913A68E9B83EBBB33
310
E2A7673CDE118E5AE8124C0807CB8377834E366998436B950D7A7746DAD846D4CFD978E0F04FD455FC5D49D2D4C6FE9722321F10997F0F32DC47FE05504B0304140006080800CC70623BFFEA85907E0000009D0000000B0000006662782F636E782E786D6C4DCCD10A83201886E15B91FFDC95D95A811AB6F23E625948A6C3
310
E9D8E5AF46073BFAE0E1E365ED67B3E8ADC3CB78C7815C7240DA3DFC64DCC221C519D7805AC182F7F1EF06C88D9BE6703008B6049F9E274D7A1E938DBB5AE3D6131B2589BA0D3D965551E0B2EA732C9B9A624AAEB41E3A557677029960D9AFB4EF11165F504B0304140006080800CC70623B4FEEA4082C0100001202000031
310
0000006662782F39464131463745442D413632322D343644302D413938332D3331353338454246344243312F636F72652E786D6C8D515B6EC32010BC0AE2AB55850DD871ED0813254D72825EC00192A2C460F1A872FC42ED48ED5F7E00CDCECCCEB26C731F6FE05B39AFADE921293004CA082BB5B9F43086336A21D870E6AC
310
0D7F68109861543DCC30E4ECE26C9C164858139409093556AA051CBC570102714B8F1E7AF1A5C6A11862480C7F2DA6415C878B2A4891CA89C7990F2E050073937C42DE1DB7E4F87ED8A36D4329AA9B3D46DBAEAD504556557BD81DEBDD0761E52CE42C462D17B996298E3E6BE59E35C962CE821E1FF18553435012728A7187
310
0841987E927A8D9B35ADDF70BBC6989599FE4F1427F9A4286A132ABAC49D651EF234CD5CE04CDA78BA3DC2A8FB645D00B9DF8B57E215725C60BCA2A463E54C4CE327C7A65E1C7DB02E7DEFCBF594B864C5CA6CDBD49C957943E9FA5D5FBAF336F90F504B0304140006080800CC70623BAD7543B64E01000033030000300000
310
006662782F39464131463745442D413632322D343644302D413938332D3331353338454246344243312F636E782E786D6CD593CD6EC32010845F0571AD6CE3D48AD20813A9873E410FBD12D82434182C7EAAE6EDBB2424CD25871E7B41D6EC30B3FA84F9E67BB2E40B4234DE8DB46F1925E094D7C6ED479AD3AE5951B2113C
310
789FEE6C943839C1488B4C05DF079FE72A69D8C96C13AAD6B8631503449F83828872B949AC57D26200B826A308D316B4064D6E46FCDA41C05550DC9E483A00797BFD207EFB092A45DE9514C1BBD22178396BD39D891265658C238DEA00936C654E5E433CB65A26D9F6EDB5EBC14EBF49A45CB856E66048291F6939A9A81BB5
310
C8917738143CA680F4AA299D66A042CEB3354A2684DC9D8D178FE0D9B8B41CAAD720F880EE7EF93C0C18769E099ECC04D5A102C8049A8A05632F4DDF376CF1DE0F6BB65C2F8627B65A33C6BB62177CEBBDAD973006829F89F22E814B54F4BC2BE347F8AA8F681390B50FA73F804400B5F542E796F19FF974E7F78DB802FE05
310
E207504B0304140006080800CC70623B16AB87BA640500003C100000340000006662782F39464131463745442D413632322D343644302D413938332D3331353338454246344243312F6F626A656374732E786D6CAD575B6FA33818FD2B887DE6924B3BED8A326A92B68A663B534DD4D13E548A0C38942D60649B369D5FBFC7
310
600890A493BDE42160637FD7F31D7FF63E6FB3D478A55C242CBF3247B66B1A340F5994E4F19559CA8D75611A9F7D8F33263BCB4C232719BD32D5B4E97B316765A1A722BA21652A07B3B7B33F0D11D29C9A46981221AE4C113ED38CD8A4942CA2E2C58E882476BCD9DA23BB5ED8171B73523C0F841684D35CC252CCE79062D4
310
468DFA43D7747CCF51DF7D4FFDEB5593E3AB9CCA9FBEFE241792E4E19EB28198C968BAB8199F5D5A67D3E9C49A9E8F47D6EC76B6B0469F26EEFC7C3EBFBCBEB98462213924694B38DD98FE1D62C393D073EA4FADC5DAF04326852CCF6958F90F0F2B9BB5C48816348F90C7840A68EB78EDF68723159BCEE7891A6B95DDE9D3
310
BCEAEEE8086A6C6F9E5D4B59F0175C10A7A0820BAA5055C7473B5AE3CFDD452D602CD5DF12616444529E90D448938013FE6EFA58AA96F85E4F8C42275708571E98FE6827AF6B2B4AE3D7D83D64E5A64C53054DD3AF90BD06FEA9149565C94FCA0F6B834DC85599E4F2423B24DF0B6AFA979E534DFA9E7A4CC6FA631D486393
310
921829879BF5D781A373557BCB85E97FB90DB62B558F8795179C15944B051F40AB495CF35451D26A4727654E6D8033BD98EF82F21D91FF8AF2DD9982BCF1643BDD4EB516C9492E368C67C88DED563FC36D5EACF66DFF057C3658BDBFA69DF9578B3DA735B64F18C7F20770A9D45CFCF7FCF563D6456A277DBEF78A02637CA2
310
43B90A490AEAB94F72244481D24819A6C0E59B606BFA4B3025981DBB48EAB701D97BF19C577CC77F2D1B6C55A9EF3C732474C0B727303F625995056C3B02963D9EAC146BE78EC5FCEC7FA999EBC5EACBAAE41B12D27B4D2C0BBA49F244E2ECDC81B76B502F113D8F5EE8FB1BE3111CDD4FC2AA9B844CAB1288B68AB90A7CDC
310
1C166AB0D3DC5310625FCC14E779BFD0709F8890A629C9292B1B2DED31A4B0DA928CEE135085754027E3018A397D4D5427D15BD1330B677DC8934285AC3DF45A9EB68FF8F2B8FC0A509AFEECFD0FF2DE25CC6047F7214B195F07EFEB9A094D800F7BFAE8FED187B78EA8A3A400F115961BCAD1215E47C966530AF0EE8128FE
310
58CEBB996A8964FFA529A046635D9353B0336A8F700DDF46271A024E70B0B37C9DE01847591E54DED53D54202AB947E4076556AC49C6CA5C9E1226B7F1A7B1BE15DEED62C41B91E1B3E9AFAAA735036547343A925075041DF0A9979E893B391F8FCFA6967B3EFB644DCF6E5CEBFAE272625DCC6FAF3FB93793C5F90CE1EF57
310
407342756B10D1C489E8953CD1617E5CEECAD6F4EF8914CE5D5D504E5C3F1F9736DA62CFC11E00BCDDB8CC8A9466349744C1F75EBDA4DF09BA8A9E8C7A7E9991989E20E5DBDD6A6003664ED8F7A04A8DBE0DF6EAD9B9AA858342E47399053949D2C146EDB85DE4B176BB0965FBAC19BD19AA918E27FA50C1D22402E144464C
310
59462568E704B6E71915404CB72B8FF4EDE184DDAF753F284990D2C6926782963815403548A70C657FDEF80D2D9CEAA2AE4C1C76F60BFE74219A06527D6582DF6412526107381E55E353090704D085B52408D0933C4ED159D79BDA71BB4BC506F4831350EB6F979CD22D69BF7AC49B91A2C0A9DDA3D5CA36AD20FC478E37E6
310
1844E2352865EBCB6EA275A652E3836BE04EFB400BF1A2556F515F1FBB35B2AB35BD889C744FFA1004B5544B121E57F70215746DD2F5E2C1412B602CBF19455AC6C8E5E9922C4E01E65215385004546899059180EAFCF7A707CE7017CD8CDB0410789AB32C63B91E5CEBBBACB17AC6CD347A022D5075FD106377347AAABA7E
310
7D11590744509B44E205134DC1290F06580320F78E537D3D73540E06CB970B431F185308AD40BBD794D6D77003C5A36E8EAA54BA64597CD8F83BD552A080A365F7FF06504B0304140006080000CC70623B000000000000000000000000350000006662782F39464131463745442D413632322D343644302D413938332D3331
310
353338454246344243312F76657274696365732E62696E504B0304140006080800CC70623BF270F1330600000004000000360000006662782F39464131463745442D413632322D343644302D413938332D3331353338454246344243312F747269616E676C65732E62696E636660600000504B0304140006080000CC70623B
310
000000000000000000000000370000006662782F39464131463745442D413632322D343644302D413938332D3331353338454246344243312F617474726962757465732E62696E504B0304140006080800CC70623B08DA0BD19000000041010000360000006662782F39464131463745442D413632322D343644302D413938
310
332D3331353338454246344243312F6469726563746F72792E786D6C858F410AC3201045AF22B36F53E9A60B35CBEEBAE80D244E44489C6234F4F835464A48035D0DF398FF9F8AF63D0E6CC63039F212F8F9020C7D47C6792B21C5FE7403D62A1188E2E60C98D7234A5830286103A55745067B9D86B8A3CF9C7F90C11DE607
310
FB144396D7B6A82D282E9A152AD114D5EF2CB866EEE831B8EEA07A7BB5A8D7D61A2BAAEB7FD5F70921FF497D00504B0304140006080800CC70623B0D6EF93BFE000000A00100003B0000006662782F39464131463745442D413632322D343644302D413938332D3331353338454246344243312F7265736F75726365732F63
310
6F72652E786D6C8D50596E833010BD0A9ADFCA60B334011947A8694ED00B586642AC041B79A97AFC9A40A5F6AF3F33A3B7689E1E3F7DCD8FEC139DD7D6F4C0720A191A65476DA61E62B892236427C19DB5E1970C322367EC618541F0C9D9B8EC90B226A009093576C41D94DE63804C3DD2D18357379C652E63480A7FCF17A9
310
EE72C29CE5894E3AC17D702940B63D59270887DE46A7D0F36263058F518FBB468FE9A7BE6A7420864373B8D4873369AA8691FA421B3294352543C5CAF65C0F6FEF43CB8BD52C78D0F34F46E550061C419494B6843142CB0F5677F4B52BEB177AEC28E5C52AFF638ACBF84F53D42654E51E77B379102C05791282176B5F693D
310
CB4C7BED567C03504B010214000A0000080000CC70623B3DEE336E79000000790000001B00000000000000000000000000000000006175746F6465736B2D64657369676E2D7061636B6167652E786D6C504B01021400140006080800CC70623BD486FD9CA0000000F40000001300000000000000000000000000B20000005B
310
436F6E74656E745F54797065735D2E786D6C504B01021400140006080800CC70623B1EC5D7A3EB0000007C010000080000000000000000000000000083010000636F72652E786D6C504B01021400140006080800CC70623B55019EA25F0000007C000000070000000000000000000000000094020000636E782E786D6C504B
310
01021400140006080800CC70623B8C9102E971010000D40300000C00000000000000000000000000180300006662782F636F72652E786D6C504B01021400140006080800CC70623BFFEA85907E0000009D0000000B00000000000000000000000000B30400006662782F636E782E786D6C504B01021400140006080800CC70
310
623B4FEEA4082C0100001202000031000000000000000000000000005A0500006662782F39464131463745442D413632322D343644302D413938332D3331353338454246344243312F636F72652E786D6C504B01021400140006080800CC70623BAD7543B64E010000330300003000000000000000000000000000D5060000
310
6662782F39464131463745442D413632322D343644302D413938332D3331353338454246344243312F636E782E786D6C504B01021400140006080800CC70623B16AB87BA640500003C1000003400000000000000000000000000710800006662782F39464131463745442D413632322D343644302D413938332D3331353338
310
454246344243312F6F626A656374732E786D6C504B01021400140006080000CC70623B0000000000000000000000003500000000000000000000000000270E00006662782F39464131463745442D413632322D343644302D413938332D3331353338454246344243312F76657274696365732E62696E504B01021400140006
310
080800CC70623BF270F133060000000400000036000000000000000000000000007A0E00006662782F39464131463745442D413632322D343644302D413938332D3331353338454246344243312F747269616E676C65732E62696E504B01021400140006080000CC70623B0000000000000000000000003700000000000000
310
000000000000D40E00006662782F39464131463745442D413632322D343644302D413938332D3331353338454246344243312F617474726962757465732E62696E504B01021400140006080800CC70623B08DA0BD190000000410100003600000000000000000000000000290F00006662782F39464131463745442D413632
310
322D343644302D413938332D3331353338454246344243312F6469726563746F72792E786D6C504B01021400140006080800CC70623B0D6EF93BFE000000A00100003B000000000000000000000000000D1000006662782F39464131463745442D413632322D343644302D413938332D3331353338454246344243312F7265
310
736F75726365732F636F72652E786D6C504B0506000000000E000E0080040000641100000000
  0
XRECORD
  5
175
102
{ACAD_REACTORS
330
173
102
}
330
173
100
AcDbXrecord
280
     1
270
     1
271
     1
  0
XRECORD
  5
174
102
{ACAD_REACTORS
330
173
102
}
330
173
100
AcDbXrecord
280
     1
270
     1
271
     1
  0
XRECORD
  5
1FB
102
{ACAD_REACTORS
330
173
102
}
330
173
100
AcDbXrecord
280
     1
 70
     0
 90
1673772943
  1
ECE7A1D2-D628-4531-984C-D00F80459256
310
504B03040A0000080000CC70623B3DEE336E79000000790000001B0000006175746F6465736B2D64657369676E2D7061636B6167652E786D6C3C3F786D6C2076657273696F6E3D22312E302220656E636F64696E673D227574662D3822203F3E3C666F726D6174733E3C666F726D61743E687474703A2F2F736368656D612E
310
6175746F6465736B2E636F6D2F64657369676E2D7061636B6167652F323030393C2F666F726D61743E3C2F666F726D6174733E504B0304140006080800CC70623BD486FD9CA0000000F4000000130000005B436F6E74656E745F54797065735D2E786D6C7D8EC10E82300C865F65E91D8A1E8C310C0EEA1BF002731658846E
310
D98AC1B77784ABF1D8FE5FBFBF75BBCE937A534CCEB38643598122B6FEE978D0B0485F9C41B54DDD7D022595594E1A469170414C76A4D9A4D207E29CF43ECE46F218070CC6BECC4078ACAA135ACF422C856C0E68EA1BF5669944DDD7BCDE7B1F8E415D77AECB980613C2E4AC91FC167A2B244592486606FC29C8FD7F045B9A
310
EF7053A7E60B504B0304140006080800CC70623BD9DDAED0EC0000007C01000008000000636F72652E786D6C8D90416EC3201045AF82665B61836D9CD8C2444DD39CA01740405C94182C03558F5F9C3852BBEB6A467FFE9B197D7EF89E6EE8CB2CC17A37002D0820E394D7D68D03A478C17B4007C117EFE32F1B20272733C0
310
2A83E0E3E2D3BC49CABB685CCCAAF3DA6CA20CC14440EA969B0182FA34932C648AD911AEC52CD5558EA6A0CF2EC329598D1E47ACCEFBECC59A050463A7EA5833865FEBDD0E37353BE3EE8DBDE3F6786A48D375FBF6CC78B9C282473B3DEFABC5C86834888A900E538A49F5419B9EB47DD5BC907D4F082F57FB1F28CDFA9F50
310
B22ED6D5F6EE030B20687EE43E10BC5CB3C8E51E54AE6B6EE207504B0304140006080800CC70623B55019EA25F0000007C00000007000000636E782E786D6C4DCB3B0E80201045D1AD90E915ED2CF8AC45050C11660C8261F98AB1B07AC9C97D42D718D865D3E909258CFD00CCE24AC6E326A164D74DC0B4128928FF326038
310
472BA13128B1252AC747C6BAB984FC68F0B87FE8960A5C09FE86CFB69FBA01504B0304140006080800CC70623BA24EB22D72010000D40300000C0000006662782F636F72652E786D6CC5535B6E833010BC8AE5DF0A6C5E49888CA3A6694ED00B38E05014B091B1518EDFE511A5A9D228FD2A1F60CDEC7A67C6986DCE4D8D7A
310
69BA4AAB0C073EC548AA5C17952A33ECECD15B61B4E1CC686DBF9561A44423333CC098B3D268D7CE50AE9595CA02AA74216750749DB418E5352C32DCE59FB211BE70162ABA93DF8AFC244AE9073ED050C759670D0840D390E18DF9F1706664C23973AE2A66B62A605A75ACA4C13C4976E1364A12EF355A2EBD384AF65EFA96
310
BC7B8BED2EA6719AAE16FB8491A199335B351775B991C2CA02F390D2D40B028F861F41BCA68B7518BFD0D59A524686F29B26D7164F36B94AD9289CE54E6D1DE6010819891F6E21228B3AD1831EC219194284CF98F06DD01008846CC5A1BEF83801D4CBDC6A1303536877A57A513B0953A94FC707FDBE6064EA84A9E3E6E0FA
310
EE8CF0E9198F7784A316AA0413C2C2F2E0ECA0934D1AE6D05A69BCDE9E91D2A611F573361E38FC1375157F5752AE6B6DFE4B11990F88CCBF0719EE23FF02504B0304140006080800CC70623B408A7D3B7C0000009D0000000B0000006662782F636E782E786D6C4DCCD10A83201886E15B91FFDC552A92A0064DBC8F581632
310
D3703A76F9ABD1C18E3E78F878E5F0D9027ABBFCF2292AE86E2D20171F69F6715550CB827B40839639A5F2770314A7CD293819B45C73AAFB45B35BA61ACAA1C1C7E7855C58C15BC331339661262CC762340413D68D77DA5B42298546CBE6573AF60CEB2F504B0304140006080800CC70623B449FB9BD290100001202000031
310
0000006662782F36394639363044362D344446342D343946362D394244322D3234314243333846323333332F636F72652E786D6C8D515B6EC32010BC0AE22B55850D98B871848994463E412FE002495162B07854397EA176A4F62F3F2C9A9D991D587EB84F37F0AD7D30CEF6905418026DA553C65E7A98E219ED203808EE9D
310
8B7F6810D871D23D2C3014FCE25D9A57483A1BB58D19B54EE9151C43D0110279CB971E06F9A5A7B11A53CC8C70ADE6515EC78BAE4895DB992778883E0700CB907242D17643D7E2538BD869608875438BBAE38922CAC8F1BDD90DB4691A5E2F42C153326A951B95E398B3D1FE599322163C9AE9115F7A3D46ADA0A018778810
310
84E907617BDCEE297BC5BB3DC6BC2EF47FA234AB2745C9D8D8D035EE220B50105E2F0DC1954B9FB747187D9F9D8FA0CCDB042D5FA0C015C65B42DF78BD10F3F3B363CB56C7109DCFDFBBB97E662ED92EB62D13BC2E1BCAE5777DB9966D8A1F504B0304140006080800CC70623BAD7543B64E01000033030000300000006662
310
782F36394639363044362D344446342D343946362D394244322D3234314243333846323333332F636E782E786D6CD593CD6EC32010845F0571AD6CE3D48AD20813A9873E410FBD12D82434182C7EAAE6EDBB2424CD25871E7B41D6EC30B3FA84F9E67BB2E40B4234DE8DB46F1925E094D7C6ED479AD3AE5951B2113C789FEE
310
6C943839C1488B4C05DF079FE72A69D8C96C13AAD6B8631503449F83828872B949AC57D26200B826A308D316B4064D6E46FCDA41C05550DC9E483A00797BFD207EFB092A45DE9514C1BBD22178396BD39D891265658C238DEA00936C654E5E433CB65A26D9F6EDB5EBC14EBF49A45CB856E66048291F6939A9A81BB5C89177
310
38143CA680F4AA299D66A042CEB3354A2684DC9D8D178FE0D9B8B41CAAD720F880EE7EF93C0C18769E099ECC04D5A102C8049A8A05632F4DDF376CF1DE0F6BB65C2F8627B65A33C6BB62177CEBBDAD973006829F89F22E814B54F4BC2BE347F8AA8F681390B50FA73F804400B5F542E796F19FF974E7F78DB802FE05E20750
310
4B0304140006080800CC70623B8D05915C650500003B100000340000006662782F36394639363044362D344446342D343946362D394244322D3234314243333846323333332F6F626A656374732E786D6CAD575B6FA33814FE2B887D06429276DA1565D4266D158D3A339A6846FB502932E050B66023DB74D2FDF5FB190C01
310
9276B2973C046C8ECFF53B17071F77456EBD502133CEAE6CDF9DD81665314F32965ED995DA3A17B6F5310C04E7AA47665B8C14F4CAD6DB7618A48257A5D94AE89654B91AEDDEDDFC61C998326A5B714EA4BCB265FC440BE2924AF184CA6737218AB8E976E7FA6E4338649B0A523E8D98964450A6A029F619B8588D52FE7039
310
B1BD30F0F4F730D0FF866AF6369557DB33949F31A9088B0F848DD8CCFCF9F2767A76E99CCDE733677E3EF59D9BBB9BA5E37F984D16E78BC5E5F5ED25044B25C0C96822E8D60EEFE11B91C581D77CEA34368A1F5329E68CD1B8B61F16D63A1B8E092D294B10C78C4A48EB593D192E7DED9BDEE7995E1B91FDEDD3ACEA9FE831
310
6A756F9F7D4D79F4274C90A7A04248AA51D5F8C718DAE06FB2F75AC4796EBE65D22A88A22223B995679120E2D50E41AA49C260C046A35368846B0BECD0DFF3EBEB8AD4F835768F69B9ADF25C43D30E6B646F807FAA64AD59F61715C7A54127C4AACA98BA3006A9D792DAE165E0D59B61A01FB3A9F9D838D2DAE62445C86166
310
F37564E842E7DE6A69879FEEA2DD5AE7E371E1A5E025154AC307D06A03D73EB5978C58FFA4C8E9033066E0F3BD53BEC1F39F91BE7B55103791EDE6BBB991A2046172CB4581D8B893FA674DDA17A77B3B7C413D1B511FD2743BFF8A38F03A658705E3ADF8015C3A3417FF3D7E439FF591DA0B5F18BC20C1B8981957AE6392A3
310
F43C640C01D1A0B4728E2DD4F26DB4B3C3152A252A3B4E913CEC1C72F012782FF88EFF8637AA552DBEF76408E8A8DE9E50F9E1CB3A2DA0DB1B6039A893B56063DC5B3E3FFB5F72E67AB9FEB4AEC496C4F4C1149625DD662C53E89D7BF0F6151A046260D1337DFDC94502430F83B0EE07A130A224BCAD7DAE1D9FB6CD422FF6
310
920702629C4BB9AE79C12F243C6432A6794E18E5552BA56B431AAB5D91317302B2B071E86C3A42B1A02F999E24061403B5D0EB639195DA655DD3EBEAB4FB862DDF579F014AD0E73C22F99E28DA57FB98E75C6CA2D74D53086D600F4786E0FE3144B771A8A7B900F03594DB8A633CBC49B2EDB69228BB479CF863B5E807AAAB
310
23872F6DFEB4129B949CA33823F58830E86D65621E10047D9DB34D862E8EAC3C2ABC2F7B2C40D67CDFE01F5545B92105AF983AC54D93D69E56FB8E797F88913F898A9FEC705D3F9D1B54EC8426FB500D40A03BD0119B06E1B95DDC7EB8F6975367793EBD70E66733DFB9BC982F9CE564727731999F5D4ECFCE3B8D6A4DC2A0
310
6D50FD148437D110834A64C6CDDF57FBACB5C307A2A477DFE4939736CFEF2B175371E0E10CF0DD1D5C15654E0BCA14D1E87DD02FF93782A162C0A3D95F1524A52770F972BF1EE9809D13CE7DD599467F8ECE9ADD85CE85A34CD45355448C64F9E8A031DC2D596ACC6E5DD93D9B82DE2EF5CAF81363A8E47996A0DE24564A79
310
4115AACE09C55E14540231FDA13C319787134EBF34E3A022514E5B4D9E0826E25C02D5805B15ABE1BEF51B26383D445DD9E875EE33FE4C22DA16427D65A3BCA92CA6D28DD01DF5DC53330704308475351050232CCD31583787BA75774AFB06E5070DD0C8EF484E19968C5D83BA5B90B244D31E54D55A372320FE4786B7EA58
310
44E135AA5467CB7EA333A61683CC6A8C3257034C10CF46F40EF9F5BE59BE5BD30C3C72D235E95D10345C1D45445A5F0BB47E46A5EBE5570F9380B5FA629579952296A773720405982B9DE04011506178964401AA8BDF1FBF0A8EAB6861DD6580C0E38217056766716DAEB2D6FA0917D3E4116581EADB879C4E7CFFB11EFACD
310
3D641311495D92C8676CB409A72D18610D803CE8A626049E8EC1887CB5B44CC39883690DDA8399B4B9855B481E7D71D4A9D22F96E5BB73BF5793020C02137BF837504B0304140006080000CC70623B000000000000000000000000350000006662782F36394639363044362D344446342D343946362D394244322D32343142
310
43333846323333332F76657274696365732E62696E504B0304140006080800CC70623BF270F1330600000004000000360000006662782F36394639363044362D344446342D343946362D394244322D3234314243333846323333332F747269616E676C65732E62696E636660600000504B0304140006080000CC70623B0000
310
00000000000000000000370000006662782F36394639363044362D344446342D343946362D394244322D3234314243333846323333332F617474726962757465732E62696E504B0304140006080800CC70623B08DA0BD19000000041010000360000006662782F36394639363044362D344446342D343946362D394244322D
310
3234314243333846323333332F6469726563746F72792E786D6C858F410AC3201045AF22B36F53E9A60B35CBEEBAE80D244E44489C6234F4F835464A48035D0DF398FF9F8AF63D0E6CC63039F212F8F9020C7D47C6792B21C5FE7403D62A1188E2E60C98D7234A5830286103A55745067B9D86B8A3CF9C7F90C11DE607FB14
310
4396D7B6A82D282E9A152AD114D5EF2CB866EEE831B8EEA07A7BB5A8D7D61A2BAAEB7FD5F70921FF497D00504B0304140006080800CC70623BCA768048FE000000A00100003B0000006662782F36394639363044362D344446342D343946362D394244322D3234314243333846323333332F7265736F75726365732F636F72
310
652E786D6C8D50596E833010BD0A9ADFCA60D600328E9AA639412F609909B1126CE4A5EAF16B0295DABFFECC8CDEA2797AECF8353F924FB44E193D409E5248504B332A3D0D10FC95B4901C39B3C6F85F3248B49871801506CE266BC2B243D2688FDA47549B11775038871E12F988C7004EDE7016A9083E2ADC3D5D84BC8B09
310
D33C8D74D471E6BC8D0192EDC93A815B742658898E651BCB59086ADC356A8C3FD555A1055ED7E7E254D615792D0F075295F585746FF53B694EE78A565DD736979A65AB9933AFE69F8CD2A2F038022F28ED489E135A7CE4554F9BBEA85E68DB53CAB255FEC71496F19FA6A0B42F8B3DEE6673C0F318E4497096AD7DC5F52C33
310
EEB55BFE0D504B010214000A0000080000CC70623B3DEE336E79000000790000001B00000000000000000000000000000000006175746F6465736B2D64657369676E2D7061636B6167652E786D6C504B01021400140006080800CC70623BD486FD9CA0000000F40000001300000000000000000000000000B20000005B436F
310
6E74656E745F54797065735D2E786D6C504B01021400140006080800CC70623BD9DDAED0EC0000007C010000080000000000000000000000000083010000636F72652E786D6C504B01021400140006080800CC70623B55019EA25F0000007C000000070000000000000000000000000095020000636E782E786D6C504B0102
310
1400140006080800CC70623BA24EB22D72010000D40300000C00000000000000000000000000190300006662782F636F72652E786D6C504B01021400140006080800CC70623B408A7D3B7C0000009D0000000B00000000000000000000000000B50400006662782F636E782E786D6C504B01021400140006080800CC70623B
310
449FB9BD290100001202000031000000000000000000000000005A0500006662782F36394639363044362D344446342D343946362D394244322D3234314243333846323333332F636F72652E786D6C504B01021400140006080800CC70623BAD7543B64E010000330300003000000000000000000000000000D20600006662
310
782F36394639363044362D344446342D343946362D394244322D3234314243333846323333332F636E782E786D6C504B01021400140006080800CC70623B8D05915C650500003B10000034000000000000000000000000006E0800006662782F36394639363044362D344446342D343946362D394244322D32343142433338
310
46323333332F6F626A656374732E786D6C504B01021400140006080000CC70623B0000000000000000000000003500000000000000000000000000250E00006662782F36394639363044362D344446342D343946362D394244322D3234314243333846323333332F76657274696365732E62696E504B010214001400060808
310
00CC70623BF270F13306000000040000003600000000000000000000000000780E00006662782F36394639363044362D344446342D343946362D394244322D3234314243333846323333332F747269616E676C65732E62696E504B01021400140006080000CC70623B00000000000000000000000037000000000000000000
310
00000000D20E00006662782F36394639363044362D344446342D343946362D394244322D3234314243333846323333332F617474726962757465732E62696E504B01021400140006080800CC70623B08DA0BD190000000410100003600000000000000000000000000270F00006662782F36394639363044362D344446342D
310
343946362D394244322D3234314243333846323333332F6469726563746F72792E786D6C504B01021400140006080800CC70623BCA768048FE000000A00100003B000000000000000000000000000B1000006662782F36394639363044362D344446342D343946362D394244322D3234314243333846323333332F7265736F
310
75726365732F636F72652E786D6C504B0506000000000E000E0080040000621100000000
  0
XRECORD
  5
176
102
{ACAD_REACTORS
330
173
102
}
330
173
100
AcDbXrecord
280
     1
270
     1
271
     1
  0
XRECORD
  5
177
102
{ACAD_REACTORS
330
173
102
}
330
173
100
AcDbXrecord
280
     1
270
     1
271
     1
  0
XRECORD
  5
1012D91
102
{ACAD_REACTORS
330
234
102
}
330
234
100
AcDbXrecord
280
     1
102
DISPLAYNAME
  1
Metric50
102
FLAGS
 90
        0
  0
CELLSTYLEMAP
  5
1012D90
102
{ACAD_REACTORS
330
162
102
}
330
162
100
AcDbCellStyleMap
 90
        3
300
CELLSTYLE
  1
TABLEFORMAT_BEGIN
 90
        5
170
     1
 91
        0
 92
    32768
 62
   257
 93
        1
300
CONTENTFORMAT
  1
CONTENTFORMAT_BEGIN
 90
        0
 91
        0
 92
      512
 93
        0
300

 40
0.0
140
1.0
 94
        5
 62
     0
340
11
144
6.0
309
CONTENTFORMAT_END
171
     1
301
MARGIN
  1
CELLMARGIN_BEGIN
 40
1.5
 40
1.5
 40
1.5
 40
1.5
 40
4.5
 40
4.5
309
CELLMARGIN_END
 94
        6
 95
        1
302
GRIDFORMAT
  1
GRIDFORMAT_BEGIN
 90
        0
 91
        1
 62
     0
 92
       -2
340
14
 93
        0
 40
1.125
309
GRIDFORMAT_END
 95
        2
302
GRIDFORMAT
  1
GRIDFORMAT_BEGIN
 90
        0
 91
        1
 62
     0
 92
       -2
340
14
 93
        0
 40
1.125
309
GRIDFORMAT_END
 95
        4
302
GRIDFORMAT
  1
GRIDFORMAT_BEGIN
 90
        0
 91
        1
 62
     0
 92
       -2
340
14
 93
        0
 40
1.125
309
GRIDFORMAT_END
 95
        8
302
GRIDFORMAT
  1
GRIDFORMAT_BEGIN
 90
        0
 91
        1
 62
     0
 92
       -2
340
14
 93
        0
 40
1.125
309
GRIDFORMAT_END
 95
       16
302
GRIDFORMAT
  1
GRIDFORMAT_BEGIN
 90
        0
 91
        1
 62
     0
 92
       -2
340
14
 93
        0
 40
1.125
309
GRIDFORMAT_END
 95
       32
302
GRIDFORMAT
  1
GRIDFORMAT_BEGIN
 90
        0
 91
        1
 62
     0
 92
       -2
340
14
 93
        0
 40
1.125
309
GRIDFORMAT_END
309
TABLEFORMAT_END
  1
CELLSTYLE_BEGIN
 90
        1
 91
        1
300
_TITLE
309
CELLSTYLE_END
300
CELLSTYLE
  1
TABLEFORMAT_BEGIN
 90
        5
170
     1
 91
        0
 92
        0
 62
   257
 93
        1
300
CONTENTFORMAT
  1
CONTENTFORMAT_BEGIN
 90
        0
 91
        0
 92
      512
 93
        0
300

 40
0.0
140
1.0
 94
        5
 62
     0
340
11
144
4.5
309
CONTENTFORMAT_END
171
     1
301
MARGIN
  1
CELLMARGIN_BEGIN
 40
1.5
 40
1.5
 40
1.5
 40
1.5
 40
4.5
 40
4.5
309
CELLMARGIN_END
 94
        6
 95
        1
302
GRIDFORMAT
  1
GRIDFORMAT_BEGIN
 90
        0
 91
        1
 62
     0
 92
       -2
340
14
 93
        0
 40
1.125
309
GRIDFORMAT_END
 95
        2
302
GRIDFORMAT
  1
GRIDFORMAT_BEGIN
 90
        0
 91
        1
 62
     0
 92
       -2
340
14
 93
        0
 40
1.125
309
GRIDFORMAT_END
 95
        4
302
GRIDFORMAT
  1
GRIDFORMAT_BEGIN
 90
        0
 91
        1
 62
     0
 92
       -2
340
14
 93
        0
 40
1.125
309
GRIDFORMAT_END
 95
        8
302
GRIDFORMAT
  1
GRIDFORMAT_BEGIN
 90
        0
 91
        1
 62
     0
 92
       -2
340
14
 93
        0
 40
1.125
309
GRIDFORMAT_END
 95
       16
302
GRIDFORMAT
  1
GRIDFORMAT_BEGIN
 90
        0
 91
        1
 62
     0
 92
       -2
340
14
 93
        0
 40
1.125
309
GRIDFORMAT_END
 95
       32
302
GRIDFORMAT
  1
GRIDFORMAT_BEGIN
 90
        0
 91
        1
 62
     0
 92
       -2
340
14
 93
        0
 40
1.125
309
GRIDFORMAT_END
309
TABLEFORMAT_END
  1
CELLSTYLE_BEGIN
 90
        2
 91
        1
300
_HEADER
309
CELLSTYLE_END
300
CELLSTYLE
  1
TABLEFORMAT_BEGIN
 90
        5
170
     1
 91
        0
 92
        0
 62
   257
 93
        1
300
CONTENTFORMAT
  1
CONTENTFORMAT_BEGIN
 90
        0
 91
        0
 92
      512
 93
        0
300

 40
0.0
140
1.0
 94
        2
 62
     0
340
11
144
4.5
309
CONTENTFORMAT_END
171
     1
301
MARGIN
  1
CELLMARGIN_BEGIN
 40
1.5
 40
1.5
 40
1.5
 40
1.5
 40
4.5
 40
4.5
309
CELLMARGIN_END
 94
        6
 95
        1
302
GRIDFORMAT
  1
GRIDFORMAT_BEGIN
 90
        0
 91
        1
 62
     0
 92
       -2
340
14
 93
        0
 40
1.125
309
GRIDFORMAT_END
 95
        2
302
GRIDFORMAT
  1
GRIDFORMAT_BEGIN
 90
        0
 91
        1
 62
     0
 92
       -2
340
14
 93
        0
 40
1.125
309
GRIDFORMAT_END
 95
        4
302
GRIDFORMAT
  1
GRIDFORMAT_BEGIN
 90
        0
 91
        1
 62
     0
 92
       -2
340
14
 93
        0
 40
1.125
309
GRIDFORMAT_END
 95
        8
302
GRIDFORMAT
  1
GRIDFORMAT_BEGIN
 90
        0
 91
        1
 62
     0
 92
       -2
340
14
 93
        0
 40
1.125
309
GRIDFORMAT_END
 95
       16
302
GRIDFORMAT
  1
GRIDFORMAT_BEGIN
 90
        0
 91
        1
 62
     0
 92
       -2
340
14
 93
        0
 40
1.125
309
GRIDFORMAT_END
 95
       32
302
GRIDFORMAT
  1
GRIDFORMAT_BEGIN
 90
        0
 91
        1
 62
     0
 92
       -2
340
14
 93
        0
 40
1.125
309
GRIDFORMAT_END
309
TABLEFORMAT_END
  1
CELLSTYLE_BEGIN
 90
        3
 91
        2
300
_DATA
309
CELLSTYLE_END
  0
ENDSEC
  0
SECTION
  2
ACDSDATA
 70
     2
 71
     8
  0
ACDSSCHEMA
 90
        0
  1
AcDb_Thumbnail_Schema
  2
AcDbDs::ID
280
    10
 91
        8
  2
Thumbnail_Data
280
    15
 91
        0
101
ACDSRECORD
 95
        0
 90
        1
  2
AcDbDs::TreatedAsObjectData
280
     1
291
     1
101
ACDSRECORD
 95
        0
 90
        2
  2
AcDbDs::Legacy
280
     1
291
     1
101
ACDSRECORD
  1
AcDbDs::ID
 90
        3
  2
AcDs:Indexable
280
     1
291
     1
101
ACDSRECORD
  1
AcDbDs::ID
 90
        4
  2
AcDbDs::HandleAttribute
280
     7
282
     1
  0
ACDSSCHEMA
 90
        1
  1
AcDbDs::TreatedAsObjectDataSchema
  2
AcDbDs::TreatedAsObjectData
280
     1
 91
        0
  0
ACDSSCHEMA
 90
        2
  1
AcDbDs::LegacySchema
  2
AcDbDs::Legacy
280
     1
 91
        0
  0
ACDSSCHEMA
 90
        3
  1
AcDbDs::IndexedPropertySchema
  2
AcDs:Indexable
280
     1
 91
        0
  0
ACDSSCHEMA
 90
        4
  1
AcDbDs::HandleAttributeSchema
  2
AcDbDs::HandleAttribute
280
     7
 91
        1
284
     1
  0
ACDSRECORD
 90
        0
  2
AcDbDs::ID
280
    10
320
D3
  2
Thumbnail_Data
280
    15
 94
     2279
310
89504E470D0A1A0A0000000D4948445200000100000000B408030000004C80028300000300504C5445FFFFFF000000C8C8C80000000000000000000000000000000000000000000000000000330000660000990000CC0000FF0033000033330033660033990033CC0033FF0066000066330066660066990066CC0066FF0099
310
000099330099660099990099CC0099FF00CC0000CC3300CC6600CC9900CCCC00CCFF00FF0000FF3300FF6600FF9900FFCC00FFFF3300003300333300663300993300CC3300FF3333003333333333663333993333CC3333FF3366003366333366663366993366CC3366FF3399003399333399663399993399CC3399FF33CC00
310
33CC3333CC6633CC9933CCCC33CCFF33FF0033FF3333FF6633FF9933FFCC33FFFF6600006600336600666600996600CC6600FF6633006633336633666633996633CC6633FF6666006666336666666666996666CC6666FF6699006699336699666699996699CC6699FF66CC0066CC3366CC6666CC9966CCCC66CCFF66FF0066
310
FF3366FF6666FF9966FFCC66FFFF9900009900339900669900999900CC9900FF9933009933339933669933999933CC9933FF9966009966339966669966999966CC9966FF9999009999339999669999999999CC9999FF99CC0099CC3399CC6699CC9999CCCC99CCFF99FF0099FF3399FF6699FF9999FFCC99FFFFCC0000CC00
310
33CC0066CC0099CC00CCCC00FFCC3300CC3333CC3366CC3399CC33CCCC33FFCC6600CC6633CC6666CC6699CC66CCCC66FFCC9900CC9933CC9966CC9999CC99CCCC99FFCCCC00CCCC33CCCC66CCCC99CCCCCCCCCCFFCCFF00CCFF33CCFF66CCFF99CCFFCCCCFFFFFF0000FF0033FF0066FF0099FF00CCFF00FFFF3300FF3333
310
FF3366FF3399FF33CCFF33FFFF6600FF6633FF6666FF6699FF66CCFF66FFFF9900FF9933FF9966FF9999FF99CCFF99FFFFCC00FFCC33FFCC66FFCC99FFCCCCFFCCFFFFFF00FFFF33FFFF66FFFF99FFFFCCFFFFFF0000000D0D0D1A1A1A2828283535354343435050505D5D5D6B6B6B787878868686939393A1A1A1AEAEAEBB
310
BBBBC9C9C9D6D6D6E4E4E4F1F1F1FFFFFF000000000000000000000000000000000000000000000000000000000000B0E2D235000005A24944415478DAED9C497AE3201085EB38DAE880391317A8556FB2EB037895552DFBF3211A31092490A518ACE911B7ADB8653BFCD47B14834CCF7F372ECFE7939E74E3020000000000
310
300720BA5CF4FEEE11B00E80DC5D02000009DC1C0001002400130400480026080090004C1000A2C2272BD525C0E76ADA77001000DC1CC08525400000130400982000C0040100260800304100800902004C100060820000130400982000C0040100260800304100800902403509F06101343741661119B6A79887C5DD2A1705
310
305C9C2316807ED09597430190F600C801A01303F87D4CB10140678F007ACF033848E0781ED0BE1730F5651B0BEE899BA5C27C903E713F00A6C95DE49B2B355BCAA0FCBE4D2560AF40353D1E8D57A30EBF0DAE27641FEC8DB82D00DEC304252909007B7DEE5063CD862D80E4ACDAF5DF0500CD00981AC7004C70B8A0106AB5
310
039D7796000509A4003805500E817795B1D0D13635C18C046200EC2510544122AF3DEC1732D90B803D665B577BB63800F6CF711E18B2C1920724CFFF12006D01205501F8A427274BF6E72C564072769A33D8E2EB590A1FD2D60417AECCF00056C97B0E80BD65AC031012CE3DC60215BA76FBBD1624FEC0BDA939324FED03E0
310
7393A265008375265194BD28683300FA2800B112A5856B98B2008C79BAD164B9C3F4671E190089ED1AA444A000C0F5213C7E68EA0CB69837153AB004CCAC909D207811CDD3E26B380298FF5126E36C03802A021844501E0DCD22C0E510E204540030BCC201A013006013D295009839B6300C6D04A0A209BA7931D91601A3D1
310
CF018404C1E49D079C10C920908D008C6F70DE03842200747800AE9D3679804D70FDCC4A29024E21011FFDEB13A1A81B48B08DFD1D5300B03CCF748EC551D7929308B06D9F909B0390190037FC0C5DE84900A483A1493A9000E049042469204F53A5B38C057C9BB939034EA9A4006CB7E03AC9C96089D3F98412003A1C8030
310
B9B0EC976C253F00708121A90932513C2E123E0980B08630A9400680AD2F5314E9DB23E0707B8478E50704818F43853456984812FB686082DBBEADE3176FFA32AFF6A3453BCC4A9C8E3FD00B6C5B82A81E2B9159BAFC326EE64FF402DB01D45C129B4EBF666683B97C765313E43C2493CC4835062BA497FC5F0300B3291935
310
FB73385D3E929EA49644B67A4F030928A5EF7F7EF49D127DA8943E56A4BE64FCC04904D8DB3E1B041A98A0E87AEB4A0F0FFA47177D2CC3511980495A2E03A0EF95D89ABBD2B95B0E801DB2F3A3DE1EA99902E9D312D04D6E5ADCC85BC7BE24A7670188AC012093A368BCB70080AB8CDDB601189ABFD79577CBE30B00428FFD
310
DAACD2FE3BA969FAD2D9A4F8A701180938E9BF02600FD7EC0C71E3DB1FE168B7C5BA3A7E5C02FD50BA11C0377D0F37C97E601640A60B63B7BD78041085C4B14C50754A69CB53D607C6C197143F30DD41E4EB365BF56A9256B7E806BBD02A260F5800E0C237AEA605E0B70B45AB5E546B60D55C027D17763B8D4690071046F8
310
12D9621CDCDC3C3D686182BACDFBDE03503E21520B00A236B5139DC3B9DFFA5F774A007FE20810F577C88594EAFA0C803FB3D1410A409285DFE9027A0D3DB49000C9831E5AFECAB6FB43E704CB11309DFE63F1085300124DF38CD597F7A65A1AA4C2D6042D00B2000A11909FFFE4AC04D86FAB137B91C57101749D7CE99F30
310
183612E81EEB011425E01690A308B00BCA7C2C09909AF5F21B3AB025098C3B08B8902E1DC204DF1DCC957A81791ED0CE04F706C0A575BD63CD07B45B17F8E0A58427BF74F67D4600704809D0DA816E2B00B43300D90080AE080012581D2A7737C1DB7783574D8476074000707300F81E21982000C004010026080030410080
310
0902004C100060820000130400982000C0040100260800304100800902004C1000608200B0FC8E272BD5015CA2BC23816B1600B819000100982000C0040100260800304100800902C00280F0355057BCBFB707100000000000C00CC0BF1B1703E0E6E53F8D93156C451CFFB40000000049454E44AE426082
  0
ACDSRECORD
 90
        0
  2
AcDbDs::ID
280
    10
320
22
  2
Thumbnail_Data
280
    15
 94
     2924
310
89504E470D0A1A0A0000000D4948445200000100000000770803000000DBFC6E9900000300504C5445212830000000C8C8C80000000000000000000000000000000000000000000000000000330000660000990000CC0000FF0033000033330033660033990033CC0033FF0066000066330066660066990066CC0066FF0099
310
000099330099660099990099CC0099FF00CC0000CC3300CC6600CC9900CCCC00CCFF00FF0000FF3300FF6600FF9900FFCC00FFFF3300003300333300663300993300CC3300FF3333003333333333663333993333CC3333FF3366003366333366663366993366CC3366FF3399003399333399663399993399CC3399FF33CC00
310
33CC3333CC6633CC9933CCCC33CCFF33FF0033FF3333FF6633FF9933FFCC33FFFF6600006600336600666600996600CC6600FF6633006633336633666633996633CC6633FF6666006666336666666666996666CC6666FF6699006699336699666699996699CC6699FF66CC0066CC3366CC6666CC9966CCCC66CCFF66FF0066
310
FF3366FF6666FF9966FFCC66FFFF9900009900339900669900999900CC9900FF9933009933339933669933999933CC9933FF9966009966339966669966999966CC9966FF9999009999339999669999999999CC9999FF99CC0099CC3399CC6699CC9999CCCC99CCFF99FF0099FF3399FF6699FF9999FFCC99FFFFCC0000CC00
310
33CC0066CC0099CC00CCCC00FFCC3300CC3333CC3366CC3399CC33CCCC33FFCC6600CC6633CC6666CC6699CC66CCCC66FFCC9900CC9933CC9966CC9999CC99CCCC99FFCCCC00CCCC33CCCC66CCCC99CCCCCCCCCCFFCCFF00CCFF33CCFF66CCFF99CCFFCCCCFFFFFF0000FF0033FF0066FF0099FF00CCFF00FFFF3300FF3333
310
FF3366FF3399FF33CCFF33FFFF6600FF6633FF6666FF6699FF66CCFF66FFFF9900FF9933FF9966FF9999FF99CCFF99FFFFCC00FFCC33FFCC66FFCC99FFCCCCFFCCFFFFFF00FFFF33FFFF66FFFF99FFFFCCFFFFFF0000000D0D0D1A1A1A2828283535354343435050505D5D5D6B6B6B787878868686939393A1A1A1AEAEAEBB
310
BBBBC9C9C9D6D6D6E4E4E4F1F1F1FFFFFF000000000000000000000000000000000000000000000000000000000000B21171F6000005894944415478DAED5BCB91EC2A0C55064E830D014E4CE4309BDE3900AF9C86F617497C6DECF67D55F32EEAD1E92A9B6618977510FA4103180C0683C16030180C0683C16030180C0683
310
C1603018FE02EB4F637A02FE9AAE9F7CFEF404CCF77C23C00830028C0023C008F887C0C3FDB71180800CBD0121BD7DC02708DDAD62A7A7ECE3C188D32B427CC3103FEF41A3A23CA7C1385A013C2A8E46D040C049FEBD5C7AA148A43C78A1D652FE92FABA2E842F150404C9729EE800CAE8B8A41758485812778FD3BD8BFC4B
310
EA4AA3BFE04B010121CBD44E609DE7007552E3C2E6D132F8560378B41A0D6099DA09DCD34AA7AF214F6A100D4804BC59306C3140890DA0972591CA04CA4AC75E031A23F8DEAB69328203CFB623CFE9433778E73335B8C106871E9EBFE68F43492FBA510F019EAE3E2EFBA2B06D741BA732B302D507D61BF5A27BF157BEBE5C
310
69C67679E6BC04F8F8A10BDBF8918284E4D38ABD84F646A1B07B31032F123B365D6A721B518B064461768493FA629E6C844B0D806B0D80F93500BBE92EAE0B936CD88CC37132F4E8F9D31390ED9DC474816301ECA4BBB6014BFBBCE3170D04AC399E49819E84411CCA1D0818DA80A515FAF445010129AC91C825D4190EF06B
310
34602D81DE0ED506B051AC691F3EB301AB421BD06A806F3DA44C6F4AFBEE09C8135FA3E445A511F40D031E9E6B4059FA8580DCA3CD0DFAA638E0CF36E01335A00D84B09782A5CBD9EE3010E04EDD46B00B858F1A80EF621E2240BB1B6C93A1640384000F9980704B008BBC9C3460D1E206DBD87F98CCE6F25025A0D643F2BA
310
587AD5D7640445689F04F6EDADBCFD5103AAA54B635E2CEDAB498378F65F3ABC0082CBDE2FDDE3CD49A6DF96FCAE352065BF9C0ED7A65C272760A575EE8801F604621081E4778087457FB304DA7418FAEBDC04445D66F9E347663FC84DBA30D54553ADF4D2089EBC9F9E3880087051BEC40084EF50E5772910CC3B20834080
310
E347FA5B35824B6B04B3179876739408C0A4016D9A27F24B39AC6840C0310159D4431CB03471C0D4BBC38055FE0299FF6E2334005E6BC09B4870EAF39271A2DDB99AED382CE8764DAF34E0810D989D0074A7FAFE29511A5AC14280E24088E380C6E9F946D40101AD4E84C71A3077285C4C5E4A8B6A16702620C85E6110D318
310
10E003AAC28ECB610E7314986A21971A507691C3689042023C4702876DA1310179C1D75D64FDF500CE801DC08080D3C6E6D10A0A01EACBE23E1BC1F64D1B02DADC6FA826EACBE2D06840AD86C139F74904EC39472CEB446D32242FE89337784A40899831FDE34D3A8C2A9680BF27E01809956361983B2F3500D569C0C8089E
310
43C1D0BA05ED27446A40748C03F022FBDF4B894884DF8AB4B9B256BBBC82824814F91B7245385FEE0868B95BC3BA71FD7C8B711197D2C8A26EF143F7526B9B9980F88EDFDF61A001384E1C7A022888F4FCBFF4082AA5396100A419995CB56800BF3663835B02965223630DA01D141F25E4334631AA74E900810BEC5EC5ACCE
310
4C40B1015B6280EE3704945C8097C9560CE846AB48A4E6073117A4012B28F1025BD180EDB1063069A401441A47D5B404A8979700F54C4F408E03B666096C83436161640370836403920640A301E0C06B8A03B6D2B90D8E05865355B01CA3630D201BE04F618057733E00F1705260AC010D03DCA242BAD880F01DA5F5AEC601
310
B1E9849AE997404A86B05FEB8F083868803BD880D9DD60AA07483ADC47B0385E0275CB3C55CD3A1B00272F30B91BCC1521A9097E65E9BF72183FD40051FD748ABAF302FAE28054131406E4173E243F352E539B3ECD59B755B462652F308804A727A0568593FCF463A7F767800B7F2169400085B900B4FB028763220F63C918
310
0A93F3F36BE706373D6EB0EE0CFDC77F8EAA1F350037B825ED637F422CD30DEF7F3F0C9F8BF5B3A7F849460993EFFFFE34016004FC6A020C0683C16030180C0683C16030180C86FF0B7F007038C17A748558730000000049454E44AE426082CAEE392A6D4A6B060CDE1700E61820BB6594C409AE1601FD7E92012BE84BD0D2
310
D5357CE68909A8FFE90780EDF7CE5FCC27C3E0EA19B0466BA2C2AA88BD0F30FAA31D21031227D8990177D41402035662022B591547D6C5EC01C0AA193240D080603D0E041A18D0FDA719880F58FDC1154E30007C550497102F02EE8C036EAC0ABB64285D0C71B41E226402940177C601F701E0D3E1DD22D11C037CA5D82EAC
310
4D7C00B3C3008903BAF980FB18E0A641E2F270DE0730BB785898C0211E0540EB2FA26110FE0300CCCC90FE8A932D2EE81D20DF0D48180034285C43266946011308AD2E10FA1F18E08AA2E62B4E60778AC95DECDF75288C0C503B210ED03EA07B1C701700BE2C0E3F4EB59FF305166D27980BE028E8E200C30016161EBC3503
310
DCC4489CEF9CD4FF010F970D3ECE1704DE6D6EB071818DAF07B0CFF97DA9EB21EAA7FDC4D8A50895BDDD94F77301600380AF0660C8902143860C193264C8902143860C193264C890212F927F7AB4F4A0DC2F03200000000049454E44AE42608256BE3FB8DA2CF4AF4913E001309DC1EE566F166A338F970CE0D245B988D1B2
310
0D6023C86227F2EB87CEC5847CD7AC1B54E57D63605BC61FC0770DCAEF5440A73B86077D173AC5E3B5AD4CCB84ED9BB05B08DB044099E628655AA33AF21BA6C8C583E9A4379B0C75C2CCA57B268078F62D0B5A0620447F2AD937750D06F8AE20F5EC097C40C4FBA6E876631B706BD10638004CC1A71F869E063BE58201AA75
310
2F10FFA714CBF0BBD91B208CE0556C400F7C0D05E5F74F735F1BEF9A69D80D3203EECC80C1143DE4C6B1D1526EB30CB8B30D78F62EFE0B1BC79C3BBC840A7083F4B83D96AEA102B51D62741515E85E9501A21BA456B3419303D40A41CDD703ECDA60F7BA14D87C6F07B5A8DCF01FF2BDA820B4CAAC220000000049454E44AE
310
426082
  0
ENDSEC
  0
EOF
