  0
SECTION
  2
HEADER
  9
$ACADVER
  1
AC1014
  9
$ACADMAINTVER
 70
     9
  9
$DWGCODEPAGE
  3
ANSI_1252
  9
$INSBASE
 10
0.0
 20
0.0
 30
0.0
  9
$EXTMIN
 10
-0.2364933275816625
 20
-3.329949801227924
 30
0.0
  9
$EXTMAX
 10
26.31517653470521
 20
7.804212447941219
 30
0.0
  9
$LIMMIN
 10
0.0
 20
0.0
  9
$LIMMAX
 10
12.0
 20
9.0
  9
$ORTHOMODE
 70
     0
  9
$REGENMODE
 70
     1
  9
$FILLMODE
 70
     1
  9
$QTEXTMODE
 70
     0
  9
$MIRRTEXT
 70
     0
  9
$DRAGMODE
 70
     2
  9
$LTSCALE
 40
1.0
  9
$OSMODE
 70
   511
  9
$ATTMODE
 70
     1
  9
$TEXTSIZE
 40
0.25
  9
$TRACEWID
 40
0.05
  9
$TEXTSTYLE
  7
STANDARD
  9
$CLAYER
  8
0
  9
$CELTYPE
  6
BYLAYER
  9
$CECOLOR
 62
     2
  9
$CELTSCALE
 40
1.0
  9
$DELOBJ
 70
     1
  9
$DISPSILH
 70
     0
  9
$DIMSCALE
 40
1.0
  9
$DIMASZ
 40
0.18
  9
$DIMEXO
 40
0.0625
  9
$DIMDLI
 40
0.38
  9
$DIMRND
 40
0.0
  9
$DIMDLE
 40
0.0
  9
$DIMEXE
 40
0.18
  9
$DIMTP
 40
0.0
  9
$DIMTM
 40
0.0
  9
$DIMTXT
 40
0.18
  9
$DIMCEN
 40
0.09
  9
$DIMTSZ
 40
0.0
  9
$DIMTOL
 70
     0
  9
$DIMLIM
 70
     0
  9
$DIMTIH
 70
     1
  9
$DIMTOH
 70
     1
  9
$DIMSE1
 70
     0
  9
$DIMSE2
 70
     0
  9
$DIMTAD
 70
     0
  9
$DIMZIN
 70
     0
  9
$DIMBLK
  1

  9
$DIMASO
 70
     1
  9
$DIMSHO
 70
     1
  9
$DIMPOST
  1

  9
$DIMAPOST
  1

  9
$DIMALT
 70
     0
  9
$DIMALTD
 70
     2
  9
$DIMALTF
 40
25.4
  9
$DIMLFAC
 40
1.0
  9
$DIMTOFL
 70
     0
  9
$DIMTVP
 40
0.0
  9
$DIMTIX
 70
     0
  9
$DIMSOXD
 70
     0
  9
$DIMSAH
 70
     0
  9
$DIMBLK1
  1

  9
$DIMBLK2
  1

  9
$DIMSTYLE
  2
STANDARD
  9
$DIMCLRD
 70
     0
  9
$DIMCLRE
 70
     0
  9
$DIMCLRT
 70
     0
  9
$DIMTFAC
 40
1.0
  9
$DIMGAP
 40
0.09
  9
$DIMJUST
 70
     0
  9
$DIMSD1
 70
     0
  9
$DIMSD2
 70
     0
  9
$DIMTOLJ
 70
     1
  9
$DIMTZIN
 70
     0
  9
$DIMALTZ
 70
     0
  9
$DIMALTTZ
 70
     0
  9
$DIMFIT
 70
     5
  9
$DIMUPT
 70
     0
  9
$DIMUNIT
 70
     2
  9
$DIMDEC
 70
     4
  9
$DIMTDEC
 70
     4
  9
$DIMALTU
 70
     2
  9
$DIMALTTD
 70
     2
  9
$DIMTXSTY
  7
STANDARD
  9
$DIMAUNIT
 70
     0
  9
$LUNITS
 70
     2
  9
$LUPREC
 70
     4
  9
$SKETCHINC
 40
0.1
  9
$FILLETRAD
 40
0.125
  9
$AUNITS
 70
     0
  9
$AUPREC
 70
     0
  9
$MENU
  1
.
  9
$ELEVATION
 40
0.0
  9
$PELEVATION
 40
0.0
  9
$THICKNESS
 40
0.0
  9
$LIMCHECK
 70
     0
  9
$CHAMFERA
 40
0.0
  9
$CHAMFERB
 40
0.0
  9
$CHAMFERC
 40
0.0
  9
$CHAMFERD
 40
0.0
  9
$SKPOLY
 70
     0
  9
$TDCREATE
 40
2452642.855050926
  9
$TDUPDATE
 40
2458323.679209421
  9
$TDINDWG
 40
0.0067665046
  9
$TDUSRTIMER
 40
0.0016282755
  9
$USRTIMER
 70
     1
  9
$ANGBASE
 50
0.0
  9
$ANGDIR
 70
     0
  9
$PDMODE
 70
     0
  9
$PDSIZE
 40
0.0
  9
$PLINEWID
 40
0.0
  9
$COORDS
 70
     1
  9
$SPLFRAME
 70
     0
  9
$SPLINETYPE
 70
     6
  9
$SPLINESEGS
 70
     8
  9
$ATTDIA
 70
     0
  9
$ATTREQ
 70
     1
  9
$HANDLING
 70
     1
  9
$HANDSEED
  5
ECC
  9
$SURFTAB1
 70
     6
  9
$SURFTAB2
 70
     6
  9
$SURFTYPE
 70
     6
  9
$SURFU
 70
     6
  9
$SURFV
 70
     6
  9
$UCSNAME
  2

  9
$UCSORG
 10
0.0
 20
0.0
 30
0.0
  9
$UCSXDIR
 10
1.0
 20
0.0
 30
0.0
  9
$UCSYDIR
 10
0.0
 20
1.0
 30
0.0
  9
$PUCSNAME
  2

  9
$PUCSORG
 10
0.0
 20
0.0
 30
0.0
  9
$PUCSXDIR
 10
1.0
 20
0.0
 30
0.0
  9
$PUCSYDIR
 10
0.0
 20
1.0
 30
0.0
  9
$USERI1
 70
     0
  9
$USERI2
 70
     0
  9
$USERI3
 70
     0
  9
$USERI4
 70
     0
  9
$USERI5
 70
     0
  9
$USERR1
 40
0.0
  9
$USERR2
 40
0.0
  9
$USERR3
 40
0.0
  9
$USERR4
 40
0.0
  9
$USERR5
 40
0.0
  9
$WORLDVIEW
 70
     1
  9
$SHADEDGE
 70
     3
  9
$SHADEDIF
 70
    70
  9
$TILEMODE
 70
     1
  9
$MAXACTVP
 70
    64
  9
$PINSBASE
 10
0.0
 20
0.0
 30
0.0
  9
$PLIMCHECK
 70
     0
  9
$PEXTMIN
 10
0.0
 20
0.0
 30
0.0
  9
$PEXTMAX
 10
0.0
 20
0.0
 30
0.0
  9
$PLIMMIN
 10
0.0
 20
0.0
  9
$PLIMMAX
 10
0.0
 20
0.0
  9
$UNITMODE
 70
     0
  9
$VISRETAIN
 70
     1
  9
$PLINEGEN
 70
     0
  9
$PSLTSCALE
 70
     1
  9
$TREEDEPTH
 70
  3020
  9
$PICKSTYLE
 70
     1
  9
$CMLSTYLE
  2
STANDARD
  9
$CMLJUST
 70
     0
  9
$CMLSCALE
 40
1.0
  9
$PROXYGRAPHICS
 70
     1
  9
$MEASUREMENT
 70
     0
  0
ENDSEC
  0
SECTION
  2
CLASSES
  0
CLASS
  1
ACDBDICTIONARYWDFLT
  2
AcDbDictionaryWithDefault
  3
ObjectDBX Classes
 90
        0
280
     0
281
     0
  0
CLASS
  1
ACDBPLACEHOLDER
  2
AcDbPlaceHolder
  3
ObjectDBX Classes
 90
        0
280
     0
281
     0
  0
CLASS
  1
LAYOUT
  2
AcDbLayout
  3
ObjectDBX Classes
 90
        0
280
     0
281
     0
  0
CLASS
  1
DICTIONARYVAR
  2
AcDbDictionaryVar
  3
ObjectDBX Classes
 90
        0
280
     0
281
     0
  0
CLASS
  1
TABLESTYLE
  2
AcDbTableStyle
  3
ObjectDBX Classes
 90
     4095
280
     0
281
     0
  0
CLASS
  1
MATERIAL
  2
AcDbMaterial
  3
ObjectDBX Classes
 90
     1153
280
     0
281
     0
  0
CLASS
  1
VISUALSTYLE
  2
AcDbVisualStyle
  3
ObjectDBX Classes
 90
     4095
280
     0
281
     0
  0
CLASS
  1
SCALE
  2
AcDbScale
  3
ObjectDBX Classes
 90
     1153
280
     0
281
     0
  0
CLASS
  1
CELLSTYLEMAP
  2
AcDbCellStyleMap
  3
ObjectDBX Classes
 90
     1152
280
     0
281
     0
  0
CLASS
  1
RASTERVARIABLES
  2
AcDbRasterVariables
  3
ISM
 90
        0
280
     0
281
     0
  0
CLASS
  1
SUN
  2
AcDbSun
  3
SCENEOE
 90
     1153
280
     0
281
     0
  0
CLASS
  1
MLEADERSTYLE
  2
AcDbMLeaderStyle
  3
ACDB_MLEADERSTYLE_CLASS
 90
     4095
280
     0
281
     0
  0
CLASS
  1
XRECORD
  2
AcDbXrecord
  3
ObjectDBX Classes
 90
        0
280
     0
281
     0
  0
CLASS
  1
LWPOLYLINE
  2
AcDbPolyline
  3
ObjectDBX Classes
 90
        0
280
     0
281
     1
  0
CLASS
  1
HATCH
  2
AcDbHatch
  3
ObjectDBX Classes
 90
        0
280
     0
281
     1
  0
CLASS
  1
DIMASSOC
  2
AcDbDimAssoc
  3
"AcDbDimAssoc|Product Desc:     AcDim ARX App For Dimension|Company:          Autodesk, Inc.|WEB Address:      www.autodesk.com"
 90
        0
280
     0
281
     0
  0
ENDSEC
  0
SECTION
  2
TABLES
  0
TABLE
  2
VPORT
  5
8
330
0
100
AcDbSymbolTable
 70
     1
  0
VPORT
  5
94
330
8
100
AcDbSymbolTableRecord
100
AcDbViewportTableRecord
  2
*ACTIVE
 70
     0
 10
0.0
 20
0.0
 11
1.0
 21
1.0
 12
43.9279081813325
 22
20.66238956551841
 13
0.0
 23
0.0
 14
0.5
 24
0.5
 15
0.5
 25
0.5
 16
0.0
 26
0.0
 36
1.0
 17
-27.66959356597996
 27
-19.53870295786202
 37
0.0
 40
17.19642857142853
 41
2.708039492242595
 42
50.0
 43
0.0
 44
0.0
 50
0.0
 51
0.0
 71
    16
 72
  1000
 73
     1
 74
     0
 75
     0
 76
     0
 77
     0
 78
     0
  0
ENDTAB
  0
TABLE
  2
LTYPE
  5
5
330
0
100
AcDbSymbolTable
 70
     1
  0
LTYPE
  5
14
330
5
100
AcDbSymbolTableRecord
100
AcDbLinetypeTableRecord
  2
BYBLOCK
 70
     0
  3

 72
    65
 73
     0
 40
0.0
  0
LTYPE
  5
15
330
5
100
AcDbSymbolTableRecord
100
AcDbLinetypeTableRecord
  2
BYLAYER
 70
     0
  3

 72
    65
 73
     0
 40
0.0
  0
LTYPE
  5
16
330
5
100
AcDbSymbolTableRecord
100
AcDbLinetypeTableRecord
  2
CONTINUOUS
 70
     0
  3
Solid line
 72
    65
 73
     0
 40
0.0
  0
ENDTAB
  0
TABLE
  2
LAYER
  5
2
330
0
100
AcDbSymbolTable
 70
     2
  0
LAYER
  5
10
330
2
100
AcDbSymbolTableRecord
100
AcDbLayerTableRecord
  2
0
 70
     0
 62
     7
  6
CONTINUOUS
  0
LAYER
  5
8F5
330
2
100
AcDbSymbolTableRecord
100
AcDbLayerTableRecord
  2
DEFPOINTS
 70
     0
 62
     7
  6
CONTINUOUS
  0
ENDTAB
  0
TABLE
  2
STYLE
  5
3
330
0
100
AcDbSymbolTable
 70
     2
  0
STYLE
  5
11
330
3
100
AcDbSymbolTableRecord
100
AcDbTextStyleTableRecord
  2
STANDARD
 70
     0
 40
0.0
 41
1.0
 50
0.0
 71
     0
 42
0.25
  3
arial.ttf
  4

1001
ACAD
1000
Arial
1071
        0
  0
STYLE
  5
125
330
3
100
AcDbSymbolTableRecord
100
AcDbTextStyleTableRecord
  2
ANNOTATIVE
 70
     0
 40
0.0
 41
1.0
 50
0.0
 71
     0
 42
0.2
  3
arial.ttf
  4

1001
ACAD
1000
Arial
1071
        0
1001
ACADANNOTATIVE
1000
AnnotativeData
1002
{
1070
     1
1070
     1
1002
}
  0
ENDTAB
  0
TABLE
  2
VIEW
  5
6
330
0
100
AcDbSymbolTable
 70
     0
  0
ENDTAB
  0
TABLE
  2
UCS
  5
7
330
0
100
AcDbSymbolTable
 70
     0
  0
ENDTAB
  0
TABLE
  2
APPID
  5
9
330
0
100
AcDbSymbolTable
 70
     3
  0
APPID
  5
12
330
9
100
AcDbSymbolTableRecord
100
AcDbRegAppTableRecord
  2
ACAD
 70
     0
  0
APPID
  5
126
330
9
100
AcDbSymbolTableRecord
100
AcDbRegAppTableRecord
  2
ACADANNOTATIVE
 70
     0
  0
APPID
  5
D63
330
9
100
AcDbSymbolTableRecord
100
AcDbRegAppTableRecord
  2
PE_URL
 70
     0
  0
ENDTAB
  0
TABLE
  2
DIMSTYLE
  5
A
330
0
100
AcDbSymbolTable
 70
     2
  0
DIMSTYLE
105
27
102
{ACAD_REACTORS
330
D43
330
D53
330
E11
330
E21
102
}
330
A
100
AcDbSymbolTableRecord
100
AcDbDimStyleTableRecord
  2
STANDARD
 70
     0
  3

  4

  5

  6

  7

 40
1.0
 41
0.18
 42
0.0625
 43
0.38
 44
0.18
 45
0.0
 46
0.0
 47
0.0
 48
0.0
140
0.18
141
0.09
142
0.0
143
25.4
144
1.0
145
0.0
146
1.0
147
0.09
 71
     0
 72
     0
 73
     1
 74
     1
 75
     0
 76
     0
 77
     0
 78
     0
170
     0
171
     2
172
     0
173
     0
174
     0
175
     0
176
     0
177
     0
178
     0
270
     2
271
     4
272
     4
273
     2
274
     2
340
11
275
     0
280
     0
281
     0
282
     0
283
     1
284
     0
285
     0
286
     0
287
     3
288
     0
  0
DIMSTYLE
105
127
330
A
100
AcDbSymbolTableRecord
100
AcDbDimStyleTableRecord
  2
ANNOTATIVE
 70
     0
  3

  4

  5

  6

  7

 40
0.0
 41
0.18
 42
0.0625
 43
0.38
 44
0.18
 45
0.0
 46
0.0
 47
0.0
 48
0.0
140
0.18
141
0.09
142
0.0
143
25.4
144
1.0
145
0.0
146
1.0
147
0.09
 71
     0
 72
     0
 73
     1
 74
     1
 75
     0
 76
     0
 77
     0
 78
     0
170
     0
171
     2
172
     0
173
     0
174
     0
175
     0
176
     0
177
     0
178
     0
270
     2
271
     4
272
     4
273
     2
274
     2
340
11
275
     0
280
     0
281
     0
282
     0
283
     1
284
     0
285
     0
286
     0
287
     3
288
     0
1001
ACADANNOTATIVE
1000
AnnotativeData
1002
{
1070
     1
1070
     1
1002
}
  0
ENDTAB
  0
TABLE
  2
BLOCK_RECORD
  5
1
330
0
100
AcDbSymbolTable
 70
     7
  0
BLOCK_RECORD
  5
1F
330
1
100
AcDbSymbolTableRecord
100
AcDbBlockTableRecord
  2
*MODEL_SPACE
  0
BLOCK_RECORD
  5
58
330
1
100
AcDbSymbolTableRecord
100
AcDbBlockTableRecord
  2
*PAPER_SPACE
  0
BLOCK_RECORD
  5
5D
330
1
100
AcDbSymbolTableRecord
100
AcDbBlockTableRecord
  2
*PAPER_SPACE0
  0
BLOCK_RECORD
  5
D46
330
1
100
AcDbSymbolTableRecord
100
AcDbBlockTableRecord
  2
*D1
  0
BLOCK_RECORD
  5
D56
330
1
100
AcDbSymbolTableRecord
100
AcDbBlockTableRecord
  2
*D2
  0
BLOCK_RECORD
  5
E14
330
1
100
AcDbSymbolTableRecord
100
AcDbBlockTableRecord
  2
*D3
  0
BLOCK_RECORD
  5
E24
330
1
100
AcDbSymbolTableRecord
100
AcDbBlockTableRecord
  2
*D4
  0
ENDTAB
  0
ENDSEC
  0
SECTION
  2
BLOCKS
  0
BLOCK
  5
20
330
1F
100
AcDbEntity
  8
0
100
AcDbBlockBegin
  2
*MODEL_SPACE
 70
     0
 10
0.0
 20
0.0
 30
0.0
  3
*MODEL_SPACE
  1

  0
ENDBLK
  5
21
330
1F
100
AcDbEntity
  8
0
100
AcDbBlockEnd
  0
BLOCK
  5
5A
330
58
100
AcDbEntity
 67
     1
  8
0
100
AcDbBlockBegin
  2
*PAPER_SPACE
 70
     0
 10
0.0
 20
0.0
 30
0.0
  3
*PAPER_SPACE
  1

  0
ENDBLK
  5
5B
330
58
100
AcDbEntity
 67
     1
  8
0
100
AcDbBlockEnd
  0
BLOCK
  5
5F
330
5D
100
AcDbEntity
  8
0
100
AcDbBlockBegin
  2
*PAPER_SPACE0
 70
     0
 10
0.0
 20
0.0
 30
0.0
  3
*PAPER_SPACE0
  1

  0
ENDBLK
  5
60
330
5D
100
AcDbEntity
  8
0
100
AcDbBlockEnd
  0
BLOCK
  5
D47
330
D46
100
AcDbEntity
  8
0
100
AcDbBlockBegin
  2
*D1
 70
     1
 10
0.0
 20
0.0
 30
0.0
  3
*D1
  1

  0
LINE
  5
D49
330
D46
100
AcDbEntity
  8
0
 62
     0
100
AcDbLine
 10
14.86346848186717
 20
4.906173580142795
 30
0.0
 11
14.86346848186717
 21
6.574016328364777
 31
0.0
  0
LINE
  5
D4A
330
D46
100
AcDbEntity
  8
0
 62
     0
100
AcDbLine
 10
17.48846848186717
 20
4.531173580142795
 30
0.0
 11
17.48846848186717
 21
6.574016328364777
 31
0.0
  0
LINE
  5
D4B
330
D46
100
AcDbEntity
  8
0
 62
     0
100
AcDbLine
 10
15.04346848186717
 20
6.394016328364778
 30
0.0
 11
15.71156848186717
 21
6.394016328364778
 31
0.0
  0
LINE
  5
D4C
330
D46
100
AcDbEntity
  8
0
 62
     0
100
AcDbLine
 10
17.30846848186717
 20
6.394016328364778
 30
0.0
 11
16.64036848186717
 21
6.394016328364778
 31
0.0
  0
SOLID
  5
D4D
330
D46
100
AcDbEntity
  8
0
 62
     0
100
AcDbTrace
 10
15.04346848186717
 20
6.424016328364778
 30
0.0
 11
15.04346848186717
 21
6.364016328364777
 31
0.0
 12
14.86346848186717
 22
6.394016328364778
 32
0.0
 13
14.86346848186717
 23
6.394016328364778
 33
0.0
  0
SOLID
  5
D4E
330
D46
100
AcDbEntity
  8
0
 62
     0
100
AcDbTrace
 10
17.30846848186717
 20
6.364016328364777
 30
0.0
 11
17.30846848186717
 21
6.424016328364778
 31
0.0
 12
17.48846848186717
 22
6.394016328364778
 32
0.0
 13
17.48846848186717
 23
6.394016328364778
 33
0.0
  0
MTEXT
  5
D4F
330
D46
100
AcDbEntity
  8
0
 62
     0
100
AcDbMText
 10
16.17596848186717
 20
6.394016328364778
 30
0.0
 40
0.18
 41
0.0
 71
     5
 72
     1
  1
\A1;2.6250
  0
POINT
  5
D50
330
D46
100
AcDbEntity
  8
DEFPOINTS
 62
     0
100
AcDbPoint
 10
14.86346848186717
 20
4.843673580142795
 30
0.0
  0
POINT
  5
D51
330
D46
100
AcDbEntity
  8
DEFPOINTS
 62
     0
100
AcDbPoint
 10
17.48846848186717
 20
4.468673580142795
 30
0.0
  0
POINT
  5
D52
330
D46
100
AcDbEntity
  8
DEFPOINTS
 62
     0
100
AcDbPoint
 10
17.48846848186717
 20
6.394016328364778
 30
0.0
  0
ENDBLK
  5
D48
330
D46
100
AcDbEntity
  8
0
100
AcDbBlockEnd
  0
BLOCK
  5
D57
330
D56
100
AcDbEntity
  8
0
100
AcDbBlockBegin
  2
*D2
 70
     1
 10
0.0
 20
0.0
 30
0.0
  3
*D2
  1

  0
LINE
  5
D59
330
D56
100
AcDbEntity
  8
0
 62
     0
100
AcDbLine
 10
15.42596848186717
 20
5.468673580142795
 30
0.0
 11
13.54498202466981
 21
5.468673580142795
 31
0.0
  0
LINE
  5
D5A
330
D56
100
AcDbEntity
  8
0
 62
     0
100
AcDbLine
 10
16.92596848186717
 20
0.4686735801427968
 30
0.0
 11
13.54498202466981
 21
0.468673580142797
 31
0.0
  0
LINE
  5
D5B
330
D56
100
AcDbEntity
  8
0
 62
     0
100
AcDbLine
 10
13.72498202466981
 20
5.288673580142795
 30
0.0
 11
13.72498202466981
 21
3.150563580142796
 31
0.0
  0
LINE
  5
D5C
330
D56
100
AcDbEntity
  8
0
 62
     0
100
AcDbLine
 10
13.72498202466981
 20
0.648673580142797
 30
0.0
 11
13.72498202466981
 21
2.786783580142796
 31
0.0
  0
SOLID
  5
D5D
330
D56
100
AcDbEntity
  8
0
 62
     0
100
AcDbTrace
 10
13.75498202466981
 20
5.288673580142795
 30
0.0
 11
13.69498202466981
 21
5.288673580142795
 31
0.0
 12
13.72498202466981
 22
5.468673580142795
 32
0.0
 13
13.72498202466981
 23
5.468673580142795
 33
0.0
  0
SOLID
  5
D5E
330
D56
100
AcDbEntity
  8
0
 62
     0
100
AcDbTrace
 10
13.69498202466981
 20
0.648673580142797
 30
0.0
 11
13.75498202466981
 21
0.648673580142797
 31
0.0
 12
13.72498202466981
 22
0.468673580142797
 32
0.0
 13
13.72498202466981
 23
0.468673580142797
 33
0.0
  0
MTEXT
  5
D5F
330
D56
100
AcDbEntity
  8
0
 62
     0
100
AcDbMText
 10
13.72498202466981
 20
2.968673580142796
 30
0.0
 40
0.18
 41
0.0
 71
     5
 72
     1
  1
\A1;5.0000
  0
POINT
  5
D60
330
D56
100
AcDbEntity
  8
DEFPOINTS
 62
     0
100
AcDbPoint
 10
15.48846848186717
 20
5.468673580142795
 30
0.0
  0
POINT
  5
D61
330
D56
100
AcDbEntity
  8
DEFPOINTS
 62
     0
100
AcDbPoint
 10
16.98846848186717
 20
0.4686735801427968
 30
0.0
  0
POINT
  5
D62
330
D56
100
AcDbEntity
  8
DEFPOINTS
 62
     0
100
AcDbPoint
 10
13.72498202466981
 20
0.468673580142797
 30
0.0
  0
ENDBLK
  5
D58
330
D56
100
AcDbEntity
  8
0
100
AcDbBlockEnd
  0
BLOCK
  5
E15
330
E14
100
AcDbEntity
  8
0
100
AcDbBlockBegin
  2
*D3
 70
     1
 10
0.0
 20
0.0
 30
0.0
  3
*D3
  1

  0
LINE
  5
E17
330
E14
100
AcDbEntity
  8
0
 62
     0
100
AcDbLine
 10
14.36346848186717
 20
3.031173580142799
 30
0.0
 11
14.36346848186717
 21
-1.850075642377548
 31
0.0
  0
LINE
  5
E18
330
E14
100
AcDbEntity
  8
0
 62
     0
100
AcDbLine
 10
20.86346848186717
 20
3.031173580142796
 30
0.0
 11
20.86346848186717
 21
-1.850075642377548
 31
0.0
  0
LINE
  5
E19
330
E14
100
AcDbEntity
  8
0
 62
     0
100
AcDbLine
 10
14.54346848186717
 20
-1.670075642377548
 30
0.0
 11
17.06330462557736
 21
-1.670075642377548
 31
0.0
  0
LINE
  5
E1A
330
E14
100
AcDbEntity
  8
0
 62
     0
100
AcDbLine
 10
20.68346848186717
 20
-1.670075642377548
 30
0.0
 11
17.99012462557736
 21
-1.670075642377548
 31
0.0
  0
SOLID
  5
E1B
330
E14
100
AcDbEntity
  8
0
 62
     0
100
AcDbTrace
 10
14.54346848186717
 20
-1.640075642377548
 30
0.0
 11
14.54346848186717
 21
-1.700075642377548
 31
0.0
 12
14.36346848186717
 22
-1.670075642377548
 32
0.0
 13
14.36346848186717
 23
-1.670075642377548
 33
0.0
  0
SOLID
  5
E1C
330
E14
100
AcDbEntity
  8
0
 62
     0
100
AcDbTrace
 10
20.68346848186717
 20
-1.700075642377548
 30
0.0
 11
20.68346848186717
 21
-1.640075642377548
 31
0.0
 12
20.86346848186717
 22
-1.670075642377548
 32
0.0
 13
20.86346848186717
 23
-1.670075642377548
 33
0.0
  0
MTEXT
  5
E1D
330
E14
100
AcDbEntity
  8
0
 62
     0
100
AcDbMText
 10
17.52671462557736
 20
-1.670075642377548
 30
0.0
 40
0.18
 41
0.0
 71
     5
 72
     1
  1
\A1;6.5000
  0
POINT
  5
E1E
330
E14
100
AcDbEntity
  8
DEFPOINTS
 62
     0
100
AcDbPoint
 10
14.36346848186717
 20
3.093673580142799
 30
0.0
  0
POINT
  5
E1F
330
E14
100
AcDbEntity
  8
DEFPOINTS
 62
     0
100
AcDbPoint
 10
20.86346848186717
 20
3.093673580142796
 30
0.0
  0
POINT
  5
E20
330
E14
100
AcDbEntity
  8
DEFPOINTS
 62
     0
100
AcDbPoint
 10
20.86346848186717
 20
-1.670075642377548
 30
0.0
  0
ENDBLK
  5
E16
330
E14
100
AcDbEntity
  8
0
100
AcDbBlockEnd
  0
BLOCK
  5
E25
330
E24
100
AcDbEntity
  8
0
100
AcDbBlockBegin
  2
*D4
 70
     1
 10
0.0
 20
0.0
 30
0.0
  3
*D4
  1

  0
LINE
  5
E27
330
E24
100
AcDbEntity
  8
0
 62
     0
100
AcDbLine
 10
17.80096848186717
 20
-0.5313264198572027
 30
0.0
 11
21.99159447209448
 21
-0.5313264198572032
 31
0.0
  0
LINE
  5
E28
330
E24
100
AcDbEntity
  8
0
 62
     0
100
AcDbLine
 10
19.80096848186717
 20
5.968673580142799
 30
0.0
 11
21.99159447209448
 21
5.968673580142799
 31
0.0
  0
LINE
  5
E29
330
E24
100
AcDbEntity
  8
0
 62
     0
100
AcDbLine
 10
21.81159447209448
 20
-0.3513264198572032
 30
0.0
 11
21.81159447209448
 21
2.444893580142797
 31
0.0
  0
LINE
  5
E2A
330
E24
100
AcDbEntity
  8
0
 62
     0
100
AcDbLine
 10
21.81159447209448
 20
5.788673580142799
 30
0.0
 11
21.81159447209448
 21
2.808673580142796
 31
0.0
  0
SOLID
  5
E2B
330
E24
100
AcDbEntity
  8
0
 62
     0
100
AcDbTrace
 10
21.78159447209448
 20
-0.3513264198572032
 30
0.0
 11
21.84159447209448
 21
-0.3513264198572032
 31
0.0
 12
21.81159447209448
 22
-0.5313264198572032
 32
0.0
 13
21.81159447209448
 23
-0.5313264198572032
 33
0.0
  0
SOLID
  5
E2C
330
E24
100
AcDbEntity
  8
0
 62
     0
100
AcDbTrace
 10
21.84159447209448
 20
5.788673580142799
 30
0.0
 11
21.78159447209448
 21
5.788673580142799
 31
0.0
 12
21.81159447209448
 22
5.968673580142799
 32
0.0
 13
21.81159447209448
 23
5.968673580142799
 33
0.0
  0
MTEXT
  5
E2D
330
E24
100
AcDbEntity
  8
0
 62
     0
100
AcDbMText
 10
21.81159447209448
 20
2.626783580142797
 30
0.0
 40
0.18
 41
0.0
 71
     5
 72
     1
  1
\A1;6.5000
  0
POINT
  5
E2E
330
E24
100
AcDbEntity
  8
DEFPOINTS
 62
     0
100
AcDbPoint
 10
17.73846848186717
 20
-0.5313264198572027
 30
0.0
  0
POINT
  5
E2F
330
E24
100
AcDbEntity
  8
DEFPOINTS
 62
     0
100
AcDbPoint
 10
19.73846848186717
 20
5.968673580142799
 30
0.0
  0
POINT
  5
E30
330
E24
100
AcDbEntity
  8
DEFPOINTS
 62
     0
100
AcDbPoint
 10
21.81159447209448
 20
5.968673580142799
 30
0.0
  0
ENDBLK
  5
E26
330
E24
100
AcDbEntity
  8
0
100
AcDbBlockEnd
  0
ENDSEC
  0
SECTION
  2
ENTITIES
  0
LWPOLYLINE
  5
B1B
330
1F
100
AcDbEntity
  8
0
 62
     6
100
AcDbPolyline
 90
       71
 70
     1
 43
0.0
 10
2.138506672418337
 20
5.209491113251692
 10
1.888506672418337
 20
5.209491113251692
 42
-0.4142135623730955
 10
1.763506672418337
 20
5.334491113251692
 10
1.763506672418337
 20
5.584491113251692
 42
0.4142135623730954
 10
1.638506672418337
 20
5.709491113251692
 10
0.3885066724183375
 20
5.709491113251692
 42
0.4142135623730954
 10
0.2635066724183375
 20
5.584491113251692
 10
0.2635066724183375
 20
5.334491113251692
 42
-0.4142135623730955
 10
0.1385066724183375
 20
5.209491113251692
 10
-0.1114933275816625
 20
5.209491113251692
 42
0.4142135623730954
 10
-0.2364933275816625
 20
5.084491113251692
 10
-0.2364933275816625
 20
3.334491113251692
 42
0.4142135623730954
 10
-0.1114933275816625
 20
3.209491113251692
 10
0.1385066724183375
 20
3.209491113251692
 42
-0.4142135623730955
 10
0.2635066724183375
 20
3.084491113251692
 10
0.2635066724183375
 20
2.334491113251692
 42
0.4142135623730954
 10
0.3885066724183375
 20
2.209491113251692
 10
0.6385066724183375
 20
2.209491113251692
 42
-0.4142135623730955
 10
0.7635066724183375
 20
2.084491113251692
 10
0.7635066724183375
 20
1.834491113251692
 42
0.4142135623730954
 10
0.8885066724183375
 20
1.709491113251692
 10
1.138506672418337
 20
1.709491113251692
 42
-0.4142135623730955
 10
1.263506672418337
 20
1.584491113251692
 10
1.263506672418337
 20
1.334491113251693
 42
0.4142135623730954
 10
1.388506672418337
 20
1.209491113251693
 10
1.638506672418337
 20
1.209491113251693
 42
-0.4142135623730955
 10
1.763506672418337
 20
1.084491113251693
 10
1.763506672418337
 20
0.8344911132516932
 42
0.4142135623730954
 10
1.888506672418337
 20
0.7094911132516932
 10
2.138506672418337
 20
0.7094911132516932
 42
-0.4142135623730955
 10
2.263506672418337
 20
0.5844911132516932
 10
2.263506672418337
 20
0.3344911132516932
 42
0.4142135623730954
 10
2.388506672418337
 20
0.2094911132516932
 10
2.638506672418337
 20
0.2094911132516932
 42
0.4142135623730954
 10
2.763506672418337
 20
0.3344911132516932
 10
2.763506672418337
 20
0.5844911132516932
 42
-0.4142135623730955
 10
2.888506672418337
 20
0.7094911132516932
 10
3.138506672418337
 20
0.7094911132516932
 42
0.4142135623730954
 10
3.263506672418337
 20
0.8344911132516932
 10
3.263506672418337
 20
1.084491113251693
 42
-0.4142135623730955
 10
3.388506672418337
 20
1.209491113251693
 10
3.638506672418337
 20
1.209491113251693
 42
0.4142135623730954
 10
3.763506672418337
 20
1.334491113251693
 10
3.763506672418337
 20
1.584491113251692
 42
-0.4142135623730955
 10
3.888506672418337
 20
1.709491113251692
 10
4.138506672418337
 20
1.709491113251692
 42
0.4142135623730954
 10
4.263506672418337
 20
1.834491113251692
 10
4.263506672418337
 20
2.084491113251692
 42
-0.4142135623730955
 10
4.388506672418337
 20
2.209491113251692
 10
4.638506672418337
 20
2.209491113251692
 42
0.4142135623730954
 10
4.763506672418337
 20
2.334491113251692
 10
4.763506672418337
 20
3.084491113251692
 42
-0.4142135623730955
 10
4.888506672418337
 20
3.209491113251692
 10
5.138506672418337
 20
3.209491113251692
 42
0.4142135623730954
 10
5.263506672418337
 20
3.334491113251692
 10
5.263506672418337
 20
5.084491113251692
 42
0.4142135623730954
 10
5.138506672418337
 20
5.209491113251692
 10
4.763506672418337
 20
5.209491113251692
 10
4.763506672418337
 20
5.584491113251692
 42
0.4142135623730954
 10
4.638506672418337
 20
5.709491113251692
 10
3.388506672418337
 20
5.709491113251692
 42
0.4142135623730954
 10
3.263506672418337
 20
5.584491113251692
 10
3.263506672418337
 20
5.334491113251692
 42
-0.4142135623730955
 10
3.138506672418337
 20
5.209491113251692
 10
2.888506672418337
 20
5.209491113251692
 42
0.4142135623730954
 10
2.763506672418337
 20
5.084491113251692
 10
2.763506672418337
 20
4.834491113251692
 42
-0.4142135623730955
 10
2.638506672418337
 20
4.709491113251692
 10
2.388506672418337
 20
4.709491113251692
 42
-0.4142135623730955
 10
2.263506672418337
 20
4.834491113251692
 10
2.263506672418337
 20
5.084491113251692
 42
0.4142135623730954
  0
TEXT
  5
B1C
330
1F
100
AcDbEntity
  8
0
100
AcDbText
 10
1.947770511851623
 20
3.427968241941191
 30
0.0
 40
0.25
  1
WHITE
100
AcDbText
  0
TEXT
  5
B1D
330
1F
100
AcDbEntity
  8
0
100
AcDbText
 10
1.341395069112558
 20
3.052968241941191
 30
0.0
 40
0.25
  1
1/8 IN ACRYLIC
100
AcDbText
  0
LWPOLYLINE
  5
B4D
330
1F
100
AcDbEntity
  8
0
 62
     2
100
AcDbPolyline
 90
       72
 70
     1
 43
0.0
 10
9.489061860433878
 20
4.926025397688626
 10
9.239061860433878
 20
4.926025397688626
 42
-0.4142135623730955
 10
9.114061860433878
 20
5.051025397688626
 10
9.114061860433878
 20
5.301025397688626
 42
0.4142135623730954
 10
8.989061860433878
 20
5.426025397688626
 10
7.739061860433878
 20
5.426025397688626
 42
0.4142135623730954
 10
7.614061860433878
 20
5.301025397688626
 10
7.614061860433878
 20
5.051025397688626
 42
-0.4142135623730955
 10
7.489061860433878
 20
4.926025397688626
 10
7.239061860433878
 20
4.926025397688626
 42
0.4142135623730954
 10
7.114061860433878
 20
4.801025397688626
 10
7.114061860433878
 20
3.051025397688628
 42
0.4142135623730954
 10
7.239061860433878
 20
2.926025397688628
 10
7.489061860433878
 20
2.926025397688628
 42
-0.4142135623730955
 10
7.614061860433878
 20
2.801025397688628
 10
7.614061860433878
 20
2.051025397688628
 42
0.4142135623730954
 10
7.739061860433878
 20
1.926025397688628
 10
7.989061860433878
 20
1.926025397688628
 42
-0.4142135623730955
 10
8.114061860433878
 20
1.801025397688628
 10
8.114061860433878
 20
1.551025397688628
 42
0.4142135623730954
 10
8.239061860433878
 20
1.426025397688628
 10
8.489061860433878
 20
1.426025397688628
 42
-0.4142135623730955
 10
8.614061860433878
 20
1.301025397688628
 10
8.614061860433878
 20
1.051025397688628
 42
0.4142135623730954
 10
8.739061860433878
 20
0.9260253976886279
 10
8.989061860433878
 20
0.9260253976886279
 42
-0.4142135623730955
 10
9.114061860433878
 20
0.8010253976886279
 10
9.114061860433878
 20
0.5510253976886279
 42
0.4142135623730954
 10
9.239061860433878
 20
0.4260253976886279
 10
9.489061860433878
 20
0.4260253976886279
 42
-0.4142135623730955
 10
9.614061860433878
 20
0.3010253976886279
 10
9.614061860433878
 20
0.0510253976886279
 42
0.4142135623730954
 10
9.739061860433878
 20
-0.0739746023113717
 10
9.989061860433878
 20
-0.0739746023113717
 42
0.4142135623730954
 10
10.11406186043388
 20
0.0510253976886279
 10
10.11406186043388
 20
0.3010253976886279
 42
-0.4142135623730955
 10
10.23906186043388
 20
0.4260253976886279
 10
10.48906186043388
 20
0.4260253976886279
 42
0.4142135623730954
 10
10.61406186043388
 20
0.5510253976886279
 10
10.61406186043388
 20
0.8010253976886279
 42
-0.4142135623730955
 10
10.73906186043388
 20
0.9260253976886279
 10
10.98906186043388
 20
0.9260253976886279
 42
0.4142135623730954
 10
11.11406186043388
 20
1.051025397688628
 10
11.11406186043388
 20
1.301025397688628
 42
-0.4142135623730955
 10
11.23906186043388
 20
1.426025397688628
 10
11.48906186043388
 20
1.426025397688628
 42
0.4142135623730954
 10
11.61406186043388
 20
1.551025397688628
 10
11.61406186043388
 20
1.801025397688628
 42
-0.4142135623730955
 10
11.73906186043388
 20
1.926025397688628
 10
11.98906186043388
 20
1.926025397688628
 42
0.4142135623730954
 10
12.11406186043388
 20
2.051025397688628
 10
12.11406186043388
 20
2.801025397688628
 42
-0.4142135623730955
 10
12.23906186043388
 20
2.926025397688628
 10
12.48906186043388
 20
2.926025397688628
 42
0.4142135623730954
 10
12.61406186043388
 20
3.051025397688628
 10
12.61406186043388
 20
4.801025397688626
 42
0.4142135623730954
 10
12.48906186043388
 20
4.926025397688626
 10
12.23906186043388
 20
4.926025397688626
 42
-0.4142135623730955
 10
12.11406186043388
 20
5.051025397688626
 10
12.11406186043388
 20
5.301025397688626
 42
0.4142135623730954
 10
11.98906186043388
 20
5.426025397688626
 10
10.73906186043388
 20
5.426025397688626
 42
0.4142135623730954
 10
10.61406186043388
 20
5.301025397688626
 10
10.61406186043388
 20
5.051025397688626
 42
-0.4142135623730955
 10
10.48906186043388
 20
4.926025397688626
 10
10.23906186043388
 20
4.926025397688626
 42
0.4142135623730954
 10
10.11406186043388
 20
4.801025397688626
 10
10.11406186043388
 20
4.551025397688626
 42
-0.4142135623730955
 10
9.989061860433878
 20
4.426025397688626
 10
9.739061860433878
 20
4.426025397688626
 42
-0.4142135623730955
 10
9.614061860433878
 20
4.551025397688626
 10
9.614061860433878
 20
4.801025397688626
 42
0.4142135623730954
  0
LWPOLYLINE
  5
B4E
330
1F
100
AcDbEntity
  8
0
 62
     2
100
AcDbPolyline
 90
       72
 70
     1
 43
0.0
 10
9.364061860433878
 20
4.801025397688626
 10
9.114061860433878
 20
4.801025397688626
 42
-0.4142135623730955
 10
8.989061860433878
 20
4.926025397688626
 10
8.989061860433878
 20
5.176025397688626
 42
0.4142135623730954
 10
8.864061860433878
 20
5.301025397688626
 10
7.864061860433878
 20
5.301025397688626
 42
0.4142135623730954
 10
7.739061860433878
 20
5.176025397688626
 10
7.739061860433878
 20
4.926025397688626
 42
-0.4142135623730955
 10
7.614061860433878
 20
4.801025397688626
 10
7.364061860433878
 20
4.801025397688626
 42
0.4142135623730954
 10
7.239061860433878
 20
4.676025397688626
 10
7.239061860433878
 20
3.176025397688628
 42
0.4142135623730954
 10
7.364061860433878
 20
3.051025397688628
 10
7.614061860433878
 20
3.051025397688628
 42
-0.4142135623730955
 10
7.739061860433878
 20
2.926025397688628
 10
7.739061860433878
 20
2.176025397688628
 42
0.4142135623730954
 10
7.864061860433878
 20
2.051025397688628
 10
8.114061860433878
 20
2.051025397688628
 42
-0.4142135623730955
 10
8.239061860433878
 20
1.926025397688628
 10
8.239061860433878
 20
1.676025397688628
 42
0.4142135623730954
 10
8.364061860433878
 20
1.551025397688628
 10
8.614061860433878
 20
1.551025397688628
 42
-0.4142135623730955
 10
8.739061860433878
 20
1.426025397688628
 10
8.739061860433878
 20
1.176025397688628
 42
0.4142135623730954
 10
8.864061860433878
 20
1.051025397688628
 10
9.114061860433878
 20
1.051025397688628
 42
-0.4142135623730955
 10
9.239061860433878
 20
0.9260253976886279
 10
9.239061860433878
 20
0.6760253976886279
 42
0.4142135623730954
 10
9.364061860433878
 20
0.5510253976886279
 10
9.614061860433878
 20
0.5510253976886279
 42
-0.4142135623730955
 10
9.739061860433878
 20
0.4260253976886279
 10
9.739061860433878
 20
0.1760253976886279
 42
0.4142135623730954
 10
9.864061860433878
 20
0.0510253976886279
 10
9.864061860433878
 20
0.0510253976886279
 42
0.4142135623730954
 10
9.989061860433878
 20
0.1760253976886279
 10
9.989061860433878
 20
0.4260253976886279
 42
-0.4142135623730955
 10
10.11406186043388
 20
0.5510253976886279
 10
10.36406186043388
 20
0.5510253976886279
 42
0.4142135623730954
 10
10.48906186043388
 20
0.6760253976886279
 10
10.48906186043388
 20
0.9260253976886279
 42
-0.4142135623730955
 10
10.61406186043388
 20
1.051025397688628
 10
10.86406186043388
 20
1.051025397688628
 42
0.4142135623730954
 10
10.98906186043388
 20
1.176025397688628
 10
10.98906186043388
 20
1.426025397688628
 42
-0.4142135623730955
 10
11.11406186043388
 20
1.551025397688628
 10
11.36406186043388
 20
1.551025397688628
 42
0.4142135623730954
 10
11.48906186043388
 20
1.676025397688628
 10
11.48906186043388
 20
1.926025397688628
 42
-0.4142135623730955
 10
11.61406186043388
 20
2.051025397688628
 10
11.86406186043388
 20
2.051025397688628
 42
0.4142135623730954
 10
11.98906186043388
 20
2.176025397688628
 10
11.98906186043388
 20
2.926025397688628
 42
-0.4142135623730955
 10
12.11406186043388
 20
3.051025397688628
 10
12.36406186043388
 20
3.051025397688628
 42
0.4142135623730954
 10
12.48906186043388
 20
3.176025397688628
 10
12.48906186043388
 20
4.676025397688626
 42
0.4142135623730954
 10
12.36406186043388
 20
4.801025397688626
 10
12.11406186043388
 20
4.801025397688626
 42
-0.4142135623730955
 10
11.98906186043388
 20
4.926025397688626
 10
11.98906186043388
 20
5.176025397688626
 42
0.4142135623730954
 10
11.86406186043388
 20
5.301025397688626
 10
10.86406186043388
 20
5.301025397688626
 42
0.4142135623730954
 10
10.73906186043388
 20
5.176025397688626
 10
10.73906186043388
 20
4.926025397688626
 42
-0.4142135623730955
 10
10.61406186043388
 20
4.801025397688626
 10
10.36406186043388
 20
4.801025397688626
 42
0.4142135623730954
 10
10.23906186043388
 20
4.676025397688626
 10
10.23906186043388
 20
4.426025397688628
 42
-0.4142135623730955
 10
10.11406186043388
 20
4.301025397688628
 10
9.614061860433878
 20
4.301025397688628
 42
-0.4142135623730955
 10
9.489061860433878
 20
4.426025397688628
 10
9.489061860433878
 20
4.676025397688626
 42
0.4142135623730954
  0
TEXT
  5
B4F
330
1F
100
AcDbEntity
  8
0
100
AcDbText
 10
9.474876500339434
 20
6.864195409494988
 30
0.0
 40
0.25
  1
TOP
100
AcDbText
  0
TEXT
  5
B50
330
1F
100
AcDbEntity
  8
0
100
AcDbText
 10
8.982196453113922
 20
6.489195409494988
 30
0.0
 40
0.25
  1
1/2 IN MDF
100
AcDbText
  0
LWPOLYLINE
  5
B51
330
1F
100
AcDbEntity
  8
0
 62
     2
100
AcDbPolyline
 90
       88
 70
     1
 43
0.0
 10
6.614061860433878
 20
3.051025397688629
 10
6.614061860433878
 20
4.801025397688626
 42
-0.4142135623730955
 10
6.739061860433878
 20
4.926025397688626
 10
6.989061860433878
 20
4.926025397688626
 42
0.4142135623730954
 10
7.114061860433878
 20
5.051025397688626
 10
7.114061860433878
 20
5.301025397688626
 42
-0.4142135623730955
 10
7.239061860433878
 20
5.426025397688626
 10
7.489061860433878
 20
5.426025397688626
 42
0.4142135623730954
 10
7.614061860433878
 20
5.551025397688626
 10
7.614061860433878
 20
5.801025397688626
 42
-0.4142135623730955
 10
7.739061860433878
 20
5.926025397688626
 10
8.989061860433878
 20
5.926025397688626
 42
-0.4142135623730955
 10
9.114061860433878
 20
5.801025397688626
 10
9.114061860433878
 20
5.551025397688626
 42
0.4142135623730954
 10
9.239061860433878
 20
5.426025397688626
 10
9.489061860433878
 20
5.426025397688626
 42
-0.4142135623730955
 10
9.614061860433878
 20
5.301025397688626
 10
9.614061860433878
 20
5.051025397688626
 42
0.4142135623730954
 10
9.739061860433878
 20
4.926025397688626
 10
9.989061860433878
 20
4.926025397688626
 42
0.4142135623730954
 10
10.11406186043388
 20
5.051025397688626
 10
10.11406186043388
 20
5.301025397688626
 42
-0.4142135623730955
 10
10.23906186043388
 20
5.426025397688626
 10
10.48906186043388
 20
5.426025397688626
 42
0.4142135623730954
 10
10.61406186043388
 20
5.551025397688626
 10
10.61406186043388
 20
5.801025397688626
 42
-0.4142135623730955
 10
10.73906186043388
 20
5.926025397688626
 10
11.98906186043388
 20
5.926025397688626
 42
-0.4142135623730955
 10
12.11406186043388
 20
5.801025397688626
 10
12.11406186043388
 20
5.551025397688626
 42
0.4142135623730954
 10
12.23906186043388
 20
5.426025397688626
 10
12.48906186043388
 20
5.426025397688626
 42
-0.4142135623730955
 10
12.61406186043388
 20
5.301025397688626
 10
12.61406186043388
 20
5.051025397688626
 42
0.4142135623730954
 10
12.73906186043388
 20
4.926025397688626
 10
12.98906186043388
 20
4.926025397688626
 42
-0.4142135623730955
 10
13.11406186043388
 20
4.801025397688626
 10
13.11406186043388
 20
3.051025397688626
 42
-0.4142135623730955
 10
12.98906186043388
 20
2.926025397688626
 10
12.73906186043388
 20
2.926025397688626
 42
0.4142135623730954
 10
12.61406186043388
 20
2.801025397688626
 10
12.61406186043388
 20
2.051025397688626
 42
-0.4142135623730955
 10
12.48906186043388
 20
1.926025397688626
 10
12.23906186043388
 20
1.926025397688626
 42
0.4142135623730954
 10
12.11406186043388
 20
1.801025397688626
 10
12.11406186043388
 20
1.551025397688626
 42
-0.4142135623730955
 10
11.98906186043388
 20
1.426025397688626
 10
11.73906186043388
 20
1.426025397688626
 42
0.4142135623730954
 10
11.61406186043388
 20
1.301025397688626
 10
11.61406186043388
 20
1.051025397688627
 42
-0.4142135623730955
 10
11.48906186043388
 20
0.926025397688627
 10
11.23906186043388
 20
0.926025397688627
 42
0.4142135623730954
 10
11.11406186043388
 20
0.801025397688627
 10
11.11406186043388
 20
0.551025397688627
 42
-0.4142135623730955
 10
10.98906186043388
 20
0.426025397688627
 10
10.73906186043388
 20
0.426025397688627
 42
0.4142135623730954
 10
10.61406186043388
 20
0.301025397688627
 10
10.61406186043388
 20
0.051025397688627
 42
-0.4142135623730955
 10
10.48906186043388
 20
-0.073974602311373
 10
10.23906186043388
 20
-0.073974602311373
 42
0.4142135623730954
 10
10.11406186043388
 20
-0.198974602311373
 10
10.11406186043388
 20
-0.448974602311373
 42
-0.4142135623730955
 10
9.989061860433878
 20
-0.573974602311373
 10
9.739061860433878
 20
-0.573974602311373
 42
-0.4142135623730955
 10
9.614061860433878
 20
-0.448974602311373
 10
9.614061860433878
 20
-0.1989746023113717
 42
0.414213562373094
 10
9.489061860433878
 20
-0.0739746023113717
 10
9.239061860433878
 20
-0.0739746023113708
 42
-0.414213562373094
 10
9.114061860433878
 20
0.0510253976886288
 10
9.114061860433878
 20
0.3010253976886288
 42
0.414213562373094
 10
8.989061860433878
 20
0.4260253976886288
 10
8.739061860433878
 20
0.4260253976886306
 42
-0.4142135623730937
 10
8.614061860433878
 20
0.5510253976886306
 10
8.614061860433878
 20
0.8010253976886315
 42
0.414213562373094
 10
8.489061860433878
 20
0.9260253976886315
 10
8.239061860433878
 20
0.9260253976886323
 42
-0.4142135623730981
 10
8.114061860433878
 20
1.051025397688634
 10
8.114061860433885
 20
1.301025397688631
 42
0.4142135623730998
 10
7.989061860433885
 20
1.426025397688634
 10
7.739061860433885
 20
1.426025397688635
 42
-0.4142135623730943
 10
7.614061860433885
 20
1.551025397688635
 10
7.614061860433885
 20
1.801025397688635
 42
0.414213562373094
 10
7.489061860433885
 20
1.926025397688635
 10
7.239061860433885
 20
1.926025397688636
 42
-0.4142135623730958
 10
7.114061860433885
 20
2.051025397688637
 10
7.114061860433893
 20
2.801025397688633
 42
0.414213562373104
 10
6.989061860433885
 20
2.926025397688634
 10
6.739061860433878
 20
2.926025397688629
 42
-0.4142135623731015
  0
LWPOLYLINE
  5
B52
330
1F
100
AcDbEntity
  8
0
 62
     2
100
AcDbPolyline
 90
       36
 70
     1
 43
0.0
 10
9.614061860433878
 20
4.301025397688628
 10
9.614061860433878
 20
4.301025397688628
 42
-0.4142135623730955
 10
9.489061860433878
 20
4.426025397688628
 10
9.489061860433878
 20
4.676025397688626
 42
0.4142135623730954
 10
9.364061860433878
 20
4.801025397688626
 10
9.114061860433878
 20
4.801025397688626
 42
-0.4142135623730955
 10
8.989061860433878
 20
4.926025397688626
 10
8.989061860433878
 20
5.176025397688626
 42
0.4142135623730954
 10
8.864061860433878
 20
5.301025397688626
 10
7.864061860433878
 20
5.301025397688626
 42
0.4142135623730954
 10
7.739061860433878
 20
5.176025397688626
 10
7.739061860433878
 20
4.926025397688626
 42
-0.4142135623730955
 10
7.614061860433878
 20
4.801025397688626
 10
7.364061860433878
 20
4.801025397688626
 42
0.4142135623730954
 10
7.239061860433878
 20
4.676025397688626
 10
7.239061860433878
 20
3.176025397688627
 42
0.4142135623730954
 10
7.364061860433878
 20
3.051025397688627
 10
7.614061860433878
 20
3.051025397688627
 42
-0.4142135623730955
 10
7.739061860433878
 20
2.926025397688627
 10
7.739061860433878
 20
2.176025397688627
 42
0.4142135623730954
 10
7.864061860433878
 20
2.051025397688627
 10
8.114061860433878
 20
2.051025397688627
 42
-0.4142135623730955
 10
8.239061860433878
 20
1.926025397688627
 10
8.239061860433878
 20
1.676025397688627
 42
0.4142135623730954
 10
8.364061860433878
 20
1.551025397688627
 10
8.614061860433878
 20
1.551025397688627
 42
-0.4142135623730955
 10
8.739061860433878
 20
1.426025397688627
 10
8.739061860433878
 20
1.176025397688627
 42
0.4142135623730954
 10
8.864061860433878
 20
1.051025397688627
 10
9.114061860433878
 20
1.051025397688627
 42
-0.4142135623730955
 10
9.239061860433878
 20
0.926025397688627
 10
9.239061860433878
 20
0.676025397688627
 42
0.4142135623730954
 10
9.364061860433878
 20
0.551025397688627
 10
9.614061860433878
 20
0.551025397688627
 42
0.4142135623730954
 10
9.739061860433878
 20
0.676025397688627
 10
9.739061860433878
 20
4.176025397688628
 42
0.4142135623730954
  0
LWPOLYLINE
  5
B57
330
1F
100
AcDbEntity
  8
0
 62
     2
100
AcDbPolyline
 90
       36
 70
     1
 43
0.0
 10
10.11406186043388
 20
4.301025397688628
 10
10.11406186043388
 20
4.301025397688628
 42
0.4142135623730955
 10
10.23906186043388
 20
4.426025397688628
 10
10.23906186043388
 20
4.676025397688626
 42
-0.4142135623730954
 10
10.36406186043388
 20
4.801025397688626
 10
10.61406186043388
 20
4.801025397688626
 42
0.4142135623730955
 10
10.73906186043388
 20
4.926025397688626
 10
10.73906186043388
 20
5.176025397688626
 42
-0.4142135623730954
 10
10.86406186043388
 20
5.301025397688626
 10
11.86406186043388
 20
5.301025397688626
 42
-0.4142135623730954
 10
11.98906186043388
 20
5.176025397688626
 10
11.98906186043388
 20
4.926025397688626
 42
0.4142135623730955
 10
12.11406186043388
 20
4.801025397688626
 10
12.36406186043388
 20
4.801025397688626
 42
-0.4142135623730954
 10
12.48906186043388
 20
4.676025397688626
 10
12.48906186043388
 20
3.176025397688627
 42
-0.4142135623730954
 10
12.36406186043388
 20
3.051025397688627
 10
12.11406186043388
 20
3.051025397688627
 42
0.4142135623730955
 10
11.98906186043388
 20
2.926025397688627
 10
11.98906186043388
 20
2.176025397688627
 42
-0.4142135623730954
 10
11.86406186043388
 20
2.051025397688627
 10
11.61406186043388
 20
2.051025397688627
 42
0.4142135623730955
 10
11.48906186043388
 20
1.926025397688627
 10
11.48906186043388
 20
1.676025397688627
 42
-0.4142135623730954
 10
11.36406186043388
 20
1.551025397688627
 10
11.11406186043388
 20
1.551025397688627
 42
0.4142135623730955
 10
10.98906186043388
 20
1.426025397688627
 10
10.98906186043388
 20
1.176025397688627
 42
-0.4142135623730954
 10
10.86406186043388
 20
1.051025397688627
 10
10.61406186043388
 20
1.051025397688627
 42
0.4142135623730955
 10
10.48906186043388
 20
0.926025397688627
 10
10.48906186043388
 20
0.676025397688627
 42
-0.4142135623730954
 10
10.36406186043388
 20
0.551025397688627
 10
10.11406186043388
 20
0.551025397688627
 42
-0.4142135623730954
 10
9.989061860433878
 20
0.676025397688627
 10
9.989061860433878
 20
4.176025397688628
 42
-0.4142135623730954
  0
LWPOLYLINE
  5
B80
330
1F
100
AcDbEntity
  8
0
 62
     2
100
AcDbPolyline
 90
       88
 70
     1
 43
0.0
 10
14.36346848186717
 20
3.093673580142799
 10
14.36346848186717
 20
4.843673580142797
 42
-0.4142135623730955
 10
14.48846848186717
 20
4.968673580142797
 10
14.73846848186717
 20
4.968673580142797
 42
0.4142135623730954
 10
14.86346848186717
 20
5.093673580142797
 10
14.86346848186717
 20
5.343673580142797
 42
-0.4142135623730955
 10
14.98846848186717
 20
5.468673580142797
 10
15.23846848186717
 20
5.468673580142797
 42
0.4142135623730954
 10
15.36346848186717
 20
5.593673580142797
 10
15.36346848186717
 20
5.843673580142797
 42
-0.4142135623730955
 10
15.48846848186717
 20
5.968673580142799
 10
16.73846848186717
 20
5.968673580142799
 42
-0.4142135623730955
 10
16.86346848186717
 20
5.843673580142797
 10
16.86346848186717
 20
5.593673580142797
 42
0.4142135623730954
 10
16.98846848186717
 20
5.468673580142797
 10
17.23846848186717
 20
5.468673580142797
 42
-0.4142135623730955
 10
17.36346848186717
 20
5.343673580142797
 10
17.36346848186717
 20
5.093673580142797
 42
0.4142135623730954
 10
17.48846848186717
 20
4.968673580142797
 10
17.73846848186717
 20
4.968673580142797
 42
0.4142135623730954
 10
17.86346848186717
 20
5.093673580142797
 10
17.86346848186717
 20
5.343673580142797
 42
-0.4142135623730955
 10
17.98846848186717
 20
5.468673580142797
 10
18.23846848186717
 20
5.468673580142797
 42
0.4142135623730954
 10
18.36346848186717
 20
5.593673580142797
 10
18.36346848186717
 20
5.843673580142797
 42
-0.4142135623730955
 10
18.48846848186717
 20
5.968673580142799
 10
19.73846848186717
 20
5.968673580142799
 42
-0.4142135623730955
 10
19.86346848186717
 20
5.843673580142797
 10
19.86346848186717
 20
5.593673580142797
 42
0.4142135623730954
 10
19.98846848186717
 20
5.468673580142797
 10
20.23846848186717
 20
5.468673580142797
 42
-0.4142135623730955
 10
20.36346848186717
 20
5.343673580142797
 10
20.36346848186717
 20
5.093673580142797
 42
0.4142135623730954
 10
20.48846848186717
 20
4.968673580142797
 10
20.73846848186717
 20
4.968673580142797
 42
-0.4142135623730955
 10
20.86346848186717
 20
4.843673580142797
 10
20.86346848186717
 20
3.093673580142796
 42
-0.4142135623730955
 10
20.73846848186717
 20
2.968673580142796
 10
20.48846848186717
 20
2.968673580142796
 42
0.4142135623730954
 10
20.36346848186717
 20
2.843673580142796
 10
20.36346848186717
 20
2.093673580142796
 42
-0.4142135623730955
 10
20.23846848186717
 20
1.968673580142796
 10
19.98846848186717
 20
1.968673580142796
 42
0.4142135623730954
 10
19.86346848186717
 20
1.843673580142796
 10
19.86346848186717
 20
1.593673580142796
 42
-0.4142135623730955
 10
19.73846848186717
 20
1.468673580142796
 10
19.48846848186717
 20
1.468673580142796
 42
0.4142135623730954
 10
19.36346848186717
 20
1.343673580142796
 10
19.36346848186717
 20
1.093673580142797
 42
-0.4142135623730955
 10
19.23846848186717
 20
0.9686735801427968
 10
18.98846848186717
 20
0.9686735801427968
 42
0.4142135623730954
 10
18.86346848186717
 20
0.8436735801427968
 10
18.86346848186717
 20
0.5936735801427968
 42
-0.4142135623730955
 10
18.73846848186717
 20
0.4686735801427968
 10
18.48846848186717
 20
0.4686735801427968
 42
0.4142135623730954
 10
18.36346848186717
 20
0.3436735801427968
 10
18.36346848186717
 20
0.0936735801427968
 42
-0.4142135623730955
 10
18.23846848186717
 20
-0.0313264198572032
 10
17.98846848186717
 20
-0.0313264198572032
 42
0.4142135623730954
 10
17.86346848186717
 20
-0.1563264198572027
 10
17.86346848186717
 20
-0.4063264198572027
 42
-0.4142135623730955
 10
17.73846848186717
 20
-0.5313264198572027
 10
17.48846848186717
 20
-0.5313264198572027
 42
-0.4142135623730955
 10
17.36346848186717
 20
-0.4063264198572027
 10
17.36346848186717
 20
-0.1563264198572019
 42
0.414213562373094
 10
17.23846848186717
 20
-0.0313264198572014
 10
16.98846848186717
 20
-0.0313264198572005
 42
-0.414213562373094
 10
16.86346848186717
 20
0.0936735801427995
 10
16.86346848186717
 20
0.3436735801427995
 42
0.414213562373094
 10
16.73846848186717
 20
0.4686735801427995
 10
16.48846848186717
 20
0.4686735801428004
 42
-0.4142135623730937
 10
16.36346848186717
 20
0.5936735801428004
 10
16.36346848186717
 20
0.8436735801428012
 42
0.414213562373094
 10
16.23846848186717
 20
0.9686735801428012
 10
15.98846848186717
 20
0.9686735801428021
 42
-0.4142135623730981
 10
15.86346848186717
 20
1.093673580142804
 10
15.86346848186719
 20
1.343673580142801
 42
0.4142135623730998
 10
15.73846848186719
 20
1.468673580142804
 10
15.48846848186719
 20
1.468673580142805
 42
-0.4142135623730943
 10
15.36346848186719
 20
1.593673580142805
 10
15.36346848186719
 20
1.843673580142805
 42
0.414213562373094
 10
15.23846848186719
 20
1.968673580142805
 10
14.98846848186719
 20
1.968673580142807
 42
-0.4142135623730958
 10
14.86346848186719
 20
2.093673580142807
 10
14.86346848186719
 20
2.843673580142803
 42
0.414213562373104
 10
14.73846848186719
 20
2.968673580142804
 10
14.48846848186717
 20
2.968673580142799
 42
-0.4142135623731015
  0
LWPOLYLINE
  5
B81
330
1F
100
AcDbEntity
  8
0
 62
     4
100
AcDbPolyline
 90
        4
 70
     1
 43
0.0
 10
10.28707856322281
 20
1.768865577606046
 10
11.4850861311948
 20
4.519279704075347
 10
11.71428730840056
 20
4.419445740077682
 10
10.51627974042857
 20
1.669031613608382
  0
LWPOLYLINE
  5
B82
330
1F
100
AcDbEntity
  8
0
 62
     4
100
AcDbPolyline
 90
        4
 70
     1
 43
0.0
 10
9.441045157644957
 20
1.768865577606046
 10
8.243037589672966
 20
4.519279704075347
 10
8.013836412467207
 20
4.419445740077682
 10
9.211843980439177
 20
1.669031613608382
  0
LWPOLYLINE
  5
BD2
330
1F
100
AcDbEntity
  8
0
 62
     2
100
AcDbPolyline
 90
       34
 70
     0
 43
0.0
 10
17.74827774210362
 20
4.468673580142795
 10
17.74827774210362
 20
0.4686735801427968
 10
18.23846848186717
 20
0.4686735801427968
 42
0.4142135623730953
 10
18.36346848186717
 20
0.5936735801427968
 10
18.36346848186717
 20
0.8436735801427968
 42
-0.4142135623730955
 10
18.48846848186717
 20
0.9686735801427968
 10
18.73846848186717
 20
0.9686735801427968
 42
0.4142135623730953
 10
18.86346848186717
 20
1.093673580142797
 10
18.86346848186717
 20
1.343673580142797
 42
-0.4142135623730955
 10
18.98846848186717
 20
1.468673580142797
 10
19.23846848186717
 20
1.468673580142797
 42
0.4142135623730953
 10
19.36346848186717
 20
1.593673580142797
 10
19.36346848186717
 20
1.843673580142797
 42
-0.4142135623730955
 10
19.48846848186717
 20
1.968673580142797
 10
19.73846848186717
 20
1.968673580142797
 42
0.4142135623730953
 10
19.86346848186717
 20
2.093673580142797
 10
19.86346848186717
 20
2.843673580142797
 42
-0.4142135623730955
 10
19.98846848186717
 20
2.968673580142797
 10
20.23846848186717
 20
2.968673580142797
 42
0.4142135623730953
 10
20.36346848186717
 20
3.093673580142797
 10
20.36346848186717
 20
4.843673580142795
 42
0.4142135623730953
 10
20.23846848186717
 20
4.968673580142795
 10
19.98846848186717
 20
4.968673580142795
 42
-0.4142135623730955
 10
19.86346848186717
 20
5.093673580142795
 10
19.86346848186717
 20
5.343673580142795
 42
0.4142135623730953
 10
19.73846848186717
 20
5.468673580142795
 10
18.48846848186717
 20
5.468673580142795
 42
0.4142135623730955
 10
18.36346848186717
 20
5.343673580142795
 10
18.36346848186717
 20
5.093673580142795
 42
-0.4142135623730955
 10
18.23846848186717
 20
4.968673580142795
 10
17.98846848186717
 20
4.968673580142795
 42
0.4142135623730955
 10
17.86346848186717
 20
4.843673580142795
 10
17.86346848186717
 20
4.593673580142795
 42
-0.4142135623730955
 10
17.73846848186717
 20
4.468673580142795
 42
-0.4142135623730955
  0
LWPOLYLINE
  5
C76
330
1F
100
AcDbEntity
  8
0
 62
     2
100
AcDbPolyline
 90
       34
 70
     0
 43
0.0
 10
17.48846848186717
 20
4.468673580142795
 42
-0.4142135623730955
 10
17.36346848186717
 20
4.593673580142795
 10
17.36346848186717
 20
4.843673580142795
 42
0.4142135623730953
 10
17.23846848186717
 20
4.968673580142795
 10
16.98846848186717
 20
4.968673580142795
 42
-0.4142135623730955
 10
16.86346848186717
 20
5.093673580142795
 10
16.86346848186717
 20
5.343673580142795
 42
0.4142135623730953
 10
16.73846848186717
 20
5.468673580142795
 10
15.48846848186717
 20
5.468673580142795
 42
0.4142135623730955
 10
15.36346848186717
 20
5.343673580142795
 10
15.36346848186717
 20
5.093673580142795
 42
-0.4142135623730955
 10
15.23846848186717
 20
4.968673580142795
 10
14.98846848186717
 20
4.968673580142795
 42
0.4142135623730955
 10
14.86346848186717
 20
4.843673580142795
 10
14.86346848186717
 20
3.093673580142797
 42
0.4142135623730954
 10
14.98846848186717
 20
2.968673580142797
 10
15.23846848186717
 20
2.968673580142797
 42
-0.4142135623730955
 10
15.36346848186717
 20
2.843673580142797
 10
15.36346848186717
 20
2.093673580142797
 42
0.4142135623730954
 10
15.48846848186717
 20
1.968673580142797
 10
15.73846848186717
 20
1.968673580142797
 42
-0.4142135623730955
 10
15.86346848186717
 20
1.843673580142797
 10
15.86346848186717
 20
1.593673580142797
 42
0.4142135623730954
 10
15.98846848186717
 20
1.468673580142797
 10
16.23846848186717
 20
1.468673580142797
 42
-0.4142135623730955
 10
16.36346848186717
 20
1.343673580142797
 10
16.36346848186717
 20
1.093673580142797
 42
0.4142135623730954
 10
16.48846848186717
 20
0.9686735801427968
 10
16.73846848186717
 20
0.9686735801427968
 42
-0.4142135623730955
 10
16.86346848186717
 20
0.8436735801427968
 10
16.86346848186717
 20
0.5936735801427968
 42
0.4142135623730954
 10
16.98846848186717
 20
0.4686735801427968
 10
17.49827774210362
 20
0.4686735801427968
 10
17.49827774210362
 20
4.468673580142795
  0
TEXT
  5
D41
330
1F
100
AcDbEntity
  8
0
100
AcDbText
 10
16.72034613328845
 20
6.515946375590278
 30
0.0
 40
0.25
  1
1/2 IN MDF
100
AcDbText
  0
TEXT
  5
D42
330
1F
100
AcDbEntity
  8
0
100
AcDbText
 10
16.85299076138762
 20
6.890946375590268
 30
0.0
 40
0.25
  1
BOTTOM
100
AcDbText
  0
DIMENSION
  5
D43
330
1F
100
AcDbEntity
  8
0
 62
     7
100
AcDbDimension
  2
*D1
 10
17.48846848186717
 20
6.394016328364778
 30
0.0
 11
16.17596848186717
 21
6.394016328364778
 31
0.0
 70
   160
  3
STANDARD
100
AcDbAlignedDimension
 13
14.86346848186717
 23
4.843673580142795
 33
0.0
 14
17.48846848186717
 24
4.468673580142795
 34
0.0
100
AcDbRotatedDimension
1001
ACAD
1000
DSTYLE
1002
{
1070
   144
1040
1.0
1002
}
  0
DIMENSION
  5
D53
330
1F
100
AcDbEntity
  8
0
 62
     7
100
AcDbDimension
  2
*D2
 10
13.72498202466981
 20
0.468673580142797
 30
0.0
 11
13.72498202466981
 21
2.968673580142796
 31
0.0
 70
    32
  3
STANDARD
100
AcDbAlignedDimension
 13
15.48846848186717
 23
5.468673580142795
 33
0.0
 14
16.98846848186717
 24
0.4686735801427968
 34
0.0
 50
90.0
100
AcDbRotatedDimension
1001
PE_URL
1000

  0
LINE
  5
D8D
330
1F
100
AcDbEntity
  8
0
 62
     2
100
AcDbLine
 10
19.96449058429199
 20
3.505103968565481
 30
0.0
 11
23.19178175902635
 21
4.955904588400193
 31
0.0
  0
TEXT
  5
D8E
330
1F
100
AcDbEntity
  8
0
100
AcDbText
 10
23.2991765347052
 20
4.827097179899601
 30
0.0
 40
0.25
  1
POCKET TO 3/8 IN
100
AcDbText
  0
TEXT
  5
D8F
330
1F
100
AcDbEntity
  8
0
100
AcDbText
 10
22.0608441852365
 20
6.107449452626879
 30
0.0
 40
0.25
  1
PROFILE OUTSIDE
100
AcDbText
  0
LINE
  5
D90
330
1F
100
AcDbEntity
  8
0
 62
     2
100
AcDbLine
 10
20.39161386646435
 20
5.485220930312826
 30
0.0
 11
21.84254902585044
 21
6.216597032319909
 31
0.0
  0
TEXT
  5
DBA
330
1F
100
AcDbEntity
  8
0
100
AcDbText
 10
5.122321331137513
 20
-0.5189713478084728
 30
0.0
 40
0.25
  1
PROFILE THRU (2)
100
AcDbText
  0
LINE
  5
DBC
330
1F
100
AcDbEntity
  8
0
 62
     2
100
AcDbLine
 10
10.37655033054715
 20
1.300979272026231
 30
0.0
 11
8.258125610948596
 21
-0.0837358991662027
 31
0.0
  0
LINE
  5
DBD
330
1F
100
AcDbEntity
  8
0
 62
     2
100
AcDbLine
 10
8.258125610948596
 20
-0.0837358991662027
 30
0.0
 11
8.504214557229545
 21
2.309078445579945
 31
0.0
  0
TEXT
  5
DE4
330
1F
100
AcDbEntity
  8
0
100
AcDbText
 10
4.337870475175293
 20
7.549962447941219
 30
0.0
 40
0.25
  1
RGB STRIPS (2)
100
AcDbText
  0
LINE
  5
DE5
330
1F
100
AcDbEntity
  8
0
 62
     2
100
AcDbLine
 10
8.051920061952131
 20
4.60904155065669
 30
0.0
 11
6.490503296899014
 21
7.368049815119488
 31
0.0
  0
LINE
  5
DE6
330
1F
100
AcDbEntity
  8
0
 62
     2
100
AcDbLine
 10
6.490503296899014
 20
7.368049815119488
 30
0.0
 11
11.20507236419534
 21
4.366491373561058
 31
0.0
  0
LWPOLYLINE
  5
DE7
330
1F
100
AcDbEntity
  8
0
 62
     3
100
AcDbPolyline
 90
        4
 70
     1
 43
0.0
 10
15.57748935061799
 20
2.326902567480778
 10
15.57748935061799
 20
4.886902567480776
 10
16.75748935061799
 20
4.886902567480776
 10
16.75748935061799
 20
2.326902567480778
  0
TEXT
  5
E0E
330
1F
100
AcDbEntity
  8
0
 62
     3
100
AcDbText
 10
16.27482110976791
 20
2.675568447055748
 30
0.0
 40
0.25
  1
RPI 0
 50
89.99999999999982
100
AcDbText
  0
TEXT
  5
E0F
330
1F
100
AcDbEntity
  8
0
100
AcDbText
 10
18.31281107434877
 20
3.7968892853084
 30
0.0
 40
0.25
  1
BAT
100
AcDbText
  0
TEXT
  5
E10
330
1F
100
AcDbEntity
  8
0
100
AcDbText
 10
18.31281107434877
 20
3.4218892853084
 30
0.0
 40
0.25
  1
PACK?
100
AcDbText
  0
DIMENSION
  5
E11
330
1F
100
AcDbEntity
  8
0
 62
     7
100
AcDbDimension
  2
*D3
 10
20.86346848186717
 20
-1.670075642377548
 30
0.0
 11
17.52671462557736
 21
-1.670075642377548
 31
0.0
 70
   160
  3
STANDARD
100
AcDbAlignedDimension
 13
14.36346848186717
 23
3.093673580142799
 33
0.0
 14
20.86346848186717
 24
3.093673580142796
 34
0.0
100
AcDbRotatedDimension
1001
ACAD
1000
DSTYLE
1002
{
1070
   144
1040
1.0
1002
}
  0
DIMENSION
  5
E21
330
1F
100
AcDbEntity
  8
0
 62
     7
100
AcDbDimension
  2
*D4
 10
21.81159447209448
 20
5.968673580142799
 30
0.0
 11
21.81159447209448
 21
2.626783580142797
 31
0.0
 70
   160
  3
STANDARD
100
AcDbAlignedDimension
 13
17.73846848186717
 23
-0.5313264198572027
 33
0.0
 14
19.73846848186717
 24
5.968673580142799
 34
0.0
 50
90.0
100
AcDbRotatedDimension
1001
ACAD
1000
DSTYLE
1002
{
1070
   144
1040
1.0
1002
}
  0
TEXT
  5
EA3
330
1F
100
AcDbEntity
  8
0
100
AcDbText
 10
1.985056765624744
 20
-2.831657252769331
 30
0.0
 40
0.25
  1
Note: Verify Dimensions, and accomodate for acrylic radii
100
AcDbText
  0
TEXT
  5
ECA
330
1F
100
AcDbEntity
  8
0
100
AcDbText
 10
1.979876784161918
 20
-3.256699801227925
 30
0.0
 40
0.25
  1
Consider this a draft. By Jeremy S. Cook
100
AcDbText
  0
ENDSEC
  0
SECTION
  2
OBJECTS
  0
DICTIONARY
  5
C
330
0
100
AcDbDictionary
  3
ACAD_DETAILVIEWSTYLE
350
122
  3
ACAD_GROUP
350
D
  3
ACAD_IMAGE_VARS
350
DC
  3
ACAD_MLINESTYLE
350
17
  3
ACAD_SCALELIST
350
E35
  3
ACAD_SECTIONVIEWSTYLE
350
123
  3
ACDBVARIABLEDICTIONARY
350
66
  3
APPDATA
350
E1
  3
DWGPROPS
350
ECB
  0
DICTIONARY
  5
122
102
{ACAD_REACTORS
330
C
102
}
330
C
100
AcDbDictionary
  0
DICTIONARY
  5
D
102
{ACAD_REACTORS
330
C
102
}
330
C
100
AcDbDictionary
  0
RASTERVARIABLES
  5
DC
102
{ACAD_REACTORS
330
C
102
}
330
C
100
AcDbRasterVariables
 90
        0
 70
     1
 71
     1
 72
     5
  0
DICTIONARY
  5
17
102
{ACAD_REACTORS
330
C
102
}
330
C
100
AcDbDictionary
  3
STANDARD
350
18
  0
DICTIONARY
  5
E35
102
{ACAD_REACTORS
330
C
102
}
330
C
100
AcDbDictionary
  0
DICTIONARY
  5
123
102
{ACAD_REACTORS
330
C
102
}
330
C
100
AcDbDictionary
  0
DICTIONARY
  5
66
102
{ACAD_REACTORS
330
C
102
}
330
C
100
AcDbDictionary
  3
DIMASSOC
350
67
  3
HIDETEXT
350
6B
  0
DICTIONARY
  5
E1
102
{ACAD_REACTORS
330
C
102
}
330
C
100
AcDbDictionary
  0
XRECORD
  5
ECB
102
{ACAD_REACTORS
330
C
102
}
330
C
100
AcDbXrecord
  1
DWGPROPS COOKIE
  2

  3

  4

  6

  7

  8
jerem
  9

300
=
301
=
302
=
303
=
304
=
305
=
306
=
307
=
308
=
309
=
 40
0.0
 41
2452643.021717593
 42
2458323.845876088
  1

 90
        0
  0
MLINESTYLE
  5
18
102
{ACAD_REACTORS
330
17
102
}
330
17
100
AcDbMlineStyle
  2
STANDARD
 70
     0
  3

 62
   256
 51
90.0
 52
90.0
 71
     2
 49
0.5
 62
   256
  6
BYLAYER
 49
-0.5
 62
   256
  6
BYLAYER
  0
DICTIONARYVAR
  5
67
102
{ACAD_REACTORS
330
66
102
}
330
66
100
DictionaryVariables
280
     0
  1
2
  0
DICTIONARYVAR
  5
6B
102
{ACAD_REACTORS
330
66
102
}
330
66
100
DictionaryVariables
280
     0
  1
1
  0
ENDSEC
  0
EOF
