  0
SECTION
  2
HEADER
  9
$ACADVER
  1
AC1012
  9
$DWGCODEPAGE
  3
ansi_1252
  9
$INSBASE
 10
0.0
 20
0.0
 30
0.0
  9
$EXTMIN
 10
0.0
 20
0.0
 30
0.0
  9
$EXTMAX
 10
60.0
 20
60.0
 30
0.0
  9
$LIMMIN
 10
0.0
 20
0.0
  9
$LIMMAX
 10
60.0
 20
60.0
  9
$ORTHOMODE
 70
     0
  9
$REGENMODE
 70
     1
  9
$FILLMODE
 70
     1
  9
$QTEXTMODE
 70
     0
  9
$MIRRTEXT
 70
     1
  9
$DRAGMODE
 70
     2
  9
$LTSCALE
 40
1.0
  9
$OSMODE
 70
    37
  9
$ATTMODE
 70
     1
  9
$TEXTSIZE
 40
0.1377952756
  9
$TRACEWID
 40
0.05
  9
$TEXTSTYLE
  7
STANDARD
  9
$CLAYER
  8
0
  9
$CELTYPE
  6
BYLAYER
  9
$CECOLOR
 62
   256
  9
$CELTSCALE
 40
1.0
  9
$DELOBJ
 70
     1
  9
$DISPSILH
 70
     0
  9
$DIMSCALE
 40
1.0
  9
$DIMASZ
 40
0.13
  9
$DIMEXO
 40
0.0393700787
  9
$DIMDLI
 40
0.38
  9
$DIMRND
 40
0.0
  9
$DIMDLE
 40
0.0
  9
$DIMEXE
 40
0.0393700787
  9
$DIMTP
 40
0.0
  9
$DIMTM
 40
0.0
  9
$DIMTXT
 40
0.1377952756
  9
$DIMCEN
 40
0.09
  9
$DIMTSZ
 40
0.0
  9
$DIMTOL
 70
     0
  9
$DIMLIM
 70
     0
  9
$DIMTIH
 70
     1
  9
$DIMTOH
 70
     1
  9
$DIMSE1
 70
     0
  9
$DIMSE2
 70
     0
  9
$DIMTAD
 70
     1
  9
$DIMZIN
 70
     0
  9
$DIMBLK
  1

  9
$DIMASO
 70
     1
  9
$DIMSHO
 70
     1
  9
$DIMPOST
  1

  9
$DIMAPOST
  1

  9
$DIMALT
 70
     0
  9
$DIMALTD
 70
     2
  9
$DIMALTF
 40
25.4
  9
$DIMLFAC
 40
1.0
  9
$DIMTOFL
 70
     0
  9
$DIMTVP
 40
0.0
  9
$DIMTIX
 70
     0
  9
$DIMSOXD
 70
     0
  9
$DIMSAH
 70
     0
  9
$DIMBLK1
  1

  9
$DIMBLK2
  1

  9
$DIMSTYLE
  2
STANDARD
  9
$DIMCLRD
 70
     0
  9
$DIMCLRE
 70
     0
  9
$DIMCLRT
 70
     0
  9
$DIMTFAC
 40
1.0
  9
$DIMGAP
 40
0.06
  9
$DIMJUST
 70
     0
  9
$DIMSD1
 70
     0
  9
$DIMSD2
 70
     0
  9
$DIMTOLJ
 70
     1
  9
$DIMTZIN
 70
     0
  9
$DIMALTZ
 70
     0
  9
$DIMALTTZ
 70
     0
  9
$DIMFIT
 70
     3
  9
$DIMUPT
 70
     0
  9
$DIMUNIT
 70
     2
  9
$DIMDEC
 70
     3
  9
$DIMTDEC
 70
     3
  9
$DIMALTU
 70
     2
  9
$DIMALTTD
 70
     2
  9
$DIMTXSTY
  7
STANDARD
  9
$DIMAUNIT
 70
     0
  9
$LUNITS
 70
     2
  9
$LUPREC
 70
     2
  9
$SKETCHINC
 40
0.1
  9
$FILLETRAD
 40
0.5
  9
$AUNITS
 70
     0
  9
$AUPREC
 70
     2
  9
$MENU
  1
.
  9
$ELEVATION
 40
0.0
  9
$PELEVATION
 40
0.0
  9
$THICKNESS
 40
0.0
  9
$LIMCHECK
 70
     0
  9
$CHAMFERA
 40
0.5
  9
$CHAMFERB
 40
0.5
  9
$CHAMFERC
 40
1.0
  9
$CHAMFERD
 40
0.0
  9
$SKPOLY
 70
     0
  9
$TDCREATE
 40
2456229.644407789
  9
$TDUPDATE
 40
2456229.644407801
  9
$TDINDWG
 40
0.0000000116
  9
$TDUSRTIMER
 40
0.0000000116
  9
$USRTIMER
 70
     1
  9
$ANGBASE
 50
0.0
  9
$ANGDIR
 70
     0
  9
$PDMODE
 70
     0
  9
$PDSIZE
 40
-1.0
  9
$PLINEWID
 40
0.0
  9
$COORDS
 70
     1
  9
$SPLFRAME
 70
     0
  9
$SPLINETYPE
 70
     6
  9
$SPLINESEGS
 70
     8
  9
$ATTDIA
 70
     0
  9
$ATTREQ
 70
     1
  9
$HANDLING
 70
     1
  9
$HANDSEED
  5
37B
  9
$SURFTAB1
 70
     6
  9
$SURFTAB2
 70
     6
  9
$SURFTYPE
 70
     6
  9
$SURFU
 70
     6
  9
$SURFV
 70
     6
  9
$UCSNAME
  2

  9
$UCSORG
 10
0.0
 20
0.0
 30
0.0
  9
$UCSXDIR
 10
1.0
 20
0.0
 30
0.0
  9
$UCSYDIR
 10
0.0
 20
1.0
 30
0.0
  9
$PUCSNAME
  2

  9
$PUCSORG
 10
0.0
 20
0.0
 30
0.0
  9
$PUCSXDIR
 10
1.0
 20
0.0
 30
0.0
  9
$PUCSYDIR
 10
0.0
 20
1.0
 30
0.0
  9
$USERI1
 70
     0
  9
$USERI2
 70
     0
  9
$USERI3
 70
     0
  9
$USERI4
 70
     0
  9
$USERI5
 70
     0
  9
$USERR1
 40
0.0
  9
$USERR2
 40
0.0
  9
$USERR3
 40
0.0
  9
$USERR4
 40
0.0
  9
$USERR5
 40
0.0
  9
$WORLDVIEW
 70
     1
  9
$SHADEDGE
 70
     3
  9
$SHADEDIF
 70
    70
  9
$TILEMODE
 70
     1
  9
$MAXACTVP
 70
    64
  9
$PINSBASE
 10
0.0
 20
0.0
 30
0.0
  9
$PLIMCHECK
 70
     0
  9
$PEXTMIN
 10
1.0000000000E+20
 20
1.0000000000E+20
 30
1.0000000000E+20
  9
$PEXTMAX
 10
-1.0000000000E+20
 20
-1.0000000000E+20
 30
-1.0000000000E+20
  9
$PLIMMIN
 10
0.0
 20
0.0
  9
$PLIMMAX
 10
12.0
 20
9.0
  9
$UNITMODE
 70
     0
  9
$VISRETAIN
 70
     1
  9
$PLINEGEN
 70
     0
  9
$PSLTSCALE
 70
     1
  9
$TREEDEPTH
 70
  3020
  9
$PICKSTYLE
 70
     1
  9
$CMLSTYLE
  2
STANDARD
  9
$CMLJUST
 70
     0
  9
$CMLSCALE
 40
1.0
  9
$SAVEIMAGES
 70
     1
  0
ENDSEC
  0
SECTION
  2
CLASSES
  0
CLASS
  1
ACDBDICTIONARYWDFLT
  2
AcDbDictionaryWithDefault
  3
ObjectDBX Classes
 90
    32768
280
     0
281
     0
  0
CLASS
  1
VISUALSTYLE
  2
AcDbVisualStyle
  3
ObjectDBX Classes
 90
     4095
280
     0
281
     0
  0
CLASS
  1
MATERIAL
  2
AcDbMaterial
  3
ObjectDBX Classes
 90
     1153
280
     0
281
     0
  0
CLASS
  1
XRECORD
  2
AcDbXrecord
  3
AutoCAD 2000
 90
    32768
280
     0
281
     0
  0
ENDSEC
  0
SECTION
  2
TABLES
  0
TABLE
  2
VPORT
  5
8
330
0
100
AcDbSymbolTable
 70
     1
  0
VPORT
  5
29
330
8
100
AcDbSymbolTableRecord
100
AcDbViewportTableRecord
  2
*ACTIVE
 70
     0
 10
0.0
 20
0.0
 11
1.0
 21
1.0
 12
30.0
 22
30.0
 13
0.0
 23
0.0
 14
0.5
 24
0.5
 15
0.5
 25
0.5
 16
0.0
 26
0.0
 36
1.0
 17
0.0
 27
0.0
 37
0.0
 40
60.0
 41
1.0
 42
50.0
 43
0.0
 44
0.0
 50
0.0
 51
0.0
 71
     0
 72
  2000
 73
     1
 74
     3
 75
     0
 76
     0
 77
     0
 78
     0
  0
ENDTAB
  0
TABLE
  2
LTYPE
  5
5
330
0
100
AcDbSymbolTable
 70
     6
  0
LTYPE
  5
14
330
5
100
AcDbSymbolTableRecord
100
AcDbLinetypeTableRecord
  2
BYBLOCK
 70
     0
  3

 72
    65
 73
     0
 40
0.0
  0
LTYPE
  5
15
330
5
100
AcDbSymbolTableRecord
100
AcDbLinetypeTableRecord
  2
BYLAYER
 70
     0
  3

 72
    65
 73
     0
 40
0.0
  0
LTYPE
  5
16
330
5
100
AcDbSymbolTableRecord
100
AcDbLinetypeTableRecord
  2
CONTINUOUS
 70
     0
  3
Solid line
 72
    65
 73
     0
 40
0.0
  0
LTYPE
  5
3F
330
5
100
AcDbSymbolTableRecord
100
AcDbLinetypeTableRecord
  2
HIDDEN
 70
     0
  3
Hidden __ __ __ __ __ __ __ __ __ __ __ __ __ __
 72
    65
 73
     2
 40
0.075
 49
0.05
 74
     0
 49
-0.025
 74
     0
  0
LTYPE
  5
40
330
5
100
AcDbSymbolTableRecord
100
AcDbLinetypeTableRecord
  2
PHANTOM
 70
     0
  3
Phantom ______  __  __  ______  __  __  ______
 72
    65
 73
     6
 40
0.5
 49
0.25
 74
     0
 49
-0.05
 74
     0
 49
0.05
 74
     0
 49
-0.05
 74
     0
 49
0.05
 74
     0
 49
-0.05
 74
     0
  0
LTYPE
  5
41
330
5
100
AcDbSymbolTableRecord
100
AcDbLinetypeTableRecord
  2
CENTER
 70
     0
  3
Center ____ _ ____ _ ____ _ ____ _ ____ _ ____
 72
    65
 73
     4
 40
0.4
 49
0.25
 74
     0
 49
-0.05
 74
     0
 49
0.05
 74
     0
 49
-0.05
 74
     0
  0
LTYPE
  5
42
330
5
100
AcDbSymbolTableRecord
100
AcDbLinetypeTableRecord
  2
CENTERX2
 70
     0
  3
Center (2x) ________  __  ________  __  _____
 72
    65
 73
     4
 40
0.8
 49
0.5
 74
     0
 49
-0.1
 74
     0
 49
0.1
 74
     0
 49
-0.1
 74
     0
  0
LTYPE
  5
43
330
5
100
AcDbSymbolTableRecord
100
AcDbLinetypeTableRecord
  2
DOT2
 70
     0
  3
Dot (.5x) ........................................
 72
    65
 73
     2
 40
0.025
 49
0.0
 74
     0
 49
-0.025
 74
     0
  0
ENDTAB
  0
TABLE
  2
LAYER
  5
2
330
0
100
AcDbSymbolTable
 70
     1
  0
LAYER
  5
10
330
2
100
AcDbSymbolTableRecord
100
AcDbLayerTableRecord
  2
0
 70
     0
 62
     7
  6
CONTINUOUS
  0
ENDTAB
  0
TABLE
  2
STYLE
  5
3
330
0
100
AcDbSymbolTable
 70
     2
  0
STYLE
  5
11
330
3
100
AcDbSymbolTableRecord
100
AcDbTextStyleTableRecord
  2
STANDARD
 70
     0
 40
0.0
 41
1.0
 50
0.0
 71
     0
 42
0.2
  3
txt
  4

  0
STYLE
  5
47
330
3
100
AcDbSymbolTableRecord
100
AcDbTextStyleTableRecord
  2
SLDTEXTSTYLE0
 70
     0
 40
0.0
 41
0.75
 50
0.0
 71
     0
 42
0.2
  3
TXT
  4

  0
ENDTAB
  0
TABLE
  2
VIEW
  5
6
330
0
100
AcDbSymbolTable
 70
     0
  0
ENDTAB
  0
TABLE
  2
UCS
  5
7
330
0
100
AcDbSymbolTable
 70
     0
  0
ENDTAB
  0
TABLE
  2
APPID
  5
9
330
0
100
AcDbSymbolTable
 70
     1
  0
APPID
  5
12
330
9
100
AcDbSymbolTableRecord
100
AcDbRegAppTableRecord
  2
ACAD
 70
     0
  0
ENDTAB
  0
TABLE
  2
DIMSTYLE
  5
A
330
0
100
AcDbSymbolTable
 70
     4
  0
DIMSTYLE
105
27
330
A
100
AcDbSymbolTableRecord
100
AcDbDimStyleTableRecord
  2
STANDARD
 70
     0
  3

  4

  5

  6

  7

 40
1.0
 41
0.18
 42
0.0625
 43
0.38
 44
0.18
 45
0.0
 46
0.0
 47
0.0
 48
0.0
140
0.18
141
0.09
142
0.0
143
25.4
144
1.0
145
0.0
146
1.0
147
0.09
 71
     0
 72
     0
 73
     1
 74
     1
 75
     0
 76
     0
 77
     0
 78
     0
170
     0
171
     2
172
     0
173
     0
174
     0
175
     0
176
     0
177
     0
178
     0
270
     2
271
     4
272
     4
273
     2
274
     2
340
11
275
     0
280
     0
281
     0
282
     0
283
     1
284
     0
285
     0
286
     0
287
     3
288
     0
  0
DIMSTYLE
105
11A
102
{ACAD_REACTORS
330
119
330
2D6
102
}
330
A
100
AcDbSymbolTableRecord
100
AcDbDimStyleTableRecord
  2
SLDDIMSTYLE0
 70
     0
  3

  4

  5

  6

  7

 40
1.0
 41
0.13
 42
0.0625
 43
0.38
 44
0.0
 45
0.000000001
 46
0.0
 47
0.0
 48
0.0
140
0.1377952756
141
0.09
142
0.0
143
25.4
144
1.0
145
0.0
146
1.0
147
0.0344488189
 71
     0
 72
     0
 73
     0
 74
     0
 75
     0
 76
     0
 77
     1
 78
     4
170
     0
171
     2
172
     1
173
     1
174
     0
175
     0
176
     0
177
     0
178
     0
270
     2
271
     2
272
     2
273
     2
274
     2
340
47
275
     0
280
     0
281
     0
282
     0
283
     1
284
    12
285
     0
286
     0
288
     0
  0
DIMSTYLE
105
216
102
{ACAD_REACTORS
330
215
330
2CC
102
}
330
A
100
AcDbSymbolTableRecord
100
AcDbDimStyleTableRecord
  2
SLDDIMSTYLE1
 70
     0
  3

  4

  5

  6

  7

 40
1.0
 41
0.13
 42
0.0625
 43
0.38
 44
0.0
 45
0.000000001
 46
0.0
 47
0.0
 48
0.0
140
0.1377952756
141
0.09
142
0.0
143
25.4
144
1.0
145
0.0
146
1.0
147
0.0344488189
 71
     0
 72
     0
 73
     0
 74
     0
 75
     0
 76
     0
 77
     1
 78
     4
170
     0
171
     2
172
     0
173
     1
174
     0
175
     0
176
     0
177
     0
178
     0
270
     2
271
     2
272
     2
273
     2
274
     2
340
47
275
     0
280
     0
281
     0
282
     0
283
     1
284
    12
285
     0
286
     0
287
     3
288
     0
  0
DIMSTYLE
105
35F
330
A
100
AcDbSymbolTableRecord
100
AcDbDimStyleTableRecord
  2
SLDDIMSTYLE2
 70
     0
  3

  4

  5

  6
DOT
  7
DOT
 40
1.0
 41
0.04
 42
0.0625
 43
0.38
 44
0.0
 45
0.000000001
 46
0.0
 47
0.0
 48
0.0
140
0.0
141
0.09
142
0.0
143
25.4
144
1.0
145
0.0
146
0.04
147
0.0
 71
     0
 72
     0
 73
     1
 74
     1
 75
     0
 76
     0
 77
     0
 78
     0
170
     0
171
     2
172
     0
173
     1
174
     0
175
     0
176
     0
177
     0
178
     0
270
     2
271
     0
272
     0
273
     2
274
     2
340
11
275
     0
280
     0
281
     0
282
     0
283
     1
284
     0
285
     0
286
     0
287
     3
288
     0
  0
ENDTAB
  0
TABLE
  2
BLOCK_RECORD
  5
1
330
0
100
AcDbSymbolTable
 70
    29
  0
BLOCK_RECORD
  5
1F
330
1
100
AcDbSymbolTableRecord
100
AcDbBlockTableRecord
  2
*MODEL_SPACE
  0
BLOCK_RECORD
  5
1B
330
1
100
AcDbSymbolTableRecord
100
AcDbBlockTableRecord
  2
*PAPER_SPACE
  0
BLOCK_RECORD
  5
23
330
1
100
AcDbSymbolTableRecord
100
AcDbBlockTableRecord
  2
*PAPER_SPACE0
  0
BLOCK_RECORD
  5
44
330
1
100
AcDbSymbolTableRecord
100
AcDbBlockTableRecord
  2
SW_NOTE_0
  0
BLOCK_RECORD
  5
58
330
1
100
AcDbSymbolTableRecord
100
AcDbBlockTableRecord
  2
SW_HATCH_0
  0
BLOCK_RECORD
  5
62
330
1
100
AcDbSymbolTableRecord
100
AcDbBlockTableRecord
  2
SW_NOTE_1
  0
BLOCK_RECORD
  5
8D
330
1
100
AcDbSymbolTableRecord
100
AcDbBlockTableRecord
  2
SW_NOTE_2
  0
BLOCK_RECORD
  5
AD
330
1
100
AcDbSymbolTableRecord
100
AcDbBlockTableRecord
  2
SW_HATCH_1
  0
BLOCK_RECORD
  5
D3
330
1
100
AcDbSymbolTableRecord
100
AcDbBlockTableRecord
  2
SW_HATCH_2
  0
BLOCK_RECORD
  5
DD
330
1
100
AcDbSymbolTableRecord
100
AcDbBlockTableRecord
  2
SW_NOTE_3
  0
BLOCK_RECORD
  5
E4
330
1
100
AcDbSymbolTableRecord
100
AcDbBlockTableRecord
  2
SW_NOTE_4
  0
BLOCK_RECORD
  5
10F
330
1
100
AcDbSymbolTableRecord
100
AcDbBlockTableRecord
  2
SW_HATCH_3
  0
BLOCK_RECORD
  5
11B
330
1
100
AcDbSymbolTableRecord
100
AcDbBlockTableRecord
  2
*D10
  0
BLOCK_RECORD
  5
126
330
1
100
AcDbSymbolTableRecord
100
AcDbBlockTableRecord
  2
SW_NOTE_5
  0
BLOCK_RECORD
  5
17D
330
1
100
AcDbSymbolTableRecord
100
AcDbBlockTableRecord
  2
SW_HATCH_4
  0
BLOCK_RECORD
  5
1AB
330
1
100
AcDbSymbolTableRecord
100
AcDbBlockTableRecord
  2
SW_NOTE_6
  0
BLOCK_RECORD
  5
1BC
330
1
100
AcDbSymbolTableRecord
100
AcDbBlockTableRecord
  2
SW_HATCH_5
  0
BLOCK_RECORD
  5
1C6
330
1
100
AcDbSymbolTableRecord
100
AcDbBlockTableRecord
  2
SW_NOTE_7
  0
BLOCK_RECORD
  5
1F1
330
1
100
AcDbSymbolTableRecord
100
AcDbBlockTableRecord
  2
SW_HATCH_6
  0
BLOCK_RECORD
  5
217
330
1
100
AcDbSymbolTableRecord
100
AcDbBlockTableRecord
  2
*D17
  0
BLOCK_RECORD
  5
23A
330
1
100
AcDbSymbolTableRecord
100
AcDbBlockTableRecord
  2
SW_HATCH_7
  0
BLOCK_RECORD
  5
29A
330
1
100
AcDbSymbolTableRecord
100
AcDbBlockTableRecord
  2
SW_HATCH_8
  0
BLOCK_RECORD
  5
2CD
330
1
100
AcDbSymbolTableRecord
100
AcDbBlockTableRecord
  2
*D20
  0
BLOCK_RECORD
  5
2D7
330
1
100
AcDbSymbolTableRecord
100
AcDbBlockTableRecord
  2
*D21
  0
BLOCK_RECORD
  5
2E2
330
1
100
AcDbSymbolTableRecord
100
AcDbBlockTableRecord
  2
SW_NOTE_8
  0
BLOCK_RECORD
  5
2E9
330
1
100
AcDbSymbolTableRecord
100
AcDbBlockTableRecord
  2
SW_NOTE_9
  0
BLOCK_RECORD
  5
316
330
1
100
AcDbSymbolTableRecord
100
AcDbBlockTableRecord
  2
SW_HATCH_9
  0
BLOCK_RECORD
  5
354
330
1
100
AcDbSymbolTableRecord
100
AcDbBlockTableRecord
  2
SW_NOTE_10
  0
BLOCK_RECORD
  5
360
330
1
100
AcDbSymbolTableRecord
100
AcDbBlockTableRecord
  2
_DOT
  0
BLOCK_RECORD
  5
369
330
1
100
AcDbSymbolTableRecord
100
AcDbBlockTableRecord
  2
SW_NOTE_11
  0
BLOCK_RECORD
  5
375
330
1
100
AcDbSymbolTableRecord
100
AcDbBlockTableRecord
  2
SW_NOTE_12
  0
ENDTAB
  0
ENDSEC
  0
SECTION
  2
BLOCKS
  0
BLOCK
  5
20
330
1F
100
AcDbEntity
  8
0
100
AcDbBlockBegin
  2
*MODEL_SPACE
 70
     0
 10
0.0
 20
0.0
 30
0.0
  3
*MODEL_SPACE
  1

  0
ENDBLK
  5
21
330
1F
100
AcDbEntity
  8
0
100
AcDbBlockEnd
  0
BLOCK
  5
1C
330
1B
100
AcDbEntity
 67
     1
  8
0
100
AcDbBlockBegin
  2
*PAPER_SPACE
 70
     0
 10
0.0
 20
0.0
 30
0.0
  3
*PAPER_SPACE
  1

  0
ENDBLK
  5
1D
330
1B
100
AcDbEntity
 67
     1
  8
0
100
AcDbBlockEnd
  0
BLOCK
  5
24
330
23
100
AcDbEntity
  8
0
100
AcDbBlockBegin
  2
*PAPER_SPACE0
 70
     0
 10
0.0
 20
0.0
 30
0.0
  3
*PAPER_SPACE0
  1

  0
ENDBLK
  5
25
330
23
100
AcDbEntity
  8
0
100
AcDbBlockEnd
  0
BLOCK
  5
45
330
44
100
AcDbEntity
  8
0
100
AcDbBlockBegin
  2
SW_NOTE_0
 70
     0
 10
0.0
 20
0.0
 30
0.0
  3
SW_NOTE_0
  1

  0
MTEXT
  5
48
330
44
100
AcDbEntity
  8
0
  6
CONTINUOUS
 62
     0
100
AcDbMText
 10
0.0
 20
0.4834004024
 30
0.0
 40
0.375
 41
0.0
 71
     1
 72
     1
  1
Leg Inner
  7
SLDTEXTSTYLE0
  0
MTEXT
  5
49
330
44
100
AcDbEntity
  8
0
  6
CONTINUOUS
 62
     0
100
AcDbMText
 10
0.0
 20
-0.0165995915
 30
0.0
 40
0.375
 41
0.0
 71
     1
 72
     1
  1
QTY: 4
  7
SLDTEXTSTYLE0
  0
MTEXT
  5
4A
330
44
100
AcDbEntity
  8
0
  6
CONTINUOUS
 62
     0
100
AcDbMText
 10
0.0
 20
-0.5165995855
 30
0.0
 40
0.375
 41
0.0
 71
     1
 72
     1
  1
Hatching Depth
  7
SLDTEXTSTYLE0
  0
MTEXT
  5
4B
330
44
100
AcDbEntity
  8
0
  6
CONTINUOUS
 62
     0
100
AcDbMText
 10
0.0
 20
-1.0165995795
 30
0.0
 40
0.375
 41
0.0
 71
     1
 72
     1
  1
0.375"
  7
SLDTEXTSTYLE0
  0
ENDBLK
  5
46
330
44
100
AcDbEntity
  8
0
100
AcDbBlockEnd
  0
BLOCK
  5
59
330
58
100
AcDbEntity
  8
0
100
AcDbBlockBegin
  2
SW_HATCH_0
 70
     0
 10
0.0
 20
0.0
 30
0.0
  3
SW_HATCH_0
  1

  0
LINE
  5
5B
330
58
100
AcDbEntity
  8
0
  6
CONTINUOUS
 62
     0
100
AcDbLine
 10
0.0
 20
0.0
 30
0.0
 11
-0.1899390098
 21
-0.1899390098
 31
0.0
  0
LINE
  5
5C
330
58
100
AcDbEntity
  8
0
  6
CONTINUOUS
 62
     0
100
AcDbLine
 10
0.1259371453
 20
-0.05083955
 30
0.0
 11
-0.1390994598
 21
-0.3158761551
 31
0.0
  0
LINE
  5
5D
330
58
100
AcDbEntity
  8
0
  6
CONTINUOUS
 62
     0
100
AcDbLine
 10
0.1841692643
 20
-0.1693841263
 30
0.0
 11
-0.0205548835
 21
-0.3741082741
 31
0.0
  0
LINE
  5
5E
330
58
100
AcDbEntity
  8
0
  6
CONTINUOUS
 62
     0
100
AcDbLine
 10
0.0156447163
 20
-26.5008595782
 30
0.0
 11
-0.1890794315
 21
-26.705583726
 31
0.0
  0
LINE
  5
5F
330
58
100
AcDbEntity
  8
0
  6
CONTINUOUS
 62
     0
100
AcDbLine
 10
0.1341892926
 20
-26.5590916972
 30
0.0
 11
-0.1308473126
 21
-26.8241283023
 31
0.0
  0
LINE
  5
60
330
58
100
AcDbEntity
  8
0
  6
CONTINUOUS
 62
     0
100
AcDbLine
 10
0.1850288425
 20
-26.6850288425
 30
0.0
 11
-0.0049101672
 21
-26.8749678523
 31
0.0
  0
ENDBLK
  5
5A
330
58
100
AcDbEntity
  8
0
100
AcDbBlockEnd
  0
BLOCK
  5
63
330
62
100
AcDbEntity
  8
0
100
AcDbBlockBegin
  2
SW_NOTE_1
 70
     0
 10
0.0
 20
0.0
 30
0.0
  3
SW_NOTE_1
  1

  0
MTEXT
  5
65
330
62
100
AcDbEntity
  8
0
  6
CONTINUOUS
 62
     0
100
AcDbMText
 10
0.0
 20
0.4834004024
 30
0.0
 40
0.375
 41
0.0
 71
     1
 72
     1
  1
Leg Outer
  7
SLDTEXTSTYLE0
  0
MTEXT
  5
66
330
62
100
AcDbEntity
  8
0
  6
CONTINUOUS
 62
     0
100
AcDbMText
 10
0.0
 20
-0.0165995915
 30
0.0
 40
0.375
 41
0.0
 71
     1
 72
     1
  1
QTY: 4
  7
SLDTEXTSTYLE0
  0
MTEXT
  5
67
330
62
100
AcDbEntity
  8
0
  6
CONTINUOUS
 62
     0
100
AcDbMText
 10
0.0
 20
-0.5165995855
 30
0.0
 40
0.375
 41
0.0
 71
     1
 72
     1
  1
Hatching depth
  7
SLDTEXTSTYLE0
  0
MTEXT
  5
68
330
62
100
AcDbEntity
  8
0
  6
CONTINUOUS
 62
     0
100
AcDbMText
 10
0.0
 20
-1.0165995795
 30
0.0
 40
0.375
 41
0.0
 71
     1
 72
     1
  1
0.375"
  7
SLDTEXTSTYLE0
  0
ENDBLK
  5
64
330
62
100
AcDbEntity
  8
0
100
AcDbBlockEnd
  0
BLOCK
  5
8E
330
8D
100
AcDbEntity
  8
0
100
AcDbBlockBegin
  2
SW_NOTE_2
 70
     0
 10
0.0
 20
0.0
 30
0.0
  3
SW_NOTE_2
  1

  0
MTEXT
  5
90
330
8D
100
AcDbEntity
  8
0
  6
CONTINUOUS
 62
     0
100
AcDbMText
 10
0.0
 20
0.4834004024
 30
0.0
 40
0.375
 41
0.0
 71
     1
 72
     1
  1
Leg Middle
  7
SLDTEXTSTYLE0
  0
MTEXT
  5
91
330
8D
100
AcDbEntity
  8
0
  6
CONTINUOUS
 62
     0
100
AcDbMText
 10
0.0
 20
-0.0165995915
 30
0.0
 40
0.375
 41
0.0
 71
     1
 72
     1
  1
QTY: 16
  7
SLDTEXTSTYLE0
  0
ENDBLK
  5
8F
330
8D
100
AcDbEntity
  8
0
100
AcDbBlockEnd
  0
BLOCK
  5
AE
330
AD
100
AcDbEntity
  8
0
100
AcDbBlockBegin
  2
SW_HATCH_1
 70
     0
 10
0.0
 20
0.0
 30
0.0
  3
SW_HATCH_1
  1

  0
LINE
  5
B0
330
AD
100
AcDbEntity
  8
0
  6
CONTINUOUS
 62
     0
100
AcDbLine
 10
0.0
 20
0.0
 30
0.0
 11
-0.1899390098
 21
-0.1899390098
 31
0.0
  0
LINE
  5
B1
330
AD
100
AcDbEntity
  8
0
  6
CONTINUOUS
 62
     0
100
AcDbLine
 10
0.1259371453
 20
-0.05083955
 30
0.0
 11
-0.1390994598
 21
-0.3158761551
 31
0.0
  0
LINE
  5
B2
330
AD
100
AcDbEntity
  8
0
  6
CONTINUOUS
 62
     0
100
AcDbLine
 10
0.1841692643
 20
-0.1693841263
 30
0.0
 11
-0.0205548835
 21
-0.3741082741
 31
0.0
  0
LINE
  5
B3
330
AD
100
AcDbEntity
  8
0
  6
CONTINUOUS
 62
     0
100
AcDbLine
 10
0.0156447163
 20
-26.5008595782
 30
0.0
 11
-0.1890794315
 21
-26.705583726
 31
0.0
  0
LINE
  5
B4
330
AD
100
AcDbEntity
  8
0
  6
CONTINUOUS
 62
     0
100
AcDbLine
 10
0.1341892926
 20
-26.5590916972
 30
0.0
 11
-0.1308473126
 21
-26.8241283023
 31
0.0
  0
LINE
  5
B5
330
AD
100
AcDbEntity
  8
0
  6
CONTINUOUS
 62
     0
100
AcDbLine
 10
0.1850288425
 20
-26.6850288425
 30
0.0
 11
-0.0049101672
 21
-26.8749678523
 31
0.0
  0
ENDBLK
  5
AF
330
AD
100
AcDbEntity
  8
0
100
AcDbBlockEnd
  0
BLOCK
  5
D4
330
D3
100
AcDbEntity
  8
0
100
AcDbBlockBegin
  2
SW_HATCH_2
 70
     0
 10
0.0
 20
0.0
 30
0.0
  3
SW_HATCH_2
  1

  0
LINE
  5
D6
330
D3
100
AcDbEntity
  8
0
  6
CONTINUOUS
 62
     0
100
AcDbLine
 10
0.0
 20
0.0
 30
0.0
 11
-0.1931589553
 21
-0.1931589553
 31
0.0
  0
LINE
  5
D7
330
D3
100
AcDbEntity
  8
0
  6
CONTINUOUS
 62
     0
100
AcDbLine
 10
0.124368862
 20
-0.0524078333
 30
0.0
 11
-0.140751122
 21
-0.3175278173
 31
0.0
  0
LINE
  5
D8
330
D3
100
AcDbEntity
  8
0
  6
CONTINUOUS
 62
     0
100
AcDbLine
 10
0.1811512045
 20
-0.1724021861
 30
0.0
 11
-0.0207567692
 21
-0.3743101598
 31
0.0
  0
LINE
  5
D9
330
D3
100
AcDbEntity
  8
0
  6
CONTINUOUS
 62
     0
100
AcDbLine
 10
18.3842626646
 20
-0.0005136462
 30
0.0
 11
18.1823546909
 21
-0.2024216199
 31
0.0
  0
LINE
  5
DA
330
D3
100
AcDbEntity
  8
0
  6
CONTINUOUS
 62
     0
100
AcDbLine
 10
18.5042570174
 20
-0.0572959887
 30
0.0
 11
18.2391370334
 21
-0.3224159727
 31
0.0
  0
LINE
  5
DB
330
D3
100
AcDbEntity
  8
0
  6
CONTINUOUS
 62
     0
100
AcDbLine
 10
18.5566648507
 20
-0.1816648507
 30
0.0
 11
18.3635058954
 21
-0.374823806
 31
0.0
  0
ENDBLK
  5
D5
330
D3
100
AcDbEntity
  8
0
100
AcDbBlockEnd
  0
BLOCK
  5
DE
330
DD
100
AcDbEntity
  8
0
100
AcDbBlockBegin
  2
SW_NOTE_3
 70
     0
 10
0.0
 20
0.0
 30
0.0
  3
SW_NOTE_3
  1

  0
MTEXT
  5
E0
330
DD
100
AcDbEntity
  8
0
  6
CONTINUOUS
 62
     0
100
AcDbMText
 10
0.0
 20
0.4834004024
 30
0.0
 40
0.375
 41
0.0
 71
     1
 72
     1
  1
CrossBrace Upper Middle
  7
SLDTEXTSTYLE0
  0
MTEXT
  5
E1
330
DD
100
AcDbEntity
  8
0
  6
CONTINUOUS
 62
     0
100
AcDbMText
 10
0.0
 20
-0.0165995915
 30
0.0
 40
0.375
 41
0.0
 71
     1
 72
     1
  1
QTY: 4
  7
SLDTEXTSTYLE0
  0
MTEXT
  5
E2
330
DD
100
AcDbEntity
  8
0
  6
CONTINUOUS
 62
     0
100
AcDbMText
 10
0.0
 20
-0.5165995855
 30
0.0
 40
0.375
 41
0.0
 71
     1
 72
     1
  1
Hatching Depth 0.300"
  7
SLDTEXTSTYLE0
  0
ENDBLK
  5
DF
330
DD
100
AcDbEntity
  8
0
100
AcDbBlockEnd
  0
BLOCK
  5
E5
330
E4
100
AcDbEntity
  8
0
100
AcDbBlockBegin
  2
SW_NOTE_4
 70
     0
 10
0.0
 20
0.0
 30
0.0
  3
SW_NOTE_4
  1

  0
MTEXT
  5
E7
330
E4
100
AcDbEntity
  8
0
  6
CONTINUOUS
 62
     0
100
AcDbMText
 10
0.0
 20
0.4834004024
 30
0.0
 40
0.375
 41
0.0
 71
     1
 72
     1
  1
CrossBrace Lower Outer
  7
SLDTEXTSTYLE0
  0
MTEXT
  5
E8
330
E4
100
AcDbEntity
  8
0
  6
CONTINUOUS
 62
     0
100
AcDbMText
 10
0.0
 20
-0.0165995915
 30
0.0
 40
0.375
 41
0.0
 71
     1
 72
     1
  1
QTY: 2
  7
SLDTEXTSTYLE0
  0
MTEXT
  5
E9
330
E4
100
AcDbEntity
  8
0
  6
CONTINUOUS
 62
     0
100
AcDbMText
 10
0.0
 20
-0.5165995855
 30
0.0
 40
0.375
 41
0.0
 71
     1
 72
     1
  1
Hatching Depth 0.375:
  7
SLDTEXTSTYLE0
  0
ENDBLK
  5
E6
330
E4
100
AcDbEntity
  8
0
100
AcDbBlockEnd
  0
BLOCK
  5
110
330
10F
100
AcDbEntity
  8
0
100
AcDbBlockBegin
  2
SW_HATCH_3
 70
     0
 10
0.0
 20
0.0
 30
0.0
  3
SW_HATCH_3
  1

  0
LINE
  5
112
330
10F
100
AcDbEntity
  8
0
  6
CONTINUOUS
 62
     0
100
AcDbLine
 10
0.0
 20
0.0
 30
0.0
 11
-0.1931589553
 21
-0.1931589553
 31
0.0
  0
LINE
  5
113
330
10F
100
AcDbEntity
  8
0
  6
CONTINUOUS
 62
     0
100
AcDbLine
 10
0.124368862
 20
-0.0524078333
 30
0.0
 11
-0.140751122
 21
-0.3175278173
 31
0.0
  0
LINE
  5
114
330
10F
100
AcDbEntity
  8
0
  6
CONTINUOUS
 62
     0
100
AcDbLine
 10
0.1811512045
 20
-0.1724021861
 30
0.0
 11
-0.0207567692
 21
-0.3743101598
 31
0.0
  0
LINE
  5
115
330
10F
100
AcDbEntity
  8
0
  6
CONTINUOUS
 62
     0
100
AcDbLine
 10
18.3842626646
 20
-0.0005136462
 30
0.0
 11
18.1823546909
 21
-0.2024216199
 31
0.0
  0
LINE
  5
116
330
10F
100
AcDbEntity
  8
0
  6
CONTINUOUS
 62
     0
100
AcDbLine
 10
18.5042570174
 20
-0.0572959887
 30
0.0
 11
18.2391370334
 21
-0.3224159727
 31
0.0
  0
LINE
  5
117
330
10F
100
AcDbEntity
  8
0
  6
CONTINUOUS
 62
     0
100
AcDbLine
 10
18.5566648507
 20
-0.1816648507
 30
0.0
 11
18.3635058954
 21
-0.374823806
 31
0.0
  0
ENDBLK
  5
111
330
10F
100
AcDbEntity
  8
0
100
AcDbBlockEnd
  0
BLOCK
  5
11C
330
11B
100
AcDbEntity
  8
0
100
AcDbBlockBegin
  2
*D10
 70
     1
 10
0.0
 20
0.0
 30
0.0
  3
*D10
  1

  0
SOLID
  5
11E
330
11B
100
AcDbEntity
  8
0
  6
CONTINUOUS
 62
     7
100
AcDbTrace
 10
30.1973457186
 20
54.9848055022
 30
0.0
 11
30.1773457186
 21
54.8548055022
 31
0.0
 12
30.2173457186
 22
54.8548055022
 32
0.0
 13
30.2173457186
 23
54.8548055022
 33
0.0
  0
SOLID
  5
11F
330
11B
100
AcDbEntity
  8
0
  6
CONTINUOUS
 62
     7
100
AcDbTrace
 10
30.1973457186
 20
56.0048055022
 30
0.0
 11
30.2173457186
 21
56.1348055022
 31
0.0
 12
30.1773457186
 22
56.1348055022
 32
0.0
 13
30.1773457186
 23
56.1348055022
 33
0.0
  0
LINE
  5
120
330
11B
100
AcDbEntity
  8
0
  6
CONTINUOUS
 62
     7
100
AcDbLine
 10
29.133919251
 20
54.9848055022
 30
0.0
 11
30.2367157973
 21
54.9848055022
 31
0.0
  0
LINE
  5
121
330
11B
100
AcDbEntity
  8
0
  6
CONTINUOUS
 62
     7
100
AcDbLine
 10
29.133919251
 20
56.0048055022
 30
0.0
 11
30.2367157973
 21
56.0048055022
 31
0.0
  0
LINE
  5
122
330
11B
100
AcDbEntity
  8
0
  6
CONTINUOUS
 62
     7
100
AcDbLine
 10
30.1973457186
 20
54.9848055022
 30
0.0
 11
30.1973457186
 21
54.7348055022
 31
0.0
  0
LINE
  5
123
330
11B
100
AcDbEntity
  8
0
  6
CONTINUOUS
 62
     7
100
AcDbLine
 10
30.1973457186
 20
54.9848055022
 30
0.0
 11
30.1973457186
 21
56.0048055022
 31
0.0
  0
LINE
  5
124
330
11B
100
AcDbEntity
  8
0
  6
CONTINUOUS
 62
     7
100
AcDbLine
 10
30.1973457186
 20
56.0048055022
 30
0.0
 11
30.1973457186
 21
56.2548055022
 31
0.0
  0
MTEXT
  5
125
330
11B
100
AcDbEntity
  8
0
  6
CONTINUOUS
 62
     7
100
AcDbMText
 10
30.019718281
 20
55.1817008136
 30
-0.3503937008
 40
0.1377952756
 41
0.0
 71
     1
 72
     1
  1
1.020
  7
SLDTEXTSTYLE0
 11
6.123233995736766E-17
 21
1.0
 31
0.0
  0
ENDBLK
  5
11D
330
11B
100
AcDbEntity
  8
0
100
AcDbBlockEnd
  0
BLOCK
  5
127
330
126
100
AcDbEntity
  8
0
100
AcDbBlockBegin
  2
SW_NOTE_5
 70
     0
 10
0.0
 20
0.0
 30
0.0
  3
SW_NOTE_5
  1

  0
MTEXT
  5
129
330
126
100
AcDbEntity
  8
0
  6
CONTINUOUS
 62
     0
100
AcDbMText
 10
0.0
 20
0.4834004024
 30
0.0
 40
0.375
 41
0.0
 71
     1
 72
     1
  1
CrossBrace Lower Inner
  7
SLDTEXTSTYLE0
  0
MTEXT
  5
12A
330
126
100
AcDbEntity
  8
0
  6
CONTINUOUS
 62
     0
100
AcDbMText
 10
0.0
 20
-0.0165995915
 30
0.0
 40
0.375
 41
0.0
 71
     1
 72
     1
  1
QTY: 2
  7
SLDTEXTSTYLE0
  0
MTEXT
  5
12B
330
126
100
AcDbEntity
  8
0
  6
CONTINUOUS
 62
     0
100
AcDbMText
 10
0.0
 20
-0.5165995855
 30
0.0
 40
0.375
 41
0.0
 71
     1
 72
     1
  1
Hatching Depth 0.375:
  7
SLDTEXTSTYLE0
  0
ENDBLK
  5
128
330
126
100
AcDbEntity
  8
0
100
AcDbBlockEnd
  0
BLOCK
  5
17E
330
17D
100
AcDbEntity
  8
0
100
AcDbBlockBegin
  2
SW_HATCH_4
 70
     0
 10
0.0
 20
0.0
 30
0.0
  3
SW_HATCH_4
  1

  0
LINE
  5
180
330
17D
100
AcDbEntity
  8
0
  6
CONTINUOUS
 62
     0
100
AcDbLine
 10
0.0
 20
0.0
 30
0.0
 11
-0.1716847198
 21
-0.1716847198
 31
0.0
  0
LINE
  5
181
330
17D
100
AcDbEntity
  8
0
  6
CONTINUOUS
 62
     0
100
AcDbLine
 10
0.1767766953
 20
0.0
 30
0.0
 11
-0.1716847198
 21
-0.3484614151
 31
0.0
  0
LINE
  5
182
330
17D
100
AcDbEntity
  8
0
  6
CONTINUOUS
 62
     0
100
AcDbLine
 10
0.3535533906
 20
0.0
 30
0.0
 11
-0.1564466094
 21
-0.51
 31
0.0
  0
LINE
  5
183
330
17D
100
AcDbEntity
  8
0
  6
CONTINUOUS
 62
     0
100
AcDbLine
 10
0.5303300859
 20
0.0
 30
0.0
 11
0.0203300859
 21
-0.51
 31
0.0
  0
LINE
  5
184
330
17D
100
AcDbEntity
  8
0
  6
CONTINUOUS
 62
     0
100
AcDbLine
 10
0.7071067812
 20
0.0
 30
0.0
 11
0.1971067812
 21
-0.51
 31
0.0
  0
LINE
  5
185
330
17D
100
AcDbEntity
  8
0
  6
CONTINUOUS
 62
     0
100
AcDbLine
 10
0.8838834765
 20
0.0
 30
0.0
 11
0.3738834765
 21
-0.51
 31
0.0
  0
LINE
  5
186
330
17D
100
AcDbEntity
  8
0
  6
CONTINUOUS
 62
     0
100
AcDbLine
 10
1.0606601718
 20
0.0
 30
0.0
 11
0.5506601718
 21
-0.51
 31
0.0
  0
LINE
  5
187
330
17D
100
AcDbEntity
  8
0
  6
CONTINUOUS
 62
     0
100
AcDbLine
 10
1.2374368671
 20
0.0
 30
0.0
 11
0.7274368671
 21
-0.51
 31
0.0
  0
LINE
  5
188
330
17D
100
AcDbEntity
  8
0
  6
CONTINUOUS
 62
     0
100
AcDbLine
 10
1.199611871
 20
-0.2146016913
 30
0.0
 11
0.9042135624
 21
-0.51
 31
0.0
  0
LINE
  5
189
330
17D
100
AcDbEntity
  8
0
  6
CONTINUOUS
 62
     0
100
AcDbLine
 10
1.2108657936
 20
-0.3801244641
 30
0.0
 11
1.0809902577
 21
-0.51
 31
0.0
  0
LINE
  5
18A
330
17D
100
AcDbEntity
  8
0
  6
CONTINUOUS
 62
     0
100
AcDbLine
 10
-0.1412427894
 20
-3.5
 30
0.0
 11
-0.1716847198
 21
-3.5304419305
 31
0.0
  0
LINE
  5
18B
330
17D
100
AcDbEntity
  8
0
  6
CONTINUOUS
 62
     0
100
AcDbLine
 10
0.0355339059
 20
-3.5
 30
0.0
 11
-0.1716847198
 21
-3.7072186258
 31
0.0
  0
LINE
  5
18C
330
17D
100
AcDbEntity
  8
0
  6
CONTINUOUS
 62
     0
100
AcDbLine
 10
0.2123106012
 20
-3.5
 30
0.0
 11
-0.1716847198
 21
-3.8839953211
 31
0.0
  0
LINE
  5
18D
330
17D
100
AcDbEntity
  8
0
  6
CONTINUOUS
 62
     0
100
AcDbLine
 10
0.3890872965
 20
-3.5
 30
0.0
 11
-0.1209127035
 21
-4.01
 31
0.0
  0
LINE
  5
18E
330
17D
100
AcDbEntity
  8
0
  6
CONTINUOUS
 62
     0
100
AcDbLine
 10
0.5658639918
 20
-3.5
 30
0.0
 11
0.0558639918
 21
-4.01
 31
0.0
  0
LINE
  5
18F
330
17D
100
AcDbEntity
  8
0
  6
CONTINUOUS
 62
     0
100
AcDbLine
 10
0.7426406871
 20
-3.5
 30
0.0
 11
0.2326406871
 21
-4.01
 31
0.0
  0
LINE
  5
190
330
17D
100
AcDbEntity
  8
0
  6
CONTINUOUS
 62
     0
100
AcDbLine
 10
0.9194173824
 20
-3.5
 30
0.0
 11
0.4094173824
 21
-4.01
 31
0.0
  0
LINE
  5
191
330
17D
100
AcDbEntity
  8
0
  6
CONTINUOUS
 62
     0
100
AcDbLine
 10
1.0961940777
 20
-3.5
 30
0.0
 11
0.5861940777
 21
-4.01
 31
0.0
  0
LINE
  5
192
330
17D
100
AcDbEntity
  8
0
  6
CONTINUOUS
 62
     0
100
AcDbLine
 10
1.237979734
 20
-3.534991039
 30
0.0
 11
0.762970773
 21
-4.01
 31
0.0
  0
LINE
  5
193
330
17D
100
AcDbEntity
  8
0
  6
CONTINUOUS
 62
     0
100
AcDbLine
 10
1.1983254405
 20
-3.7514220278
 30
0.0
 11
0.9397474683
 21
-4.01
 31
0.0
  0
LINE
  5
194
330
17D
100
AcDbEntity
  8
0
  6
CONTINUOUS
 62
     0
100
AcDbLine
 10
1.2174468876
 20
-3.909077276
 30
0.0
 11
1.1165241636
 21
-4.01
 31
0.0
  0
LINE
  5
195
330
17D
100
AcDbEntity
  8
0
  6
CONTINUOUS
 62
     0
100
AcDbLine
 10
18.9151063967
 20
0.0
 30
0.0
 11
18.8141836727
 21
-0.100922724
 31
0.0
  0
LINE
  5
196
330
17D
100
AcDbEntity
  8
0
  6
CONTINUOUS
 62
     0
100
AcDbLine
 10
19.091883092
 20
0.0
 30
0.0
 11
18.8333051199
 21
-0.2585779722
 31
0.0
  0
LINE
  5
197
330
17D
100
AcDbEntity
  8
0
  6
CONTINUOUS
 62
     0
100
AcDbLine
 10
19.2686597873
 20
0.0
 30
0.0
 11
18.7936508264
 21
-0.475008961
 31
0.0
  0
LINE
  5
198
330
17D
100
AcDbEntity
  8
0
  6
CONTINUOUS
 62
     0
100
AcDbLine
 10
19.4454364826
 20
0.0
 30
0.0
 11
18.9354364826
 21
-0.51
 31
0.0
  0
LINE
  5
199
330
17D
100
AcDbEntity
  8
0
  6
CONTINUOUS
 62
     0
100
AcDbLine
 10
19.6222131779
 20
0.0
 30
0.0
 11
19.1122131779
 21
-0.51
 31
0.0
  0
LINE
  5
19A
330
17D
100
AcDbEntity
  8
0
  6
CONTINUOUS
 62
     0
100
AcDbLine
 10
19.7989898732
 20
0.0
 30
0.0
 11
19.2889898732
 21
-0.51
 31
0.0
  0
LINE
  5
19B
330
17D
100
AcDbEntity
  8
0
  6
CONTINUOUS
 62
     0
100
AcDbLine
 10
19.9757665685
 20
0.0
 30
0.0
 11
19.4657665685
 21
-0.51
 31
0.0
  0
LINE
  5
19C
330
17D
100
AcDbEntity
  8
0
  6
CONTINUOUS
 62
     0
100
AcDbLine
 10
20.1525432638
 20
0.0
 30
0.0
 11
19.6425432638
 21
-0.51
 31
0.0
  0
LINE
  5
19D
330
17D
100
AcDbEntity
  8
0
  6
CONTINUOUS
 62
     0
100
AcDbLine
 10
20.2033152802
 20
-0.1260046789
 30
0.0
 11
19.8193199591
 21
-0.51
 31
0.0
  0
LINE
  5
19E
330
17D
100
AcDbEntity
  8
0
  6
CONTINUOUS
 62
     0
100
AcDbLine
 10
20.2033152802
 20
-0.3027813742
 30
0.0
 11
19.9960966544
 21
-0.51
 31
0.0
  0
LINE
  5
19F
330
17D
100
AcDbEntity
  8
0
  6
CONTINUOUS
 62
     0
100
AcDbLine
 10
20.2033152802
 20
-0.4795580695
 30
0.0
 11
20.1728733497
 21
-0.51
 31
0.0
  0
LINE
  5
1A0
330
17D
100
AcDbEntity
  8
0
  6
CONTINUOUS
 62
     0
100
AcDbLine
 10
18.9506403027
 20
-3.5
 30
0.0
 11
18.8207647668
 21
-3.6298755359
 31
0.0
  0
LINE
  5
1A1
330
17D
100
AcDbEntity
  8
0
  6
CONTINUOUS
 62
     0
100
AcDbLine
 10
19.127416998
 20
-3.5
 30
0.0
 11
18.8320186893
 21
-3.7953983087
 31
0.0
  0
LINE
  5
1A2
330
17D
100
AcDbEntity
  8
0
  6
CONTINUOUS
 62
     0
100
AcDbLine
 10
19.3041936933
 20
-3.5
 30
0.0
 11
18.7941936933
 21
-4.01
 31
0.0
  0
LINE
  5
1A3
330
17D
100
AcDbEntity
  8
0
  6
CONTINUOUS
 62
     0
100
AcDbLine
 10
19.4809703886
 20
-3.5
 30
0.0
 11
18.9709703886
 21
-4.01
 31
0.0
  0
LINE
  5
1A4
330
17D
100
AcDbEntity
  8
0
  6
CONTINUOUS
 62
     0
100
AcDbLine
 10
19.6577470839
 20
-3.5
 30
0.0
 11
19.1477470839
 21
-4.01
 31
0.0
  0
LINE
  5
1A5
330
17D
100
AcDbEntity
  8
0
  6
CONTINUOUS
 62
     0
100
AcDbLine
 10
19.8345237792
 20
-3.5
 30
0.0
 11
19.3245237792
 21
-4.01
 31
0.0
  0
LINE
  5
1A6
330
17D
100
AcDbEntity
  8
0
  6
CONTINUOUS
 62
     0
100
AcDbLine
 10
20.0113004745
 20
-3.5
 30
0.0
 11
19.5013004745
 21
-4.01
 31
0.0
  0
LINE
  5
1A7
330
17D
100
AcDbEntity
  8
0
  6
CONTINUOUS
 62
     0
100
AcDbLine
 10
20.1880771697
 20
-3.5
 30
0.0
 11
19.6780771697
 21
-4.01
 31
0.0
  0
LINE
  5
1A8
330
17D
100
AcDbEntity
  8
0
  6
CONTINUOUS
 62
     0
100
AcDbLine
 10
20.2033152802
 20
-3.6615385849
 30
0.0
 11
19.854853865
 21
-4.01
 31
0.0
  0
LINE
  5
1A9
330
17D
100
AcDbEntity
  8
0
  6
CONTINUOUS
 62
     0
100
AcDbLine
 10
20.2033152802
 20
-3.8383152802
 30
0.0
 11
20.0316305603
 21
-4.01
 31
0.0
  0
ENDBLK
  5
17F
330
17D
100
AcDbEntity
  8
0
100
AcDbBlockEnd
  0
BLOCK
  5
1AC
330
1AB
100
AcDbEntity
  8
0
100
AcDbBlockBegin
  2
SW_NOTE_6
 70
     0
 10
0.0
 20
0.0
 30
0.0
  3
SW_NOTE_6
  1

  0
MTEXT
  5
1AE
330
1AB
100
AcDbEntity
  8
0
  6
CONTINUOUS
 62
     0
100
AcDbMText
 10
0.0
 20
0.4834004024
 30
0.0
 40
0.375
 41
0.0
 71
     1
 72
     1
  1
CrossBrace Lower Middle
  7
SLDTEXTSTYLE0
  0
MTEXT
  5
1AF
330
1AB
100
AcDbEntity
  8
0
  6
CONTINUOUS
 62
     0
100
AcDbMText
 10
0.0
 20
-0.0165995915
 30
0.0
 40
0.375
 41
0.0
 71
     1
 72
     1
  1
QTY:4
  7
SLDTEXTSTYLE0
  0
MTEXT
  5
1B0
330
1AB
100
AcDbEntity
  8
0
  6
CONTINUOUS
 62
     0
100
AcDbMText
 10
0.0
 20
-0.5165995855
 30
0.0
 40
0.375
 41
0.0
 71
     1
 72
     1
  1
Hatching Depth 0.300"
  7
SLDTEXTSTYLE0
  0
ENDBLK
  5
1AD
330
1AB
100
AcDbEntity
  8
0
100
AcDbBlockEnd
  0
BLOCK
  5
1BD
330
1BC
100
AcDbEntity
  8
0
100
AcDbBlockBegin
  2
SW_HATCH_5
 70
     0
 10
0.0
 20
0.0
 30
0.0
  3
SW_HATCH_5
  1

  0
LINE
  5
1BF
330
1BC
100
AcDbEntity
  8
0
  6
CONTINUOUS
 62
     0
100
AcDbLine
 10
0.0
 20
0.0
 30
0.0
 11
-0.094263462
 21
-0.094263462
 31
0.0
  0
LINE
  5
1C0
330
1BC
100
AcDbEntity
  8
0
  6
CONTINUOUS
 62
     0
100
AcDbLine
 10
0.1689886272
 20
-0.0077880681
 30
0.0
 11
-0.0864753939
 21
-0.2632520892
 31
0.0
  0
LINE
  5
1C1
330
1BC
100
AcDbEntity
  8
0
  6
CONTINUOUS
 62
     0
100
AcDbLine
 10
0.2512366293
 20
-0.1023167613
 30
0.0
 11
0.0080532993
 21
-0.3455000913
 31
0.0
  0
LINE
  5
1C2
330
1BC
100
AcDbEntity
  8
0
  6
CONTINUOUS
 62
     0
100
AcDbLine
 10
14.1455277458
 20
0.0033921221
 30
0.0
 11
13.9023444159
 21
-0.2397912078
 31
0.0
  0
LINE
  5
1C3
330
1BC
100
AcDbEntity
  8
0
  6
CONTINUOUS
 62
     0
100
AcDbLine
 10
14.2400564391
 20
-0.0788558799
 30
0.0
 11
13.9845924179
 21
-0.3343199011
 31
0.0
  0
LINE
  5
1C4
330
1BC
100
AcDbEntity
  8
0
  6
CONTINUOUS
 62
     0
100
AcDbLine
 10
14.2478445072
 20
-0.2478445072
 30
0.0
 11
14.1535810452
 21
-0.3421079692
 31
0.0
  0
ENDBLK
  5
1BE
330
1BC
100
AcDbEntity
  8
0
100
AcDbBlockEnd
  0
BLOCK
  5
1C7
330
1C6
100
AcDbEntity
  8
0
100
AcDbBlockBegin
  2
SW_NOTE_7
 70
     0
 10
0.0
 20
0.0
 30
0.0
  3
SW_NOTE_7
  1

  0
MTEXT
  5
1C9
330
1C6
100
AcDbEntity
  8
0
  6
CONTINUOUS
 62
     0
100
AcDbMText
 10
0.0
 20
0.4834004024
 30
0.0
 40
0.375
 41
0.0
 71
     1
 72
     1
  1
CrossBrace Upper Outer
  7
SLDTEXTSTYLE0
  0
MTEXT
  5
1CA
330
1C6
100
AcDbEntity
  8
0
  6
CONTINUOUS
 62
     0
100
AcDbMText
 10
0.0
 20
-0.0165995915
 30
0.0
 40
0.375
 41
0.0
 71
     1
 72
     1
  1
QTY: 4
  7
SLDTEXTSTYLE0
  0
MTEXT
  5
1CB
330
1C6
100
AcDbEntity
  8
0
  6
CONTINUOUS
 62
     0
100
AcDbMText
 10
0.0
 20
-0.5165995855
 30
0.0
 40
0.375
 41
0.0
 71
     1
 72
     1
  1
Hatching Depth 0.375"
  7
SLDTEXTSTYLE0
  0
ENDBLK
  5
1C8
330
1C6
100
AcDbEntity
  8
0
100
AcDbBlockEnd
  0
BLOCK
  5
1F2
330
1F1
100
AcDbEntity
  8
0
100
AcDbBlockBegin
  2
SW_HATCH_6
 70
     0
 10
0.0
 20
0.0
 30
0.0
  3
SW_HATCH_6
  1

  0
LINE
  5
1F4
330
1F1
100
AcDbEntity
  8
0
  6
CONTINUOUS
 62
     0
100
AcDbLine
 10
0.0
 20
0.0
 30
0.0
 11
-0.0540317069
 21
-0.0540317069
 31
0.0
  0
LINE
  5
1F5
330
1F1
100
AcDbEntity
  8
0
  6
CONTINUOUS
 62
     0
100
AcDbLine
 10
0.1767766953
 20
0.0
 30
0.0
 11
-0.0084762666
 21
-0.1852529618
 31
0.0
  0
LINE
  5
1F6
330
1F1
100
AcDbEntity
  8
0
  6
CONTINUOUS
 62
     0
100
AcDbLine
 10
0.3535533906
 20
0.0
 30
0.0
 11
0.0068444857
 21
-0.3467089049
 31
0.0
  0
LINE
  5
1F7
330
1F1
100
AcDbEntity
  8
0
  6
CONTINUOUS
 62
     0
100
AcDbLine
 10
0.5303300859
 20
0.0
 30
0.0
 11
-0.0443849846
 21
-0.5747150705
 31
0.0
  0
LINE
  5
1F8
330
1F1
100
AcDbEntity
  8
0
  6
CONTINUOUS
 62
     0
100
AcDbLine
 10
0.7071067812
 20
0.0
 30
0.0
 11
0.0571067812
 21
-0.65
 31
0.0
  0
LINE
  5
1F9
330
1F1
100
AcDbEntity
  8
0
  6
CONTINUOUS
 62
     0
100
AcDbLine
 10
0.8838834765
 20
0.0
 30
0.0
 11
0.2338834765
 21
-0.65
 31
0.0
  0
LINE
  5
1FA
330
1F1
100
AcDbEntity
  8
0
  6
CONTINUOUS
 62
     0
100
AcDbLine
 10
1.0606601718
 20
0.0
 30
0.0
 11
0.4106601718
 21
-0.65
 31
0.0
  0
LINE
  5
1FB
330
1F1
100
AcDbEntity
  8
0
  6
CONTINUOUS
 62
     0
100
AcDbLine
 10
1.2374368671
 20
0.0
 30
0.0
 11
0.5874368671
 21
-0.65
 31
0.0
  0
LINE
  5
1FC
330
1F1
100
AcDbEntity
  8
0
  6
CONTINUOUS
 62
     0
100
AcDbLine
 10
1.4142135624
 20
0.0
 30
0.0
 11
0.7642135624
 21
-0.65
 31
0.0
  0
LINE
  5
1FD
330
1F1
100
AcDbEntity
  8
0
  6
CONTINUOUS
 62
     0
100
AcDbLine
 10
1.5909902577
 20
0.0
 30
0.0
 11
0.9409902577
 21
-0.65
 31
0.0
  0
LINE
  5
1FE
330
1F1
100
AcDbEntity
  8
0
  6
CONTINUOUS
 62
     0
100
AcDbLine
 10
1.767766953
 20
0.0
 30
0.0
 11
1.117766953
 21
-0.65
 31
0.0
  0
LINE
  5
1FF
330
1F1
100
AcDbEntity
  8
0
  6
CONTINUOUS
 62
     0
100
AcDbLine
 10
1.9445436483
 20
0.0
 30
0.0
 11
1.2945436483
 21
-0.65
 31
0.0
  0
LINE
  5
200
330
1F1
100
AcDbEntity
  8
0
  6
CONTINUOUS
 62
     0
100
AcDbLine
 10
2.0272186258
 20
-0.0941017178
 30
0.0
 11
1.4713203436
 21
-0.65
 31
0.0
  0
LINE
  5
201
330
1F1
100
AcDbEntity
  8
0
  6
CONTINUOUS
 62
     0
100
AcDbLine
 10
2.0272186258
 20
-0.2708784131
 30
0.0
 11
1.6480970389
 21
-0.65
 31
0.0
  0
LINE
  5
202
330
1F1
100
AcDbEntity
  8
0
  6
CONTINUOUS
 62
     0
100
AcDbLine
 10
2.0272186258
 20
-0.4476551084
 30
0.0
 11
1.8248737342
 21
-0.65
 31
0.0
  0
LINE
  5
203
330
1F1
100
AcDbEntity
  8
0
  6
CONTINUOUS
 62
     0
100
AcDbLine
 10
2.0272186258
 20
-0.6244318037
 30
0.0
 11
2.0016504294
 21
-0.65
 31
0.0
  0
LINE
  5
204
330
1F1
100
AcDbEntity
  8
0
  6
CONTINUOUS
 62
     0
100
AcDbLine
 10
-19.6222131779
 20
0.0
 30
0.0
 11
-19.6477813742
 21
-0.0255681963
 31
0.0
  0
LINE
  5
205
330
1F1
100
AcDbEntity
  8
0
  6
CONTINUOUS
 62
     0
100
AcDbLine
 10
-19.4454364826
 20
0.0
 30
0.0
 11
-19.6477813742
 21
-0.2023448916
 31
0.0
  0
LINE
  5
206
330
1F1
100
AcDbEntity
  8
0
  6
CONTINUOUS
 62
     0
100
AcDbLine
 10
-19.2686597873
 20
0.0
 30
0.0
 11
-19.6477813742
 21
-0.3791215869
 31
0.0
  0
LINE
  5
207
330
1F1
100
AcDbEntity
  8
0
  6
CONTINUOUS
 62
     0
100
AcDbLine
 10
-19.091883092
 20
0.0
 30
0.0
 11
-19.6477813742
 21
-0.5558982822
 31
0.0
  0
LINE
  5
208
330
1F1
100
AcDbEntity
  8
0
  6
CONTINUOUS
 62
     0
100
AcDbLine
 10
-18.9151063967
 20
0.0
 30
0.0
 11
-19.5651063967
 21
-0.65
 31
0.0
  0
LINE
  5
209
330
1F1
100
AcDbEntity
  8
0
  6
CONTINUOUS
 62
     0
100
AcDbLine
 10
-18.7383297014
 20
0.0
 30
0.0
 11
-19.3883297014
 21
-0.65
 31
0.0
  0
LINE
  5
20A
330
1F1
100
AcDbEntity
  8
0
  6
CONTINUOUS
 62
     0
100
AcDbLine
 10
-18.5615530061
 20
0.0
 30
0.0
 11
-19.2115530061
 21
-0.65
 31
0.0
  0
LINE
  5
20B
330
1F1
100
AcDbEntity
  8
0
  6
CONTINUOUS
 62
     0
100
AcDbLine
 10
-18.3847763109
 20
0.0
 30
0.0
 11
-19.0347763109
 21
-0.65
 31
0.0
  0
LINE
  5
20C
330
1F1
100
AcDbEntity
  8
0
  6
CONTINUOUS
 62
     0
100
AcDbLine
 10
-18.2079996156
 20
0.0
 30
0.0
 11
-18.8579996156
 21
-0.65
 31
0.0
  0
LINE
  5
20D
330
1F1
100
AcDbEntity
  8
0
  6
CONTINUOUS
 62
     0
100
AcDbLine
 10
-18.0312229203
 20
0.0
 30
0.0
 11
-18.6812229203
 21
-0.65
 31
0.0
  0
LINE
  5
20E
330
1F1
100
AcDbEntity
  8
0
  6
CONTINUOUS
 62
     0
100
AcDbLine
 10
-17.854446225
 20
0.0
 30
0.0
 11
-18.504446225
 21
-0.65
 31
0.0
  0
LINE
  5
20F
330
1F1
100
AcDbEntity
  8
0
  6
CONTINUOUS
 62
     0
100
AcDbLine
 10
-17.6776695297
 20
0.0
 30
0.0
 11
-18.3276695297
 21
-0.65
 31
0.0
  0
LINE
  5
210
330
1F1
100
AcDbEntity
  8
0
  6
CONTINUOUS
 62
     0
100
AcDbLine
 10
-17.5761777639
 20
-0.0752849295
 30
0.0
 11
-18.1508928344
 21
-0.65
 31
0.0
  0
LINE
  5
211
330
1F1
100
AcDbEntity
  8
0
  6
CONTINUOUS
 62
     0
100
AcDbLine
 10
-17.6274072341
 20
-0.3032910951
 30
0.0
 11
-17.9741161391
 21
-0.65
 31
0.0
  0
LINE
  5
212
330
1F1
100
AcDbEntity
  8
0
  6
CONTINUOUS
 62
     0
100
AcDbLine
 10
-17.6120864819
 20
-0.4647470382
 30
0.0
 11
-17.7973394438
 21
-0.65
 31
0.0
  0
LINE
  5
213
330
1F1
100
AcDbEntity
  8
0
  6
CONTINUOUS
 62
     0
100
AcDbLine
 10
-17.5665310416
 20
-0.5959682931
 30
0.0
 11
-17.6205627485
 21
-0.65
 31
0.0
  0
ENDBLK
  5
1F3
330
1F1
100
AcDbEntity
  8
0
100
AcDbBlockEnd
  0
BLOCK
  5
218
330
217
100
AcDbEntity
  8
0
100
AcDbBlockBegin
  2
*D17
 70
     1
 10
0.0
 20
0.0
 30
0.0
  3
*D17
  1

  0
SOLID
  5
21A
330
217
100
AcDbEntity
  8
0
  6
CONTINUOUS
 62
     7
100
AcDbTrace
 10
17.7558170466
 20
31.8883735664
 30
0.0
 11
17.7758170466
 21
32.0183735664
 31
0.0
 12
17.7358170466
 22
32.0183735664
 32
0.0
 13
17.7358170466
 23
32.0183735664
 33
0.0
  0
SOLID
  5
21B
330
217
100
AcDbEntity
  8
0
  6
CONTINUOUS
 62
     7
100
AcDbTrace
 10
17.7558170466
 20
33.3883735664
 30
0.0
 11
17.7358170466
 21
33.2583735664
 31
0.0
 12
17.7758170466
 22
33.2583735664
 32
0.0
 13
17.7758170466
 23
33.2583735664
 33
0.0
  0
LINE
  5
21C
330
217
100
AcDbEntity
  8
0
  6
CONTINUOUS
 62
     7
100
AcDbLine
 10
18.1684402776
 20
31.8883735664
 30
0.0
 11
17.7164469678
 21
31.8883735664
 31
0.0
  0
LINE
  5
21D
330
217
100
AcDbEntity
  8
0
  6
CONTINUOUS
 62
     7
100
AcDbLine
 10
18.1684402776
 20
33.3883735664
 30
0.0
 11
17.7164469678
 21
33.3883735664
 31
0.0
  0
LINE
  5
21E
330
217
100
AcDbEntity
  8
0
  6
CONTINUOUS
 62
     7
100
AcDbLine
 10
17.7558170466
 20
31.8883735664
 30
0.0
 11
17.7558170466
 21
33.3883735664
 31
0.0
  0
MTEXT
  5
21F
330
217
100
AcDbEntity
  8
0
  6
CONTINUOUS
 62
     7
100
AcDbMText
 10
17.578189609
 20
32.3805048518
 30
-0.3503937008
 40
0.1377952756
 41
0.0
 71
     1
 72
     1
  1
1.500
  7
SLDTEXTSTYLE0
 11
2.832769448823990E-16
 21
1.0
 31
0.0
  0
ENDBLK
  5
219
330
217
100
AcDbEntity
  8
0
100
AcDbBlockEnd
  0
BLOCK
  5
23B
330
23A
100
AcDbEntity
  8
0
100
AcDbBlockBegin
  2
SW_HATCH_7
 70
     0
 10
0.0
 20
0.0
 30
0.0
  3
SW_HATCH_7
  1

  0
LINE
  5
23D
330
23A
100
AcDbEntity
  8
0
  6
CONTINUOUS
 62
     0
100
AcDbLine
 10
0.0
 20
0.0
 30
0.0
 11
-0.2032410639
 21
-0.2032410639
 31
0.0
  0
LINE
  5
23E
330
23A
100
AcDbEntity
  8
0
  6
CONTINUOUS
 62
     0
100
AcDbLine
 10
0.1193109074
 20
-0.0574657879
 30
0.0
 11
-0.145775276
 21
-0.3225519713
 31
0.0
  0
LINE
  5
23F
330
23A
100
AcDbEntity
  8
0
  6
CONTINUOUS
 62
     0
100
AcDbLine
 10
0.170987316
 20
-0.1825660746
 30
0.0
 11
-0.0206749893
 21
-0.3742283799
 31
0.0
  0
LINE
  5
240
330
23A
100
AcDbEntity
  8
0
  6
CONTINUOUS
 62
     0
100
AcDbLine
 10
43.4877441422
 20
0.0006770992
 30
0.0
 11
43.2960818369
 21
-0.1909852061
 31
0.0
  0
LINE
  5
241
330
23A
100
AcDbEntity
  8
0
  6
CONTINUOUS
 62
     0
100
AcDbLine
 10
43.6128444289
 20
-0.0509993094
 30
0.0
 11
43.3477582455
 21
-0.3160854928
 31
0.0
  0
LINE
  5
242
330
23A
100
AcDbEntity
  8
0
  6
CONTINUOUS
 62
     0
100
AcDbLine
 10
43.6703102168
 20
-0.1703102168
 30
0.0
 11
43.4670691529
 21
-0.3735512807
 31
0.0
  0
ENDBLK
  5
23C
330
23A
100
AcDbEntity
  8
0
100
AcDbBlockEnd
  0
BLOCK
  5
29B
330
29A
100
AcDbEntity
  8
0
100
AcDbBlockBegin
  2
SW_HATCH_8
 70
     0
 10
0.0
 20
0.0
 30
0.0
  3
SW_HATCH_8
  1

  0
LINE
  5
29D
330
29A
100
AcDbEntity
  8
0
  6
CONTINUOUS
 62
     0
100
AcDbLine
 10
0.0
 20
0.0
 30
0.0
 11
-0.0740778941
 21
-0.0740778941
 31
0.0
  0
LINE
  5
29E
330
29A
100
AcDbEntity
  8
0
  6
CONTINUOUS
 62
     0
100
AcDbLine
 10
0.2407075057
 20
0.0639308104
 30
0.0
 11
-0.0324538639
 21
-0.2092305592
 31
0.0
  0
LINE
  5
29F
330
29A
100
AcDbEntity
  8
0
  6
CONTINUOUS
 62
     0
100
AcDbLine
 10
0.4814150113
 20
0.1278616207
 30
0.0
 11
-0.0236448998
 21
-0.3771982904
 31
0.0
  0
LINE
  5
2A0
330
29A
100
AcDbEntity
  8
0
  6
CONTINUOUS
 62
     0
100
AcDbLine
 10
0.722122517
 20
0.1917924311
 30
0.0
 11
-0.0955836569
 21
-0.6259137427
 31
0.0
  0
LINE
  5
2A1
330
29A
100
AcDbEntity
  8
0
  6
CONTINUOUS
 62
     0
100
AcDbLine
 10
0.9628300226
 20
0.2557232414
 30
0.0
 11
0.0811930384
 21
-0.6259137427
 31
0.0
  0
LINE
  5
2A2
330
29A
100
AcDbEntity
  8
0
  6
CONTINUOUS
 62
     0
100
AcDbLine
 10
1.099146636
 20
0.2152631595
 30
0.0
 11
0.2579697337
 21
-0.6259137427
 31
0.0
  0
LINE
  5
2A3
330
29A
100
AcDbEntity
  8
0
  6
CONTINUOUS
 62
     0
100
AcDbLine
 10
1.1652495786
 20
0.1045894068
 30
0.0
 11
0.434746429
 21
-0.6259137427
 31
0.0
  0
LINE
  5
2A4
330
29A
100
AcDbEntity
  8
0
  6
CONTINUOUS
 62
     0
100
AcDbLine
 10
1.27663638
 20
0.0391995129
 30
0.0
 11
0.6115231243
 21
-0.6259137427
 31
0.0
  0
LINE
  5
2A5
330
29A
100
AcDbEntity
  8
0
  6
CONTINUOUS
 62
     0
100
AcDbLine
 10
1.3484459546
 20
-0.0657676078
 30
0.0
 11
0.7882998196
 21
-0.6259137427
 31
0.0
  0
LINE
  5
2A6
330
29A
100
AcDbEntity
  8
0
  6
CONTINUOUS
 62
     0
100
AcDbLine
 10
1.3484459546
 20
-0.2425443031
 30
0.0
 11
0.9650765149
 21
-0.6259137427
 31
0.0
  0
LINE
  5
2A7
330
29A
100
AcDbEntity
  8
0
  6
CONTINUOUS
 62
     0
100
AcDbLine
 10
1.3484459546
 20
-0.4193209984
 30
0.0
 11
1.1418532102
 21
-0.6259137427
 31
0.0
  0
LINE
  5
2A8
330
29A
100
AcDbEntity
  8
0
  6
CONTINUOUS
 62
     0
100
AcDbLine
 10
1.3484459546
 20
-0.5960976937
 30
0.0
 11
1.3186299055
 21
-0.6259137427
 31
0.0
  0
LINE
  5
2A9
330
29A
100
AcDbEntity
  8
0
  6
CONTINUOUS
 62
     0
100
AcDbLine
 10
0.0724358278
 20
2.7240862573
 30
0.0
 11
-0.0477579515
 21
2.6038924779
 31
0.0
  0
LINE
  5
2AA
330
29A
100
AcDbEntity
  8
0
  6
CONTINUOUS
 62
     0
100
AcDbLine
 10
0.2492125231
 20
2.7240862573
 30
0.0
 11
-0.0222028561
 21
2.452670878
 31
0.0
  0
LINE
  5
2AB
330
29A
100
AcDbEntity
  8
0
  6
CONTINUOUS
 62
     0
100
AcDbLine
 10
0.4259892184
 20
2.7240862573
 30
0.0
 11
-0.045281567
 21
2.2528154718
 31
0.0
  0
LINE
  5
2AC
330
29A
100
AcDbEntity
  8
0
  6
CONTINUOUS
 62
     0
100
AcDbLine
 10
0.6027659137
 20
2.7240862573
 30
0.0
 11
-0.0182900702
 21
2.1030302733
 31
0.0
  0
LINE
  5
2AD
330
29A
100
AcDbEntity
  8
0
  6
CONTINUOUS
 62
     0
100
AcDbLine
 10
0.779542609
 20
2.7240862573
 30
0.0
 11
0.1213886082
 21
2.0659322565
 31
0.0
  0
LINE
  5
2AE
330
29A
100
AcDbEntity
  8
0
  6
CONTINUOUS
 62
     0
100
AcDbLine
 10
0.9563193043
 20
2.7240862573
 30
0.0
 11
0.2610672867
 21
2.0288342396
 31
0.0
  0
LINE
  5
2AF
330
29A
100
AcDbEntity
  8
0
  6
CONTINUOUS
 62
     0
100
AcDbLine
 10
1.1330959996
 20
2.7240862573
 30
0.0
 11
0.4007459651
 21
1.9917362228
 31
0.0
  0
LINE
  5
2B0
330
29A
100
AcDbEntity
  8
0
  6
CONTINUOUS
 62
     0
100
AcDbLine
 10
1.3098726949
 20
2.7240862573
 30
0.0
 11
0.5404246436
 21
1.9546382059
 31
0.0
  0
LINE
  5
2B1
330
29A
100
AcDbEntity
  8
0
  6
CONTINUOUS
 62
     0
100
AcDbLine
 10
1.3484459546
 20
2.5858828217
 30
0.0
 11
0.680103322
 21
1.9175401891
 31
0.0
  0
LINE
  5
2B2
330
29A
100
AcDbEntity
  8
0
  6
CONTINUOUS
 62
     0
100
AcDbLine
 10
1.3484459546
 20
2.4091061264
 30
0.0
 11
0.8197820004
 21
1.8804421722
 31
0.0
  0
LINE
  5
2B3
330
29A
100
AcDbEntity
  8
0
  6
CONTINUOUS
 62
     0
100
AcDbLine
 10
1.3484459546
 20
2.2323294311
 30
0.0
 11
0.9594606789
 21
1.8433441554
 31
0.0
  0
LINE
  5
2B4
330
29A
100
AcDbEntity
  8
0
  6
CONTINUOUS
 62
     0
100
AcDbLine
 10
-44.1217379963
 20
2.7240862573
 30
0.0
 11
-44.1515540454
 21
2.6942702082
 31
0.0
  0
LINE
  5
2B5
330
29A
100
AcDbEntity
  8
0
  6
CONTINUOUS
 62
     0
100
AcDbLine
 10
-43.9449613011
 20
2.7240862573
 30
0.0
 11
-44.1515540454
 21
2.5174935129
 31
0.0
  0
LINE
  5
2B6
330
29A
100
AcDbEntity
  8
0
  6
CONTINUOUS
 62
     0
100
AcDbLine
 10
-43.7681846058
 20
2.7240862573
 30
0.0
 11
-44.1515540454
 21
2.3407168176
 31
0.0
  0
LINE
  5
2B7
330
29A
100
AcDbEntity
  8
0
  6
CONTINUOUS
 62
     0
100
AcDbLine
 10
-43.5914079105
 20
2.7240862573
 30
0.0
 11
-44.1515540454
 21
2.1639401223
 31
0.0
  0
LINE
  5
2B8
330
29A
100
AcDbEntity
  8
0
  6
CONTINUOUS
 62
     0
100
AcDbLine
 10
-43.4146312152
 20
2.7240862573
 30
0.0
 11
-44.0797444708
 21
2.0589730016
 31
0.0
  0
LINE
  5
2B9
330
29A
100
AcDbEntity
  8
0
  6
CONTINUOUS
 62
     0
100
AcDbLine
 10
-43.2378545199
 20
2.7240862573
 30
0.0
 11
-43.9683576694
 21
1.9935831077
 31
0.0
  0
LINE
  5
2BA
330
29A
100
AcDbEntity
  8
0
  6
CONTINUOUS
 62
     0
100
AcDbLine
 10
-43.0610778246
 20
2.7240862573
 30
0.0
 11
-43.9022547268
 21
1.882909355
 31
0.0
  0
LINE
  5
2BB
330
29A
100
AcDbEntity
  8
0
  6
CONTINUOUS
 62
     0
100
AcDbLine
 10
-42.8843011293
 20
2.7240862573
 30
0.0
 11
-43.7659381134
 21
1.8424492731
 31
0.0
  0
LINE
  5
2BC
330
29A
100
AcDbEntity
  8
0
  6
CONTINUOUS
 62
     0
100
AcDbLine
 10
-42.707524434
 20
2.7240862573
 30
0.0
 11
-43.5252306078
 21
1.9063800835
 31
0.0
  0
LINE
  5
2BD
330
29A
100
AcDbEntity
  8
0
  6
CONTINUOUS
 62
     0
100
AcDbLine
 10
-42.7794631911
 20
2.4753708049
 30
0.0
 11
-43.2845231021
 21
1.9703108938
 31
0.0
  0
LINE
  5
2BE
330
29A
100
AcDbEntity
  8
0
  6
CONTINUOUS
 62
     0
100
AcDbLine
 10
-42.7706542269
 20
2.3074030738
 30
0.0
 11
-43.0438155965
 21
2.0342417042
 31
0.0
  0
LINE
  5
2BF
330
29A
100
AcDbEntity
  8
0
  6
CONTINUOUS
 62
     0
100
AcDbLine
 10
-42.7290301967
 20
2.1722504086
 30
0.0
 11
-42.8031080908
 21
2.0981725145
 31
0.0
  0
LINE
  5
2C0
330
29A
100
AcDbEntity
  8
0
  6
CONTINUOUS
 62
     0
100
AcDbLine
 10
-43.7625687697
 20
0.2548283592
 30
0.0
 11
-44.1515540454
 21
-0.1341569166
 31
0.0
  0
LINE
  5
2C1
330
29A
100
AcDbEntity
  8
0
  6
CONTINUOUS
 62
     0
100
AcDbLine
 10
-43.6228900913
 20
0.2177303423
 30
0.0
 11
-44.1515540454
 21
-0.3109336118
 31
0.0
  0
LINE
  5
2C2
330
29A
100
AcDbEntity
  8
0
  6
CONTINUOUS
 62
     0
100
AcDbLine
 10
-43.4832114128
 20
0.1806323255
 30
0.0
 11
-44.1515540454
 21
-0.4877103071
 31
0.0
  0
LINE
  5
2C3
330
29A
100
AcDbEntity
  8
0
  6
CONTINUOUS
 62
     0
100
AcDbLine
 10
-43.3435327344
 20
0.1435343086
 30
0.0
 11
-44.1129807857
 21
-0.6259137427
 31
0.0
  0
LINE
  5
2C4
330
29A
100
AcDbEntity
  8
0
  6
CONTINUOUS
 62
     0
100
AcDbLine
 10
-43.2038540559
 20
0.1064362917
 30
0.0
 11
-43.9362040904
 21
-0.6259137427
 31
0.0
  0
LINE
  5
2C5
330
29A
100
AcDbEntity
  8
0
  6
CONTINUOUS
 62
     0
100
AcDbLine
 10
-43.0641753775
 20
0.0693382749
 30
0.0
 11
-43.7594273951
 21
-0.6259137427
 31
0.0
  0
LINE
  5
2C6
330
29A
100
AcDbEntity
  8
0
  6
CONTINUOUS
 62
     0
100
AcDbLine
 10
-42.9244966991
 20
0.032240258
 30
0.0
 11
-43.5826506998
 21
-0.6259137427
 31
0.0
  0
LINE
  5
2C7
330
29A
100
AcDbEntity
  8
0
  6
CONTINUOUS
 62
     0
100
AcDbLine
 10
-42.7848180206
 20
-0.0048577588
 30
0.0
 11
-43.4058740045
 21
-0.6259137427
 31
0.0
  0
LINE
  5
2C8
330
29A
100
AcDbEntity
  8
0
  6
CONTINUOUS
 62
     0
100
AcDbLine
 10
-42.7578265238
 20
-0.1546429573
 30
0.0
 11
-43.2290973092
 21
-0.6259137427
 31
0.0
  0
LINE
  5
2C9
330
29A
100
AcDbEntity
  8
0
  6
CONTINUOUS
 62
     0
100
AcDbLine
 10
-42.7809052347
 20
-0.3544983635
 30
0.0
 11
-43.0523206139
 21
-0.6259137427
 31
0.0
  0
LINE
  5
2CA
330
29A
100
AcDbEntity
  8
0
  6
CONTINUOUS
 62
     0
100
AcDbLine
 10
-42.7553501393
 20
-0.5057199634
 30
0.0
 11
-42.8755439186
 21
-0.6259137427
 31
0.0
  0
ENDBLK
  5
29C
330
29A
100
AcDbEntity
  8
0
100
AcDbBlockEnd
  0
BLOCK
  5
2CE
330
2CD
100
AcDbEntity
  8
0
100
AcDbBlockBegin
  2
*D20
 70
     1
 10
0.0
 20
0.0
 30
0.0
  3
*D20
  1

  0
SOLID
  5
2D0
330
2CD
100
AcDbEntity
  8
0
  6
CONTINUOUS
 62
     7
100
AcDbTrace
 10
0.760112596
 20
24.7507166265
 30
0.0
 11
0.890112596
 21
24.7307166265
 31
0.0
 12
0.890112596
 22
24.7707166265
 32
0.0
 13
0.890112596
 23
24.7707166265
 33
0.0
  0
SOLID
  5
2D1
330
2CD
100
AcDbEntity
  8
0
  6
CONTINUOUS
 62
     7
100
AcDbTrace
 10
47.260112596
 20
24.7507166265
 30
0.0
 11
47.130112596
 21
24.7707166265
 31
0.0
 12
47.130112596
 22
24.7307166265
 32
0.0
 13
47.130112596
 23
24.7307166265
 33
0.0
  0
LINE
  5
2D2
330
2CD
100
AcDbEntity
  8
0
  6
CONTINUOUS
 62
     7
100
AcDbLine
 10
0.760112596
 20
21.323944973
 30
0.0
 11
0.760112596
 21
24.7900867052
 31
0.0
  0
LINE
  5
2D3
330
2CD
100
AcDbEntity
  8
0
  6
CONTINUOUS
 62
     7
100
AcDbLine
 10
47.260112596
 20
21.323944973
 30
0.0
 11
47.260112596
 21
24.7900867052
 31
0.0
  0
LINE
  5
2D4
330
2CD
100
AcDbEntity
  8
0
  6
CONTINUOUS
 62
     7
100
AcDbLine
 10
0.760112596
 20
24.7507166265
 30
0.0
 11
47.260112596
 21
24.7507166265
 31
0.0
  0
MTEXT
  5
2D5
330
2CD
100
AcDbEntity
  8
0
  6
CONTINUOUS
 62
     7
100
AcDbMText
 10
30.8876371623
 20
24.9283440641
 30
-0.3503937008
 40
0.1377952756
 41
0.0
 71
     1
 72
     1
  1
46.500
  7
SLDTEXTSTYLE0
  0
ENDBLK
  5
2CF
330
2CD
100
AcDbEntity
  8
0
100
AcDbBlockEnd
  0
BLOCK
  5
2D8
330
2D7
100
AcDbEntity
  8
0
100
AcDbBlockBegin
  2
*D21
 70
     1
 10
0.0
 20
0.0
 30
0.0
  3
*D21
  1

  0
SOLID
  5
2DA
330
2D7
100
AcDbEntity
  8
0
  6
CONTINUOUS
 62
     7
100
AcDbTrace
 10
0.4618678396
 20
20.3845748942
 30
0.0
 11
0.4418678396
 21
20.2545748942
 31
0.0
 12
0.4818678396
 22
20.2545748942
 32
0.0
 13
0.4818678396
 23
20.2545748942
 33
0.0
  0
SOLID
  5
2DB
330
2D7
100
AcDbEntity
  8
0
  6
CONTINUOUS
 62
     7
100
AcDbTrace
 10
0.4618678396
 20
21.3845748942
 30
0.0
 11
0.4818678396
 21
21.5145748942
 31
0.0
 12
0.4418678396
 22
21.5145748942
 32
0.0
 13
0.4418678396
 23
21.5145748942
 33
0.0
  0
LINE
  5
2DC
330
2D7
100
AcDbEntity
  8
0
  6
CONTINUOUS
 62
     7
100
AcDbLine
 10
0.8207425173
 20
20.3845748942
 30
0.0
 11
0.4224977608
 21
20.3845748942
 31
0.0
  0
LINE
  5
2DD
330
2D7
100
AcDbEntity
  8
0
  6
CONTINUOUS
 62
     7
100
AcDbLine
 10
0.8207425173
 20
21.3845748942
 30
0.0
 11
0.4224977608
 21
21.3845748942
 31
0.0
  0
LINE
  5
2DE
330
2D7
100
AcDbEntity
  8
0
  6
CONTINUOUS
 62
     7
100
AcDbLine
 10
0.4618678396
 20
20.3845748942
 30
0.0
 11
0.4618678396
 21
20.1345748942
 31
0.0
  0
LINE
  5
2DF
330
2D7
100
AcDbEntity
  8
0
  6
CONTINUOUS
 62
     7
100
AcDbLine
 10
0.4618678396
 20
20.3845748942
 30
0.0
 11
0.4618678396
 21
21.3845748942
 31
0.0
  0
LINE
  5
2E0
330
2D7
100
AcDbEntity
  8
0
  6
CONTINUOUS
 62
     7
100
AcDbLine
 10
0.4618678396
 20
21.3845748942
 30
0.0
 11
0.4618678396
 21
21.6345748942
 31
0.0
  0
MTEXT
  5
2E1
330
2D7
100
AcDbEntity
  8
0
  6
CONTINUOUS
 62
     7
100
AcDbMText
 10
0.284240402
 20
20.4745226752
 30
-0.3503937008
 40
0.1377952756
 41
0.0
 71
     1
 72
     1
  1
1.000
  7
SLDTEXTSTYLE0
 11
6.123233995736766E-17
 21
1.0
 31
0.0
  0
ENDBLK
  5
2D9
330
2D7
100
AcDbEntity
  8
0
100
AcDbBlockEnd
  0
BLOCK
  5
2E3
330
2E2
100
AcDbEntity
  8
0
100
AcDbBlockBegin
  2
SW_NOTE_8
 70
     0
 10
0.0
 20
0.0
 30
0.0
  3
SW_NOTE_8
  1

  0
MTEXT
  5
2E5
330
2E2
100
AcDbEntity
  8
0
  6
CONTINUOUS
 62
     0
100
AcDbMText
 10
0.0
 20
0.4834004024
 30
0.0
 40
0.375
 41
0.0
 71
     1
 72
     1
  1
BowTie Outer
  7
SLDTEXTSTYLE0
  0
MTEXT
  5
2E6
330
2E2
100
AcDbEntity
  8
0
  6
CONTINUOUS
 62
     0
100
AcDbMText
 10
0.0
 20
-0.0165995915
 30
0.0
 40
0.375
 41
0.0
 71
     1
 72
     1
  1
QTY: 2
  7
SLDTEXTSTYLE0
  0
MTEXT
  5
2E7
330
2E2
100
AcDbEntity
  8
0
  6
CONTINUOUS
 62
     0
100
AcDbMText
 10
0.0
 20
-0.5165995855
 30
0.0
 40
0.375
 41
0.0
 71
     1
 72
     1
  1
Hatching Depth: 0.375"
  7
SLDTEXTSTYLE0
  0
ENDBLK
  5
2E4
330
2E2
100
AcDbEntity
  8
0
100
AcDbBlockEnd
  0
BLOCK
  5
2EA
330
2E9
100
AcDbEntity
  8
0
100
AcDbBlockBegin
  2
SW_NOTE_9
 70
     0
 10
0.0
 20
0.0
 30
0.0
  3
SW_NOTE_9
  1

  0
MTEXT
  5
2EC
330
2E9
100
AcDbEntity
  8
0
  6
CONTINUOUS
 62
     0
100
AcDbMText
 10
0.0
 20
0.4834004024
 30
0.0
 40
0.375
 41
0.0
 71
     1
 72
     1
  1
BowTie Inner
  7
SLDTEXTSTYLE0
  0
MTEXT
  5
2ED
330
2E9
100
AcDbEntity
  8
0
  6
CONTINUOUS
 62
     0
100
AcDbMText
 10
0.0
 20
-0.0165995915
 30
0.0
 40
0.375
 41
0.0
 71
     1
 72
     1
  1
QTY: 2
  7
SLDTEXTSTYLE0
  0
MTEXT
  5
2EE
330
2E9
100
AcDbEntity
  8
0
  6
CONTINUOUS
 62
     0
100
AcDbMText
 10
0.0
 20
-0.5165995855
 30
0.0
 40
0.375
 41
0.0
 71
     1
 72
     1
  1
Hatching Depth: 0.300"
  7
SLDTEXTSTYLE0
  0
ENDBLK
  5
2EB
330
2E9
100
AcDbEntity
  8
0
100
AcDbBlockEnd
  0
BLOCK
  5
317
330
316
100
AcDbEntity
  8
0
100
AcDbBlockBegin
  2
SW_HATCH_9
 70
     0
 10
0.0
 20
0.0
 30
0.0
  3
SW_HATCH_9
  1

  0
LINE
  5
319
330
316
100
AcDbEntity
  8
0
  6
CONTINUOUS
 62
     0
100
AcDbLine
 10
0.0
 20
0.0
 30
0.0
 11
-0.0083694389
 21
-0.0083694389
 31
0.0
  0
LINE
  5
31A
330
316
100
AcDbEntity
  8
0
  6
CONTINUOUS
 62
     0
100
AcDbLine
 10
0.1767766953
 20
0.0
 30
0.0
 11
-0.0083694389
 21
-0.1851461342
 31
0.0
  0
LINE
  5
31B
330
316
100
AcDbEntity
  8
0
  6
CONTINUOUS
 62
     0
100
AcDbLine
 10
0.3535533906
 20
0.0
 30
0.0
 11
-0.0083694389
 21
-0.3619228295
 31
0.0
  0
LINE
  5
31C
330
316
100
AcDbEntity
  8
0
  6
CONTINUOUS
 62
     0
100
AcDbLine
 10
0.5303300859
 20
0.0
 30
0.0
 11
-0.0083694389
 21
-0.5386995248
 31
0.0
  0
LINE
  5
31D
330
316
100
AcDbEntity
  8
0
  6
CONTINUOUS
 62
     0
100
AcDbLine
 10
0.7071067812
 20
0.0
 30
0.0
 11
0.1071067812
 21
-0.6
 31
0.0
  0
LINE
  5
31E
330
316
100
AcDbEntity
  8
0
  6
CONTINUOUS
 62
     0
100
AcDbLine
 10
0.8838834765
 20
0.0
 30
0.0
 11
0.2838834765
 21
-0.6
 31
0.0
  0
LINE
  5
31F
330
316
100
AcDbEntity
  8
0
  6
CONTINUOUS
 62
     0
100
AcDbLine
 10
1.0606601718
 20
0.0
 30
0.0
 11
0.4606601718
 21
-0.6
 31
0.0
  0
LINE
  5
320
330
316
100
AcDbEntity
  8
0
  6
CONTINUOUS
 62
     0
100
AcDbLine
 10
1.2374368671
 20
0.0
 30
0.0
 11
0.6374368671
 21
-0.6
 31
0.0
  0
LINE
  5
321
330
316
100
AcDbEntity
  8
0
  6
CONTINUOUS
 62
     0
100
AcDbLine
 10
1.4142135624
 20
0.0
 30
0.0
 11
0.8142135624
 21
-0.6
 31
0.0
  0
LINE
  5
322
330
316
100
AcDbEntity
  8
0
  6
CONTINUOUS
 62
     0
100
AcDbLine
 10
1.3661272135
 20
-0.2248630442
 30
0.0
 11
0.9909902577
 21
-0.6
 31
0.0
  0
LINE
  5
323
330
316
100
AcDbEntity
  8
0
  6
CONTINUOUS
 62
     0
100
AcDbLine
 10
1.3693631773
 20
-0.3984037756
 30
0.0
 11
1.167766953
 21
-0.6
 31
0.0
  0
LINE
  5
324
330
316
100
AcDbEntity
  8
0
  6
CONTINUOUS
 62
     0
100
AcDbLine
 10
1.4078034604
 20
-0.5367401878
 30
0.0
 11
1.3445436483
 21
-0.6
 31
0.0
  0
LINE
  5
325
330
316
100
AcDbEntity
  8
0
  6
CONTINUOUS
 62
     0
100
AcDbLine
 10
0.1213203443
 20
-1.9999999992
 30
0.0
 11
-0.0083694389
 21
-2.1296897824
 31
0.0
  0
LINE
  5
326
330
316
100
AcDbEntity
  8
0
  6
CONTINUOUS
 62
     0
100
AcDbLine
 10
0.2980970396
 20
-1.9999999992
 30
0.0
 11
-0.0083694389
 21
-2.3064664777
 31
0.0
  0
LINE
  5
327
330
316
100
AcDbEntity
  8
0
  6
CONTINUOUS
 62
     0
100
AcDbLine
 10
0.4748737349
 20
-1.9999999992
 30
0.0
 11
-0.0083694389
 21
-2.483243173
 31
0.0
  0
LINE
  5
328
330
316
100
AcDbEntity
  8
0
  6
CONTINUOUS
 62
     0
100
AcDbLine
 10
0.6516504302
 20
-1.9999999992
 30
0.0
 11
0.0516504302
 21
-2.5999999992
 31
0.0
  0
LINE
  5
329
330
316
100
AcDbEntity
  8
0
  6
CONTINUOUS
 62
     0
100
AcDbLine
 10
0.8284271255
 20
-1.9999999992
 30
0.0
 11
0.2284271255
 21
-2.5999999992
 31
0.0
  0
LINE
  5
32A
330
316
100
AcDbEntity
  8
0
  6
CONTINUOUS
 62
     0
100
AcDbLine
 10
1.0052038208
 20
-1.9999999992
 30
0.0
 11
0.4052038208
 21
-2.5999999992
 31
0.0
  0
LINE
  5
32B
330
316
100
AcDbEntity
  8
0
  6
CONTINUOUS
 62
     0
100
AcDbLine
 10
1.1819805161
 20
-1.9999999992
 30
0.0
 11
0.5819805161
 21
-2.5999999992
 31
0.0
  0
LINE
  5
32C
330
316
100
AcDbEntity
  8
0
  6
CONTINUOUS
 62
     0
100
AcDbLine
 10
1.3587572114
 20
-1.9999999992
 30
0.0
 11
0.7587572114
 21
-2.5999999992
 31
0.0
  0
LINE
  5
32D
330
316
100
AcDbEntity
  8
0
  6
CONTINUOUS
 62
     0
100
AcDbLine
 10
1.377862879
 20
-2.1576710269
 30
0.0
 11
0.9355339067
 21
-2.5999999992
 31
0.0
  0
LINE
  5
32E
330
316
100
AcDbEntity
  8
0
  6
CONTINUOUS
 62
     0
100
AcDbLine
 10
1.3634708784
 20
-2.3488397229
 30
0.0
 11
1.112310602
 21
-2.5999999992
 31
0.0
  0
LINE
  5
32F
330
316
100
AcDbEntity
  8
0
  6
CONTINUOUS
 62
     0
100
AcDbLine
 10
1.3929006982
 20
-2.4961865983
 30
0.0
 11
1.2890872973
 21
-2.5999999992
 31
0.0
  0
LINE
  5
330
330
316
100
AcDbEntity
  8
0
  6
CONTINUOUS
 62
     0
100
AcDbLine
 10
44.1941738242
 20
0.0
 30
0.0
 11
44.0903185113
 21
-0.1038553129
 31
0.0
  0
LINE
  5
331
330
316
100
AcDbEntity
  8
0
  6
CONTINUOUS
 62
     0
100
AcDbLine
 10
44.3709505195
 20
0.0
 30
0.0
 11
44.1197386108
 21
-0.2512119086
 31
0.0
  0
LINE
  5
332
330
316
100
AcDbEntity
  8
0
  6
CONTINUOUS
 62
     0
100
AcDbLine
 10
44.5477272148
 20
0.0
 30
0.0
 11
44.1053257903
 21
-0.4424014245
 31
0.0
  0
LINE
  5
333
330
316
100
AcDbEntity
  8
0
  6
CONTINUOUS
 62
     0
100
AcDbLine
 10
44.72450391
 20
0.0
 30
0.0
 11
44.12450391
 21
-0.6
 31
0.0
  0
LINE
  5
334
330
316
100
AcDbEntity
  8
0
  6
CONTINUOUS
 62
     0
100
AcDbLine
 10
44.9012806053
 20
0.0
 30
0.0
 11
44.3012806053
 21
-0.6
 31
0.0
  0
LINE
  5
335
330
316
100
AcDbEntity
  8
0
  6
CONTINUOUS
 62
     0
100
AcDbLine
 10
45.0780573006
 20
0.0
 30
0.0
 11
44.4780573006
 21
-0.6
 31
0.0
  0
LINE
  5
336
330
316
100
AcDbEntity
  8
0
  6
CONTINUOUS
 62
     0
100
AcDbLine
 10
45.2548339959
 20
0.0
 30
0.0
 11
44.6548339959
 21
-0.6
 31
0.0
  0
LINE
  5
337
330
316
100
AcDbEntity
  8
0
  6
CONTINUOUS
 62
     0
100
AcDbLine
 10
45.4316106912
 20
0.0
 30
0.0
 11
44.8316106912
 21
-0.6
 31
0.0
  0
LINE
  5
338
330
316
100
AcDbEntity
  8
0
  6
CONTINUOUS
 62
     0
100
AcDbLine
 10
45.4916305611
 20
-0.1167568254
 30
0.0
 11
45.0083873865
 21
-0.6
 31
0.0
  0
LINE
  5
339
330
316
100
AcDbEntity
  8
0
  6
CONTINUOUS
 62
     0
100
AcDbLine
 10
45.4916305611
 20
-0.2935335207
 30
0.0
 11
45.1851640818
 21
-0.6
 31
0.0
  0
LINE
  5
33A
330
316
100
AcDbEntity
  8
0
  6
CONTINUOUS
 62
     0
100
AcDbLine
 10
45.4916305611
 20
-0.470310216
 30
0.0
 11
45.3619407771
 21
-0.6
 31
0.0
  0
LINE
  5
33B
330
316
100
AcDbEntity
  8
0
  6
CONTINUOUS
 62
     0
100
AcDbLine
 10
44.1387174732
 20
-1.9999999992
 30
0.0
 11
44.0754972519
 21
-2.0632202205
 31
0.0
  0
LINE
  5
33C
330
316
100
AcDbEntity
  8
0
  6
CONTINUOUS
 62
     0
100
AcDbLine
 10
44.3154941685
 20
-1.9999999992
 30
0.0
 11
44.1139459907
 21
-2.201548177
 31
0.0
  0
LINE
  5
33D
330
316
100
AcDbEntity
  8
0
  6
CONTINUOUS
 62
     0
100
AcDbLine
 10
44.4922708638
 20
-1.9999999992
 30
0.0
 11
44.1171971477
 21
-2.3750737154
 31
0.0
  0
LINE
  5
33E
330
316
100
AcDbEntity
  8
0
  6
CONTINUOUS
 62
     0
100
AcDbLine
 10
44.6690475591
 20
-1.9999999992
 30
0.0
 11
44.0690475591
 21
-2.5999999992
 31
0.0
  0
LINE
  5
33F
330
316
100
AcDbEntity
  8
0
  6
CONTINUOUS
 62
     0
100
AcDbLine
 10
44.8458242544
 20
-1.9999999992
 30
0.0
 11
44.2458242544
 21
-2.5999999992
 31
0.0
  0
LINE
  5
340
330
316
100
AcDbEntity
  8
0
  6
CONTINUOUS
 62
     0
100
AcDbLine
 10
45.0226009497
 20
-1.9999999992
 30
0.0
 11
44.4226009497
 21
-2.5999999992
 31
0.0
  0
LINE
  5
341
330
316
100
AcDbEntity
  8
0
  6
CONTINUOUS
 62
     0
100
AcDbLine
 10
45.199377645
 20
-1.9999999992
 30
0.0
 11
44.9011346916
 21
-2.2982429526
 31
0.0
  0
LINE
  5
342
330
316
100
AcDbEntity
  8
0
  6
CONTINUOUS
 62
     0
100
AcDbLine
 10
45.3761543403
 20
-1.9999999992
 30
0.0
 11
45.0274887897
 21
-2.3486655498
 31
0.0
  0
LINE
  5
343
330
316
100
AcDbEntity
  8
0
  6
CONTINUOUS
 62
     0
100
AcDbLine
 10
45.4916305611
 20
-2.0613004737
 30
0.0
 11
45.1538428879
 21
-2.3990881469
 31
0.0
  0
LINE
  5
344
330
316
100
AcDbEntity
  8
0
  6
CONTINUOUS
 62
     0
100
AcDbLine
 10
45.4916305611
 20
-2.238077169
 30
0.0
 11
45.2801969861
 21
-2.449510744
 31
0.0
  0
LINE
  5
345
330
316
100
AcDbEntity
  8
0
  6
CONTINUOUS
 62
     0
100
AcDbLine
 10
45.4916305611
 20
-2.4148538643
 30
0.0
 11
45.4065510842
 21
-2.4999333412
 31
0.0
  0
LINE
  5
346
330
316
100
AcDbEntity
  8
0
  6
CONTINUOUS
 62
     0
100
AcDbLine
 10
45.4916305611
 20
-2.5916305596
 30
0.0
 11
45.4832611215
 21
-2.5999999992
 31
0.0
  0
LINE
  5
347
330
316
100
AcDbEntity
  8
0
  6
CONTINUOUS
 62
     0
100
AcDbLine
 10
44.8708363659
 20
-2.3285412783
 30
0.0
 11
44.599377645
 21
-2.5999999992
 31
0.0
  0
LINE
  5
348
330
316
100
AcDbEntity
  8
0
  6
CONTINUOUS
 62
     0
100
AcDbLine
 10
44.9971904641
 20
-2.3789638754
 30
0.0
 11
44.7761543403
 21
-2.5999999992
 31
0.0
  0
LINE
  5
349
330
316
100
AcDbEntity
  8
0
  6
CONTINUOUS
 62
     0
100
AcDbLine
 10
45.1235445622
 20
-2.4293864726
 30
0.0
 11
44.9529310356
 21
-2.5999999992
 31
0.0
  0
LINE
  5
34A
330
316
100
AcDbEntity
  8
0
  6
CONTINUOUS
 62
     0
100
AcDbLine
 10
45.2498986604
 20
-2.4798090697
 30
0.0
 11
45.1297077309
 21
-2.5999999992
 31
0.0
  0
LINE
  5
34B
330
316
100
AcDbEntity
  8
0
  6
CONTINUOUS
 62
     0
100
AcDbLine
 10
45.3762527586
 20
-2.5302316668
 30
0.0
 11
45.3064844262
 21
-2.5999999992
 31
0.0
  0
LINE
  5
34C
330
316
100
AcDbEntity
  8
0
  6
CONTINUOUS
 62
     0
100
AcDbLine
 10
41.8061395658
 20
-1.2726259119
 30
0.0
 11
42.0190046485
 21
-1.4854909945
 31
0.0
  0
LINE
  5
34D
330
316
100
AcDbEntity
  8
0
  6
CONTINUOUS
 62
     0
100
AcDbLine
 10
41.8687066152
 20
-1.158416266
 30
0.0
 11
42.1332142944
 21
-1.4229239451
 31
0.0
  0
LINE
  5
34E
330
316
100
AcDbEntity
  8
0
  6
CONTINUOUS
 62
     0
100
AcDbLine
 10
41.9997426067
 20
-1.1126755622
 30
0.0
 11
42.1789549982
 21
-1.2918879536
 31
0.0
  0
LINE
  5
34F
330
316
100
AcDbEntity
  8
0
  6
CONTINUOUS
 62
     0
100
AcDbLine
 10
3.3043061241
 20
-1.3081120448
 30
0.0
 11
3.4835185155
 21
-1.4873244363
 31
0.0
  0
LINE
  5
350
330
316
100
AcDbEntity
  8
0
  6
CONTINUOUS
 62
     0
100
AcDbLine
 10
3.3500468279
 20
-1.1770760533
 30
0.0
 11
3.614554507
 21
-1.4415837325
 31
0.0
  0
LINE
  5
351
330
316
100
AcDbEntity
  8
0
  6
CONTINUOUS
 62
     0
100
AcDbLine
 10
3.4642564738
 20
-1.1145090039
 30
0.0
 11
3.5954411479
 21
-1.2456936781
 31
0.0
  0
LINE
  5
352
330
316
100
AcDbEntity
  8
0
  6
CONTINUOUS
 62
     0
100
AcDbLine
 10
3.6236095039
 20
-1.2738620341
 30
0.0
 11
3.6771215564
 21
-1.3273740866
 31
0.0
  0
ENDBLK
  5
318
330
316
100
AcDbEntity
  8
0
100
AcDbBlockEnd
  0
BLOCK
  5
355
330
354
100
AcDbEntity
  8
0
100
AcDbBlockBegin
  2
SW_NOTE_10
 70
     0
 10
0.0
 20
0.0
 30
0.0
  3
SW_NOTE_10
  1

  0
LINE
  5
357
330
354
100
AcDbEntity
  8
0
  6
CONTINUOUS
 62
     0
100
AcDbLine
 10
0.0
 20
0.0
 30
0.0
 11
1.4019036009
 21
0.0
 31
0.0
  0
LINE
  5
358
330
354
100
AcDbEntity
  8
0
  6
CONTINUOUS
 62
     0
100
AcDbLine
 10
1.4019036009
 20
0.0
 30
0.0
 11
0.0
 21
0.0
 31
0.0
  0
LINE
  5
359
330
354
100
AcDbEntity
  8
0
  6
CONTINUOUS
 62
     0
100
AcDbLine
 10
0.0
 20
0.0
 30
0.0
 11
1.4019036009
 21
0.0
 31
0.0
  0
LINE
  5
35A
330
354
100
AcDbEntity
  8
0
  6
CONTINUOUS
 62
     0
100
AcDbLine
 10
1.4019036009
 20
0.0
 30
0.0
 11
0.0
 21
0.0
 31
0.0
  0
LINE
  5
35B
330
354
100
AcDbEntity
  8
0
  6
CONTINUOUS
 62
     0
100
AcDbLine
 10
0.0
 20
0.0
 30
0.0
 11
1.4019036009
 21
0.0
 31
0.0
  0
LINE
  5
35C
330
354
100
AcDbEntity
  8
0
  6
CONTINUOUS
 62
     0
100
AcDbLine
 10
1.4019036009
 20
0.0
 30
0.0
 11
0.0
 21
0.0
 31
0.0
  0
MTEXT
  5
35D
330
354
100
AcDbEntity
  8
0
  6
CONTINUOUS
 62
     0
100
AcDbMText
 10
0.0005441869
 20
0.4484429156
 30
0.0
 40
0.375
 41
0.0
 71
     1
 72
     1
  1
0.300"
  7
SLDTEXTSTYLE0
  0
ENDBLK
  5
356
330
354
100
AcDbEntity
  8
0
100
AcDbBlockEnd
  0
BLOCK
  5
361
330
360
100
AcDbEntity
  8
0
100
AcDbBlockBegin
  2
_DOT
 70
     0
 10
0.0
 20
0.0
 30
0.0
  3
_DOT
  1

  0
POLYLINE
  5
363
330
360
100
AcDbEntity
  8
0
  6
BYBLOCK
 62
     0
100
AcDb2dPolyline
 66
     1
 10
0.0
 20
0.0
 30
0.0
 70
     1
 40
0.5
 41
0.5
  0
VERTEX
  5
365
330
363
100
AcDbEntity
  8
0
  6
BYBLOCK
 62
     0
100
AcDbVertex
100
AcDb2dVertex
 10
-0.25
 20
0.0
 30
0.0
 42
1.0
  0
VERTEX
  5
366
330
363
100
AcDbEntity
  8
0
  6
BYBLOCK
 62
     0
100
AcDbVertex
100
AcDb2dVertex
 10
0.25
 20
0.0
 30
0.0
 42
1.0
  0
SEQEND
  5
367
330
363
100
AcDbEntity
  8
0
  6
BYBLOCK
 62
     0
  0
LINE
  5
364
330
360
100
AcDbEntity
  8
0
  6
BYBLOCK
 62
     0
100
AcDbLine
 10
-0.5
 20
0.0
 30
0.0
 11
-1.0
 21
0.0
 31
0.0
  0
ENDBLK
  5
362
330
360
100
AcDbEntity
  8
0
100
AcDbBlockEnd
  0
BLOCK
  5
36A
330
369
100
AcDbEntity
  8
0
100
AcDbBlockBegin
  2
SW_NOTE_11
 70
     0
 10
0.0
 20
0.0
 30
0.0
  3
SW_NOTE_11
  1

  0
LINE
  5
36C
330
369
100
AcDbEntity
  8
0
  6
CONTINUOUS
 62
     0
100
AcDbLine
 10
0.0
 20
0.0
 30
0.0
 11
1.4013576882
 21
0.0
 31
0.0
  0
LINE
  5
36D
330
369
100
AcDbEntity
  8
0
  6
CONTINUOUS
 62
     0
100
AcDbLine
 10
1.4013576882
 20
0.0
 30
0.0
 11
0.0
 21
0.0
 31
0.0
  0
LINE
  5
36E
330
369
100
AcDbEntity
  8
0
  6
CONTINUOUS
 62
     0
100
AcDbLine
 10
0.0
 20
0.0
 30
0.0
 11
1.4013576882
 21
0.0
 31
0.0
  0
LINE
  5
36F
330
369
100
AcDbEntity
  8
0
  6
CONTINUOUS
 62
     0
100
AcDbLine
 10
1.4013576882
 20
0.0
 30
0.0
 11
0.0
 21
0.0
 31
0.0
  0
LINE
  5
370
330
369
100
AcDbEntity
  8
0
  6
CONTINUOUS
 62
     0
100
AcDbLine
 10
0.0
 20
0.0
 30
0.0
 11
1.4013576882
 21
0.0
 31
0.0
  0
LINE
  5
371
330
369
100
AcDbEntity
  8
0
  6
CONTINUOUS
 62
     0
100
AcDbLine
 10
1.4013576882
 20
0.0
 30
0.0
 11
0.0
 21
0.0
 31
0.0
  0
MTEXT
  5
372
330
369
100
AcDbEntity
  8
0
  6
CONTINUOUS
 62
     0
100
AcDbMText
 10
0.0004098689
 20
0.4487412661
 30
0.0
 40
0.375
 41
0.0
 71
     1
 72
     1
  1
0.500"
  7
SLDTEXTSTYLE0
  0
ENDBLK
  5
36B
330
369
100
AcDbEntity
  8
0
100
AcDbBlockEnd
  0
BLOCK
  5
376
330
375
100
AcDbEntity
  8
0
100
AcDbBlockBegin
  2
SW_NOTE_12
 70
     0
 10
0.0
 20
0.0
 30
0.0
  3
SW_NOTE_12
  1

  0
MTEXT
  5
378
330
375
100
AcDbEntity
  8
0
  6
CONTINUOUS
 62
     0
100
AcDbMText
 10
0.0
 20
0.4834004024
 30
0.0
 40
0.375
 41
0.0
 71
     1
 72
     1
  1
Spanner
  7
SLDTEXTSTYLE0
  0
MTEXT
  5
379
330
375
100
AcDbEntity
  8
0
  6
CONTINUOUS
 62
     0
100
AcDbMText
 10
0.0
 20
-0.0165995915
 30
0.0
 40
0.375
 41
0.0
 71
     1
 72
     1
  1
QTY:2
  7
SLDTEXTSTYLE0
  0
ENDBLK
  5
377
330
375
100
AcDbEntity
  8
0
100
AcDbBlockEnd
  0
ENDSEC
  0
SECTION
  2
ENTITIES
  0
INSERT
  5
4C
330
1F
100
AcDbEntity
  8
0
  6
CONTINUOUS
 62
     7
100
AcDbBlockReference
  2
SW_NOTE_0
 10
12.9221692062
 20
35.9003171213
 30
0.0
  0
ARC
  5
4D
330
1F
100
AcDbEntity
  8
0
  6
CONTINUOUS
 62
     1
100
AcDbCircle
 10
4.6412719587
 20
32.0599722965
 30
0.0
 40
1.0
100
AcDbArc
 50
270.0
 51
0.0
  0
ARC
  5
4E
330
1F
100
AcDbEntity
  8
0
  6
CONTINUOUS
 62
     1
100
AcDbCircle
 10
1.6412719587
 20
32.0599722965
 30
0.0
 40
1.0
100
AcDbArc
 50
180.0
 51
270.0
  0
CIRCLE
  5
4F
330
1F
100
AcDbEntity
  8
0
  6
CONTINUOUS
 62
     1
100
AcDbCircle
 10
3.1412719587
 20
38.3099722965
 30
0.0
 40
0.2524999999999999
  0
CIRCLE
  5
50
330
1F
100
AcDbEntity
  8
0
  6
CONTINUOUS
 62
     1
100
AcDbCircle
 10
3.1412719587
 20
41.8099722965
 30
0.0
 40
0.2524999999999999
  0
CIRCLE
  5
51
330
1F
100
AcDbEntity
  8
0
  6
CONTINUOUS
 62
     1
100
AcDbCircle
 10
3.1412719587
 20
56.5599722965
 30
0.0
 40
0.2524999999999995
  0
CIRCLE
  5
52
330
1F
100
AcDbEntity
  8
0
  6
CONTINUOUS
 62
     1
100
AcDbCircle
 10
3.1412719587
 20
58.3099722965
 30
0.0
 40
0.1875000000000009
  0
CIRCLE
  5
53
330
1F
100
AcDbEntity
  8
0
  6
CONTINUOUS
 62
     1
100
AcDbCircle
 10
3.1412719587
 20
31.8099722965
 30
0.0
 40
0.1875000000000004
  0
LINE
  5
54
330
1F
100
AcDbEntity
  8
0
  6
CONTINUOUS
 62
     1
100
AcDbLine
 10
0.6412719587
 20
59.0599722965
 30
0.0
 11
5.6412719587
 21
59.0599722965
 31
0.0
  0
LINE
  5
55
330
1F
100
AcDbEntity
  8
0
  6
CONTINUOUS
 62
     1
100
AcDbLine
 10
0.6412719587
 20
32.0599722965
 30
0.0
 11
0.6412719587
 21
59.0599722965
 31
0.0
  0
LINE
  5
56
330
1F
100
AcDbEntity
  8
0
  6
CONTINUOUS
 62
     1
100
AcDbLine
 10
4.6412719587
 20
31.0599722965
 30
0.0
 11
1.6412719587
 21
31.0599722965
 31
0.0
  0
LINE
  5
57
330
1F
100
AcDbEntity
  8
0
  6
CONTINUOUS
 62
     1
100
AcDbLine
 10
5.6412719587
 20
59.0599722965
 30
0.0
 11
5.6412719587
 21
32.0599722965
 31
0.0
  0
INSERT
  5
61
330
1F
100
AcDbEntity
  8
0
  6
CONTINUOUS
 62
     7
100
AcDbBlockReference
  2
SW_HATCH_0
 10
3.1437270423
 20
58.4974562227
 30
0.0
  0
INSERT
  5
69
330
1F
100
AcDbEntity
  8
0
  6
CONTINUOUS
 62
     7
100
AcDbBlockReference
  2
SW_NOTE_1
 10
1.2287567712
 20
36.0042277898
 30
0.0
  0
ARC
  5
6A
330
1F
100
AcDbEntity
  8
0
  6
CONTINUOUS
 62
     1
100
AcDbCircle
 10
10.3755707789
 20
32.1433900165
 30
0.0
 40
0.9999999999999982
100
AcDbArc
 50
270.0
 51
0.0
  0
ARC
  5
6B
330
1F
100
AcDbEntity
  8
0
  6
CONTINUOUS
 62
     1
100
AcDbCircle
 10
7.3755707789
 20
32.1433900165
 30
0.0
 40
1.0
100
AcDbArc
 50
180.0
 51
270.0
  0
CIRCLE
  5
6C
330
1F
100
AcDbEntity
  8
0
  6
CONTINUOUS
 62
     1
100
AcDbCircle
 10
8.8755707789
 20
38.3933900165
 30
0.0
 40
0.2524999999999995
  0
CIRCLE
  5
6D
330
1F
100
AcDbEntity
  8
0
  6
CONTINUOUS
 62
     1
100
AcDbCircle
 10
8.8755707789
 20
41.8933900165
 30
0.0
 40
0.2525000000000013
  0
CIRCLE
  5
6E
330
1F
100
AcDbEntity
  8
0
  6
CONTINUOUS
 62
     1
100
AcDbCircle
 10
8.8755707789
 20
56.6433900165
 30
0.0
 40
0.2650000000000006
  0
CIRCLE
  5
6F
330
1F
100
AcDbEntity
  8
0
  6
CONTINUOUS
 62
     1
100
AcDbCircle
 10
8.8755707789
 20
31.8933900165
 30
0.0
 40
0.1875
  0
LINE
  5
70
330
1F
100
AcDbEntity
  8
0
  6
CONTINUOUS
 62
     1
100
AcDbLine
 10
10.3755707789
 20
32.6433900165
 30
0.0
 11
7.3755707789
 21
32.6433900165
 31
0.0
  0
ARC
  5
71
330
1F
100
AcDbEntity
  8
0
  6
CONTINUOUS
 62
     1
100
AcDbCircle
 10
10.3755707789
 20
32.9033900165
 30
0.0
 40
0.2599999999999998
100
AcDbArc
 50
270.0
 51
0.0
  0
LINE
  5
72
330
1F
100
AcDbEntity
  8
0
  6
CONTINUOUS
 62
     1
100
AcDbLine
 10
10.6355707789
 20
37.3833900165
 30
0.0
 11
10.6355707789
 21
32.9033900165
 31
0.0
  0
ARC
  5
73
330
1F
100
AcDbEntity
  8
0
  6
CONTINUOUS
 62
     1
100
AcDbCircle
 10
10.3755707789
 20
37.3833900165
 30
0.0
 40
0.2600000000000051
100
AcDbArc
 50
0.0
 51
90.0
  0
LINE
  5
74
330
1F
100
AcDbEntity
  8
0
  6
CONTINUOUS
 62
     1
100
AcDbLine
 10
7.3755707789
 20
37.6433900165
 30
0.0
 11
10.3755707789
 21
37.6433900165
 31
0.0
  0
ARC
  5
75
330
1F
100
AcDbEntity
  8
0
  6
CONTINUOUS
 62
     1
100
AcDbCircle
 10
7.3755707789
 20
37.3833900165
 30
0.0
 40
0.2600000000000051
100
AcDbArc
 50
90.0
 51
180.0
  0
LINE
  5
76
330
1F
100
AcDbEntity
  8
0
  6
CONTINUOUS
 62
     1
100
AcDbLine
 10
7.1155707789
 20
32.9033900165
 30
0.0
 11
7.1155707789
 21
37.3833900165
 31
0.0
  0
ARC
  5
77
330
1F
100
AcDbEntity
  8
0
  6
CONTINUOUS
 62
     1
100
AcDbCircle
 10
7.3755707789
 20
32.9033900165
 30
0.0
 40
0.2600000000000007
100
AcDbArc
 50
180.0
 51
270.0
  0
CIRCLE
  5
78
330
1F
100
AcDbEntity
  8
0
  6
CONTINUOUS
 62
     1
100
AcDbCircle
 10
8.8755707789
 20
58.3933900165
 30
0.0
 40
0.1875000000000018
  0
ARC
  5
79
330
1F
100
AcDbEntity
  8
0
  6
CONTINUOUS
 62
     1
100
AcDbCircle
 10
10.3755707789
 20
42.9033900165
 30
0.0
 40
0.2599999999999998
100
AcDbArc
 50
270.0
 51
0.0
  0
LINE
  5
7A
330
1F
100
AcDbEntity
  8
0
  6
CONTINUOUS
 62
     1
100
AcDbLine
 10
10.6355707789
 20
54.3833900165
 30
0.0
 11
10.6355707789
 21
42.9033900165
 31
0.0
  0
ARC
  5
7B
330
1F
100
AcDbEntity
  8
0
  6
CONTINUOUS
 62
     1
100
AcDbCircle
 10
10.3755707789
 20
54.3833900165
 30
0.0
 40
0.2600000000000016
100
AcDbArc
 50
0.0
 51
90.0
  0
LINE
  5
7C
330
1F
100
AcDbEntity
  8
0
  6
CONTINUOUS
 62
     1
100
AcDbLine
 10
7.3755707789
 20
54.6433900165
 30
0.0
 11
10.3755707789
 21
54.6433900165
 31
0.0
  0
ARC
  5
7D
330
1F
100
AcDbEntity
  8
0
  6
CONTINUOUS
 62
     1
100
AcDbCircle
 10
7.3755707789
 20
54.3833900165
 30
0.0
 40
0.2599999999999998
100
AcDbArc
 50
90.0
 51
180.0
  0
LINE
  5
7E
330
1F
100
AcDbEntity
  8
0
  6
CONTINUOUS
 62
     1
100
AcDbLine
 10
7.1155707789
 20
42.9033900165
 30
0.0
 11
7.1155707789
 21
54.3833900165
 31
0.0
  0
ARC
  5
7F
330
1F
100
AcDbEntity
  8
0
  6
CONTINUOUS
 62
     1
100
AcDbCircle
 10
7.3755707789
 20
42.9033900165
 30
0.0
 40
0.2600000000000025
100
AcDbArc
 50
180.0
 51
270.0
  0
LINE
  5
80
330
1F
100
AcDbEntity
  8
0
  6
CONTINUOUS
 62
     1
100
AcDbLine
 10
8.1472243222
 20
40.9033900165
 30
0.0
 11
9.6039172356
 21
40.9033900165
 31
0.0
  0
ARC
  5
81
330
1F
100
AcDbEntity
  8
0
  6
CONTINUOUS
 62
     1
100
AcDbCircle
 10
8.1472243222
 20
40.6433900165
 30
0.0
 40
0.2600000000000051
100
AcDbArc
 50
90.0
 51
270.0
  0
LINE
  5
82
330
1F
100
AcDbEntity
  8
0
  6
CONTINUOUS
 62
     1
100
AcDbLine
 10
8.1472243222
 20
39.9033900165
 30
0.0
 11
8.1472243222
 21
40.3833900165
 31
0.0
  0
ARC
  5
83
330
1F
100
AcDbEntity
  8
0
  6
CONTINUOUS
 62
     1
100
AcDbCircle
 10
8.1472243222
 20
39.6433900165
 30
0.0
 40
0.2600000000000051
100
AcDbArc
 50
90.0
 51
270.0
  0
LINE
  5
84
330
1F
100
AcDbEntity
  8
0
  6
CONTINUOUS
 62
     1
100
AcDbLine
 10
9.6039172356
 20
39.3833900165
 30
0.0
 11
8.1472243222
 21
39.3833900165
 31
0.0
  0
ARC
  5
85
330
1F
100
AcDbEntity
  8
0
  6
CONTINUOUS
 62
     1
100
AcDbCircle
 10
9.6039172356
 20
39.6433900165
 30
0.0
 40
0.2600000000000051
100
AcDbArc
 50
270.0
 51
90.0
  0
LINE
  5
86
330
1F
100
AcDbEntity
  8
0
  6
CONTINUOUS
 62
     1
100
AcDbLine
 10
9.6039172356
 20
40.3833900165
 30
0.0
 11
9.6039172356
 21
39.9033900165
 31
0.0
  0
ARC
  5
87
330
1F
100
AcDbEntity
  8
0
  6
CONTINUOUS
 62
     1
100
AcDbCircle
 10
9.6039172356
 20
40.6433900165
 30
0.0
 40
0.259999999999998
100
AcDbArc
 50
270.0
 51
90.0
  0
LINE
  5
88
330
1F
100
AcDbEntity
  8
0
  6
CONTINUOUS
 62
     1
100
AcDbLine
 10
10.3755707789
 20
42.6433900165
 30
0.0
 11
7.3755707789
 21
42.6433900165
 31
0.0
  0
LINE
  5
89
330
1F
100
AcDbEntity
  8
0
  6
CONTINUOUS
 62
     1
100
AcDbLine
 10
6.3755707789
 20
59.1433900165
 30
0.0
 11
11.3755707789
 21
59.1433900165
 31
0.0
  0
LINE
  5
8A
330
1F
100
AcDbEntity
  8
0
  6
CONTINUOUS
 62
     1
100
AcDbLine
 10
6.3755707789
 20
32.1433900165
 30
0.0
 11
6.3755707789
 21
59.1433900165
 31
0.0
  0
LINE
  5
8B
330
1F
100
AcDbEntity
  8
0
  6
CONTINUOUS
 62
     1
100
AcDbLine
 10
10.3755707789
 20
31.1433900165
 30
0.0
 11
7.3755707789
 21
31.1433900165
 31
0.0
  0
LINE
  5
8C
330
1F
100
AcDbEntity
  8
0
  6
CONTINUOUS
 62
     1
100
AcDbLine
 10
11.3755707789
 20
59.1433900165
 30
0.0
 11
11.3755707789
 21
32.1433900165
 31
0.0
  0
INSERT
  5
92
330
1F
100
AcDbEntity
  8
0
  6
CONTINUOUS
 62
     7
100
AcDbBlockReference
  2
SW_NOTE_2
 10
7.6218264556
 20
35.2017666521
 30
0.0
  0
ARC
  5
93
330
1F
100
AcDbEntity
  8
0
  6
CONTINUOUS
 62
     1
100
AcDbCircle
 10
16.2211813482
 20
32.0725143144
 30
0.0
 40
1.0
100
AcDbArc
 50
270.0
 51
0.0
  0
ARC
  5
94
330
1F
100
AcDbEntity
  8
0
  6
CONTINUOUS
 62
     1
100
AcDbCircle
 10
13.2211813482
 20
32.0725143144
 30
0.0
 40
1.000000000000002
100
AcDbArc
 50
180.0
 51
270.0
  0
CIRCLE
  5
95
330
1F
100
AcDbEntity
  8
0
  6
CONTINUOUS
 62
     1
100
AcDbCircle
 10
14.7211813482
 20
38.3225143144
 30
0.0
 40
0.2524999999999995
  0
CIRCLE
  5
96
330
1F
100
AcDbEntity
  8
0
  6
CONTINUOUS
 62
     1
100
AcDbCircle
 10
14.7211813482
 20
41.8225143144
 30
0.0
 40
0.2524999999999995
  0
LINE
  5
97
330
1F
100
AcDbEntity
  8
0
  6
CONTINUOUS
 62
     1
100
AcDbLine
 10
13.9928348915
 20
40.3125143144
 30
0.0
 11
13.9928348915
 21
39.8325143144
 31
0.0
  0
ARC
  5
98
330
1F
100
AcDbEntity
  8
0
  6
CONTINUOUS
 62
     1
100
AcDbCircle
 10
13.9928348915
 20
39.5725143144
 30
0.0
 40
0.2600000000000051
100
AcDbArc
 50
90.0
 51
270.0
  0
LINE
  5
99
330
1F
100
AcDbEntity
  8
0
  6
CONTINUOUS
 62
     1
100
AcDbLine
 10
13.9928348915
 20
39.3125143144
 30
0.0
 11
15.4495278049
 21
39.3125143144
 31
0.0
  0
ARC
  5
9A
330
1F
100
AcDbEntity
  8
0
  6
CONTINUOUS
 62
     1
100
AcDbCircle
 10
15.4495278049
 20
39.5725143144
 30
0.0
 40
0.2600000000000051
100
AcDbArc
 50
270.0
 51
90.0
  0
LINE
  5
9B
330
1F
100
AcDbEntity
  8
0
  6
CONTINUOUS
 62
     1
100
AcDbLine
 10
15.4495278049
 20
39.8325143144
 30
0.0
 11
15.4495278049
 21
40.3125143144
 31
0.0
  0
ARC
  5
9C
330
1F
100
AcDbEntity
  8
0
  6
CONTINUOUS
 62
     1
100
AcDbCircle
 10
15.4495278049
 20
40.5725143144
 30
0.0
 40
0.2600000000000051
100
AcDbArc
 50
270.0
 51
90.0
  0
LINE
  5
9D
330
1F
100
AcDbEntity
  8
0
  6
CONTINUOUS
 62
     1
100
AcDbLine
 10
15.4495278049
 20
40.8325143144
 30
0.0
 11
13.9928348915
 21
40.8325143144
 31
0.0
  0
ARC
  5
9E
330
1F
100
AcDbEntity
  8
0
  6
CONTINUOUS
 62
     1
100
AcDbCircle
 10
13.9928348915
 20
40.5725143144
 30
0.0
 40
0.2600000000000051
100
AcDbArc
 50
90.0
 51
270.0
  0
LINE
  5
9F
330
1F
100
AcDbEntity
  8
0
  6
CONTINUOUS
 62
     1
100
AcDbLine
 10
13.9928348915
 20
56.8125143144
 30
0.0
 11
13.9928348915
 21
56.3325143144
 31
0.0
  0
ARC
  5
A0
330
1F
100
AcDbEntity
  8
0
  6
CONTINUOUS
 62
     1
100
AcDbCircle
 10
13.9928348915
 20
56.0725143144
 30
0.0
 40
0.2600000000000122
100
AcDbArc
 50
90.0
 51
270.0
  0
LINE
  5
A1
330
1F
100
AcDbEntity
  8
0
  6
CONTINUOUS
 62
     1
100
AcDbLine
 10
13.9928348915
 20
55.8125143144
 30
0.0
 11
15.4495278049
 21
55.8125143144
 31
0.0
  0
ARC
  5
A2
330
1F
100
AcDbEntity
  8
0
  6
CONTINUOUS
 62
     1
100
AcDbCircle
 10
15.4495278049
 20
56.0725143144
 30
0.0
 40
0.2600000000000051
100
AcDbArc
 50
270.0
 51
90.0
  0
LINE
  5
A3
330
1F
100
AcDbEntity
  8
0
  6
CONTINUOUS
 62
     1
100
AcDbLine
 10
15.4495278049
 20
56.3325143144
 30
0.0
 11
15.4495278049
 21
56.8125143144
 31
0.0
  0
ARC
  5
A4
330
1F
100
AcDbEntity
  8
0
  6
CONTINUOUS
 62
     1
100
AcDbCircle
 10
15.4495278049
 20
57.0725143144
 30
0.0
 40
0.2600000000000051
100
AcDbArc
 50
270.0
 51
90.0
  0
ARC
  5
A5
330
1F
100
AcDbEntity
  8
0
  6
CONTINUOUS
 62
     1
100
AcDbCircle
 10
13.9928348915
 20
57.0725143144
 30
0.0
 40
0.2600000000000051
100
AcDbArc
 50
90.0
 51
270.0
  0
CIRCLE
  5
A6
330
1F
100
AcDbEntity
  8
0
  6
CONTINUOUS
 62
     1
100
AcDbCircle
 10
14.7211813482
 20
31.8225143144
 30
0.0
 40
0.1875
  0
CIRCLE
  5
A7
330
1F
100
AcDbEntity
  8
0
  6
CONTINUOUS
 62
     1
100
AcDbCircle
 10
14.7211813482
 20
58.3225143144
 30
0.0
 40
0.1875
  0
LINE
  5
A8
330
1F
100
AcDbEntity
  8
0
  6
CONTINUOUS
 62
     1
100
AcDbLine
 10
15.4495278049
 20
57.3325143144
 30
0.0
 11
13.9928348915
 21
57.3325143144
 31
0.0
  0
LINE
  5
A9
330
1F
100
AcDbEntity
  8
0
  6
CONTINUOUS
 62
     1
100
AcDbLine
 10
12.2211813482
 20
59.0725143144
 30
0.0
 11
17.2211813482
 21
59.0725143144
 31
0.0
  0
LINE
  5
AA
330
1F
100
AcDbEntity
  8
0
  6
CONTINUOUS
 62
     1
100
AcDbLine
 10
12.2211813482
 20
32.0725143144
 30
0.0
 11
12.2211813482
 21
59.0725143144
 31
0.0
  0
LINE
  5
AB
330
1F
100
AcDbEntity
  8
0
  6
CONTINUOUS
 62
     1
100
AcDbLine
 10
16.2211813482
 20
31.0725143144
 30
0.0
 11
13.2211813482
 21
31.0725143144
 31
0.0
  0
LINE
  5
AC
330
1F
100
AcDbEntity
  8
0
  6
CONTINUOUS
 62
     1
100
AcDbLine
 10
17.2211813482
 20
59.0725143144
 30
0.0
 11
17.2211813482
 21
32.0725143144
 31
0.0
  0
INSERT
  5
B6
330
1F
100
AcDbEntity
  8
0
  6
CONTINUOUS
 62
     7
100
AcDbBlockReference
  2
SW_HATCH_1
 10
14.7236364318
 20
58.5099982405
 30
0.0
  0
CIRCLE
  5
B7
330
1F
100
AcDbEntity
  8
0
  6
CONTINUOUS
 62
     1
100
AcDbCircle
 10
20.2953419101
 20
41.5336211032
 30
0.0
 40
0.6300000000000026
  0
CIRCLE
  5
B8
330
1F
100
AcDbEntity
  8
0
  6
CONTINUOUS
 62
     1
100
AcDbCircle
 10
20.2953419101
 20
38.0336211032
 30
0.0
 40
0.6300000000000026
  0
CIRCLE
  5
B9
330
1F
100
AcDbEntity
  8
0
  6
CONTINUOUS
 62
     1
100
AcDbCircle
 10
36.6703419101
 20
38.0336211032
 30
0.0
 40
0.6300000000000026
  0
CIRCLE
  5
BA
330
1F
100
AcDbEntity
  8
0
  6
CONTINUOUS
 62
     1
100
AcDbCircle
 10
36.6703419101
 20
41.5336211032
 30
0.0
 40
0.6299999999999955
  0
CIRCLE
  5
BB
330
1F
100
AcDbEntity
  8
0
  6
CONTINUOUS
 62
     1
100
AcDbCircle
 10
28.4828419101
 20
41.1586211032
 30
0.0
 40
0.2524999999999977
  0
CIRCLE
  5
BC
330
1F
100
AcDbEntity
  8
0
  6
CONTINUOUS
 62
     1
100
AcDbCircle
 10
28.4828419101
 20
38.4086211032
 30
0.0
 40
0.2524999999999977
  0
ARC
  5
BD
330
1F
100
AcDbEntity
  8
0
  6
CONTINUOUS
 62
     1
100
AcDbCircle
 10
30.0201883057
 20
30.7836211032
 30
0.0
 40
6.000000000000004
100
AcDbArc
 50
84.986886245
 51
90.0
  0
LINE
  5
BE
330
1F
100
AcDbEntity
  8
0
  6
CONTINUOUS
 62
     1
100
AcDbLine
 10
30.0201883057
 20
36.7836211032
 30
0.0
 11
26.9454955145
 21
36.7836211032
 31
0.0
  0
ARC
  5
BF
330
1F
100
AcDbEntity
  8
0
  6
CONTINUOUS
 62
     1
100
AcDbCircle
 10
26.9454955145
 20
30.7836211032
 30
0.0
 40
6.000000000000004
100
AcDbArc
 50
90.0
 51
95.013113755
  0
LINE
  5
C0
330
1F
100
AcDbEntity
  8
0
  6
CONTINUOUS
 62
     1
100
AcDbLine
 10
26.4211930282
 20
36.7606694469
 30
0.0
 11
21.2444907919
 21
36.3065727595
 31
0.0
  0
ARC
  5
C1
330
1F
100
AcDbEntity
  8
0
  6
CONTINUOUS
 62
     1
100
AcDbCircle
 10
20.7201883057
 20
42.2836211032
 30
0.0
 40
6.0
100
AcDbArc
 50
270.0
 51
275.013113755
  0
ARC
  5
C2
330
1F
100
AcDbEntity
  8
0
  6
CONTINUOUS
 62
     1
100
AcDbCircle
 10
20.7201883057
 20
37.2836211032
 30
0.0
 40
6.000000000000005
100
AcDbArc
 50
84.986886245
 51
90.0
  0
LINE
  5
C3
330
1F
100
AcDbEntity
  8
0
  6
CONTINUOUS
 62
     1
100
AcDbLine
 10
21.2444907919
 20
43.2606694469
 30
0.0
 11
26.4211930282
 21
42.8065727595
 31
0.0
  0
ARC
  5
C4
330
1F
100
AcDbEntity
  8
0
  6
CONTINUOUS
 62
     1
100
AcDbCircle
 10
26.9454955145
 20
48.7836211032
 30
0.0
 40
5.999999999999998
100
AcDbArc
 50
264.986886245
 51
270.0
  0
LINE
  5
C5
330
1F
100
AcDbEntity
  8
0
  6
CONTINUOUS
 62
     1
100
AcDbLine
 10
26.9454955145
 20
42.7836211032
 30
0.0
 11
30.0201883057
 21
42.7836211032
 31
0.0
  0
ARC
  5
C6
330
1F
100
AcDbEntity
  8
0
  6
CONTINUOUS
 62
     1
100
AcDbCircle
 10
30.0201883057
 20
48.7836211032
 30
0.0
 40
5.999999999999998
100
AcDbArc
 50
270.0
 51
275.013113755
  0
LINE
  5
C7
330
1F
100
AcDbEntity
  8
0
  6
CONTINUOUS
 62
     1
100
AcDbLine
 10
30.5444907919
 20
42.8065727595
 30
0.0
 11
35.7211930282
 21
43.2606694469
 31
0.0
  0
ARC
  5
C8
330
1F
100
AcDbEntity
  8
0
  6
CONTINUOUS
 62
     1
100
AcDbCircle
 10
36.2454955145
 20
37.2836211032
 30
0.0
 40
6.000000000000004
100
AcDbArc
 50
90.0
 51
95.013113755
  0
ARC
  5
C9
330
1F
100
AcDbEntity
  8
0
  6
CONTINUOUS
 62
     1
100
AcDbCircle
 10
36.2454955145
 20
42.2836211032
 30
0.0
 40
6.000000000000007
100
AcDbArc
 50
264.986886245
 51
270.0
  0
LINE
  5
CA
330
1F
100
AcDbEntity
  8
0
  6
CONTINUOUS
 62
     1
100
AcDbLine
 10
35.7211930282
 20
36.3065727595
 30
0.0
 11
30.5444907919
 21
36.7606694469
 31
0.0
  0
CIRCLE
  5
CB
330
1F
100
AcDbEntity
  8
0
  6
CONTINUOUS
 62
     1
100
AcDbCircle
 10
19.2953419101
 20
39.7836211032
 30
0.0
 40
0.1875
  0
CIRCLE
  5
CC
330
1F
100
AcDbEntity
  8
0
  6
CONTINUOUS
 62
     1
100
AcDbCircle
 10
37.6703419101
 20
39.7836211032
 30
0.0
 40
0.1875
  0
LINE
  5
CD
330
1F
100
AcDbEntity
  8
0
  6
CONTINUOUS
 62
     1
100
AcDbLine
 10
20.7201883057
 20
43.2836211032
 30
0.0
 11
18.2953419101
 21
43.2836211032
 31
0.0
  0
LINE
  5
CE
330
1F
100
AcDbEntity
  8
0
  6
CONTINUOUS
 62
     1
100
AcDbLine
 10
38.6703419101
 20
36.2836211032
 30
0.0
 11
38.6703419101
 21
43.2836211032
 31
0.0
  0
LINE
  5
CF
330
1F
100
AcDbEntity
  8
0
  6
CONTINUOUS
 62
     1
100
AcDbLine
 10
36.2454955145
 20
36.2836211032
 30
0.0
 11
38.6703419101
 21
36.2836211032
 31
0.0
  0
LINE
  5
D0
330
1F
100
AcDbEntity
  8
0
  6
CONTINUOUS
 62
     1
100
AcDbLine
 10
18.2953419101
 20
43.2836211032
 30
0.0
 11
18.2953419101
 21
36.2836211032
 31
0.0
  0
LINE
  5
D1
330
1F
100
AcDbEntity
  8
0
  6
CONTINUOUS
 62
     1
100
AcDbLine
 10
38.6703419101
 20
43.2836211032
 30
0.0
 11
36.2454955145
 21
43.2836211032
 31
0.0
  0
LINE
  5
D2
330
1F
100
AcDbEntity
  8
0
  6
CONTINUOUS
 62
     1
100
AcDbLine
 10
18.2953419101
 20
36.2836211032
 30
0.0
 11
20.7201883057
 21
36.2836211032
 31
0.0
  0
INSERT
  5
DC
330
1F
100
AcDbEntity
  8
0
  6
CONTINUOUS
 62
     7
100
AcDbBlockReference
  2
SW_HATCH_2
 10
19.3010889624
 20
39.9710330062
 30
0.0
  0
INSERT
  5
E3
330
1F
100
AcDbEntity
  8
0
  6
CONTINUOUS
 62
     7
100
AcDbBlockReference
  2
SW_NOTE_3
 10
22.5882473916
 20
32.7474851439
 30
0.0
  0
INSERT
  5
EA
330
1F
100
AcDbEntity
  8
0
  6
CONTINUOUS
 62
     7
100
AcDbBlockReference
  2
SW_NOTE_4
 10
21.8429956867
 20
39.9540861121
 30
0.0
  0
CIRCLE
  5
EB
330
1F
100
AcDbEntity
  8
0
  6
CONTINUOUS
 62
     1
100
AcDbCircle
 10
20.1787027155
 20
57.2448055022
 30
0.0
 40
0.6300000000000026
  0
CIRCLE
  5
EC
330
1F
100
AcDbEntity
  8
0
  6
CONTINUOUS
 62
     1
100
AcDbCircle
 10
20.1787027155
 20
53.7448055022
 30
0.0
 40
0.6300000000000026
  0
CIRCLE
  5
ED
330
1F
100
AcDbEntity
  8
0
  6
CONTINUOUS
 62
     1
100
AcDbCircle
 10
36.5537027155
 20
53.7448055022
 30
0.0
 40
0.6299999999999955
  0
CIRCLE
  5
EE
330
1F
100
AcDbEntity
  8
0
  6
CONTINUOUS
 62
     1
100
AcDbCircle
 10
36.5537027155
 20
57.2448055022
 30
0.0
 40
0.6300000000000026
  0
CIRCLE
  5
EF
330
1F
100
AcDbEntity
  8
0
  6
CONTINUOUS
 62
     1
100
AcDbCircle
 10
28.3662027155
 20
56.8698055022
 30
0.0
 40
0.2525000000000013
  0
CIRCLE
  5
F0
330
1F
100
AcDbEntity
  8
0
  6
CONTINUOUS
 62
     1
100
AcDbCircle
 10
28.3662027155
 20
54.1198055022
 30
0.0
 40
0.2525000000000013
  0
ARC
  5
F1
330
1F
100
AcDbEntity
  8
0
  6
CONTINUOUS
 62
     1
100
AcDbCircle
 10
29.9035491111
 20
46.4948055022
 30
0.0
 40
5.999999999999998
100
AcDbArc
 50
84.986886245
 51
90.0
  0
LINE
  5
F2
330
1F
100
AcDbEntity
  8
0
  6
CONTINUOUS
 62
     1
100
AcDbLine
 10
29.9035491111
 20
52.4948055022
 30
0.0
 11
26.82885632
 21
52.4948055022
 31
0.0
  0
ARC
  5
F3
330
1F
100
AcDbEntity
  8
0
  6
CONTINUOUS
 62
     1
100
AcDbCircle
 10
26.82885632
 20
46.4948055022
 30
0.0
 40
5.999999999999999
100
AcDbArc
 50
90.0
 51
95.013113755
  0
LINE
  5
F4
330
1F
100
AcDbEntity
  8
0
  6
CONTINUOUS
 62
     1
100
AcDbLine
 10
26.3045538337
 20
52.4718538459
 30
0.0
 11
21.1278515974
 21
52.0177571585
 31
0.0
  0
ARC
  5
F5
330
1F
100
AcDbEntity
  8
0
  6
CONTINUOUS
 62
     1
100
AcDbCircle
 10
20.6035491111
 20
57.9948055022
 30
0.0
 40
5.999999999999998
100
AcDbArc
 50
270.0
 51
275.013113755
  0
ARC
  5
F6
330
1F
100
AcDbEntity
  8
0
  6
CONTINUOUS
 62
     1
100
AcDbCircle
 10
20.6035491111
 20
52.9948055022
 30
0.0
 40
6.0
100
AcDbArc
 50
84.986886245
 51
90.0
  0
LINE
  5
F7
330
1F
100
AcDbEntity
  8
0
  6
CONTINUOUS
 62
     1
100
AcDbLine
 10
21.1278515974
 20
58.9718538459
 30
0.0
 11
26.3045538337
 21
58.5177571585
 31
0.0
  0
ARC
  5
F8
330
1F
100
AcDbEntity
  8
0
  6
CONTINUOUS
 62
     1
100
AcDbCircle
 10
26.82885632
 20
64.4948055022
 30
0.0
 40
5.999999999999997
100
AcDbArc
 50
264.986886245
 51
270.0
  0
LINE
  5
F9
330
1F
100
AcDbEntity
  8
0
  6
CONTINUOUS
 62
     1
100
AcDbLine
 10
26.82885632
 20
58.4948055022
 30
0.0
 11
29.9035491111
 21
58.4948055022
 31
0.0
  0
ARC
  5
FA
330
1F
100
AcDbEntity
  8
0
  6
CONTINUOUS
 62
     1
100
AcDbCircle
 10
29.9035491111
 20
64.4948055022
 30
0.0
 40
5.999999999999998
100
AcDbArc
 50
270.0
 51
275.013113755
  0
LINE
  5
FB
330
1F
100
AcDbEntity
  8
0
  6
CONTINUOUS
 62
     1
100
AcDbLine
 10
30.4278515974
 20
58.5177571585
 30
0.0
 11
35.6045538337
 21
58.9718538459
 31
0.0
  0
ARC
  5
FC
330
1F
100
AcDbEntity
  8
0
  6
CONTINUOUS
 62
     1
100
AcDbCircle
 10
36.12885632
 20
52.9948055022
 30
0.0
 40
5.999999999999998
100
AcDbArc
 50
90.0
 51
95.013113755
  0
ARC
  5
FD
330
1F
100
AcDbEntity
  8
0
  6
CONTINUOUS
 62
     1
100
AcDbCircle
 10
36.12885632
 20
57.9948055022
 30
0.0
 40
6.0
100
AcDbArc
 50
264.986886245
 51
270.0
  0
LINE
  5
FE
330
1F
100
AcDbEntity
  8
0
  6
CONTINUOUS
 62
     1
100
AcDbLine
 10
35.6045538337
 20
52.0177571585
 30
0.0
 11
30.4278515974
 21
52.4718538459
 31
0.0
  0
LINE
  5
FF
330
1F
100
AcDbEntity
  8
0
  6
CONTINUOUS
 62
     1
100
AcDbLine
 10
29.0945491722
 20
56.0048055022
 30
0.0
 11
27.6378562589
 21
56.0048055022
 31
0.0
  0
ARC
  5
100
330
1F
100
AcDbEntity
  8
0
  6
CONTINUOUS
 62
     1
100
AcDbCircle
 10
27.6378562589
 20
55.7448055022
 30
0.0
 40
0.259999999999998
100
AcDbArc
 50
90.0
 51
180.0
  0
LINE
  5
101
330
1F
100
AcDbEntity
  8
0
  6
CONTINUOUS
 62
     1
100
AcDbLine
 10
27.3778562589
 20
55.7448055022
 30
0.0
 11
27.3778562589
 21
55.2448055022
 31
0.0
  0
ARC
  5
102
330
1F
100
AcDbEntity
  8
0
  6
CONTINUOUS
 62
     1
100
AcDbCircle
 10
27.6378562589
 20
55.2448055022
 30
0.0
 40
0.259999999999998
100
AcDbArc
 50
180.0
 51
270.0
  0
LINE
  5
103
330
1F
100
AcDbEntity
  8
0
  6
CONTINUOUS
 62
     1
100
AcDbLine
 10
27.6378562589
 20
54.9848055022
 30
0.0
 11
29.0945491722
 21
54.9848055022
 31
0.0
  0
ARC
  5
104
330
1F
100
AcDbEntity
  8
0
  6
CONTINUOUS
 62
     1
100
AcDbCircle
 10
29.0945491722
 20
55.2448055022
 30
0.0
 40
0.259999999999998
100
AcDbArc
 50
270.0
 51
0.0
  0
LINE
  5
105
330
1F
100
AcDbEntity
  8
0
  6
CONTINUOUS
 62
     1
100
AcDbLine
 10
29.3545491722
 20
55.2448055022
 30
0.0
 11
29.3545491722
 21
55.7448055022
 31
0.0
  0
ARC
  5
106
330
1F
100
AcDbEntity
  8
0
  6
CONTINUOUS
 62
     1
100
AcDbCircle
 10
29.0945491722
 20
55.7448055022
 30
0.0
 40
0.259999999999998
100
AcDbArc
 50
0.0
 51
90.0
  0
CIRCLE
  5
107
330
1F
100
AcDbEntity
  8
0
  6
CONTINUOUS
 62
     1
100
AcDbCircle
 10
19.1787027155
 20
55.4948055022
 30
0.0
 40
0.1875
  0
CIRCLE
  5
108
330
1F
100
AcDbEntity
  8
0
  6
CONTINUOUS
 62
     1
100
AcDbCircle
 10
37.5537027155
 20
55.4948055022
 30
0.0
 40
0.1875
  0
LINE
  5
109
330
1F
100
AcDbEntity
  8
0
  6
CONTINUOUS
 62
     1
100
AcDbLine
 10
20.6035491111
 20
58.9948055022
 30
0.0
 11
18.1787027155
 21
58.9948055022
 31
0.0
  0
LINE
  5
10A
330
1F
100
AcDbEntity
  8
0
  6
CONTINUOUS
 62
     1
100
AcDbLine
 10
38.5537027155
 20
51.9948055022
 30
0.0
 11
38.5537027155
 21
58.9948055022
 31
0.0
  0
LINE
  5
10B
330
1F
100
AcDbEntity
  8
0
  6
CONTINUOUS
 62
     1
100
AcDbLine
 10
36.12885632
 20
51.9948055022
 30
0.0
 11
38.5537027155
 21
51.9948055022
 31
0.0
  0
LINE
  5
10C
330
1F
100
AcDbEntity
  8
0
  6
CONTINUOUS
 62
     1
100
AcDbLine
 10
18.1787027155
 20
58.9948055022
 30
0.0
 11
18.1787027155
 21
51.9948055022
 31
0.0
  0
LINE
  5
10D
330
1F
100
AcDbEntity
  8
0
  6
CONTINUOUS
 62
     1
100
AcDbLine
 10
38.5537027155
 20
58.9948055022
 30
0.0
 11
36.12885632
 21
58.9948055022
 31
0.0
  0
LINE
  5
10E
330
1F
100
AcDbEntity
  8
0
  6
CONTINUOUS
 62
     1
100
AcDbLine
 10
18.1787027155
 20
51.9948055022
 30
0.0
 11
20.6035491111
 21
51.9948055022
 31
0.0
  0
INSERT
  5
118
330
1F
100
AcDbEntity
  8
0
  6
CONTINUOUS
 62
     7
100
AcDbBlockReference
  2
SW_HATCH_3
 10
19.1844497678
 20
55.6822174052
 30
0.0
  0
DIMENSION
  5
119
330
1F
100
AcDbEntity
  8
0
  6
CONTINUOUS
 62
     7
100
AcDbDimension
  2
*D10
 10
30.1973457186
 20
56.0048055022
 30
0.0
 11
30.1973457186
 21
55.4667647938
 31
0.0
 70
   160
  3
SLDDIMSTYLE0
100
AcDbAlignedDimension
 13
29.0945491722
 23
54.9848055022
 33
0.0
 14
29.0945491722
 24
56.0048055022
 34
0.0
 50
90.0
100
AcDbRotatedDimension
  0
INSERT
  5
12C
330
1F
100
AcDbEntity
  8
0
  6
CONTINUOUS
 62
     7
100
AcDbBlockReference
  2
SW_NOTE_5
 10
21.0587079352
 20
55.769354976
 30
0.0
  0
CIRCLE
  5
12D
330
1F
100
AcDbEntity
  8
0
  6
CONTINUOUS
 62
     1
100
AcDbCircle
 10
28.4151393334
 20
48.9855477885
 30
0.0
 40
0.2524999999999977
  0
CIRCLE
  5
12E
330
1F
100
AcDbEntity
  8
0
  6
CONTINUOUS
 62
     1
100
AcDbCircle
 10
28.4151393334
 20
46.2355477885
 30
0.0
 40
0.2524999999999977
  0
LINE
  5
12F
330
1F
100
AcDbEntity
  8
0
  6
CONTINUOUS
 62
     1
100
AcDbLine
 10
17.8276393334
 20
46.8605477885
 30
0.0
 11
18.2276393334
 21
46.8605477885
 31
0.0
  0
LINE
  5
130
330
1F
100
AcDbEntity
  8
0
  6
CONTINUOUS
 62
     1
100
AcDbLine
 10
17.5776393334
 20
47.1105477885
 30
0.0
 11
17.8276393334
 21
46.8605477885
 31
0.0
  0
LINE
  5
131
330
1F
100
AcDbEntity
  8
0
  6
CONTINUOUS
 62
     1
100
AcDbLine
 10
17.5776393334
 20
48.1105477885
 30
0.0
 11
17.5776393334
 21
47.1105477885
 31
0.0
  0
LINE
  5
132
330
1F
100
AcDbEntity
  8
0
  6
CONTINUOUS
 62
     1
100
AcDbLine
 10
17.8276393334
 20
48.3605477885
 30
0.0
 11
17.5776393334
 21
48.1105477885
 31
0.0
  0
LINE
  5
133
330
1F
100
AcDbEntity
  8
0
  6
CONTINUOUS
 62
     1
100
AcDbLine
 10
18.2276393334
 20
48.3605477885
 30
0.0
 11
17.8276393334
 21
48.3605477885
 31
0.0
  0
ARC
  5
134
330
1F
100
AcDbEntity
  8
0
  6
CONTINUOUS
 62
     1
100
AcDbCircle
 10
18.2276393334
 20
48.6205477885
 30
0.0
 40
0.2600000000000051
100
AcDbArc
 50
270.0
 51
90.0
  0
LINE
  5
135
330
1F
100
AcDbEntity
  8
0
  6
CONTINUOUS
 62
     1
100
AcDbLine
 10
18.2276393334
 20
49.1055477885
 30
0.0
 11
19.6515534023
 21
49.1055477885
 31
0.0
  0
ARC
  5
136
330
1F
100
AcDbEntity
  8
0
  6
CONTINUOUS
 62
     1
100
AcDbCircle
 10
20.2276393334
 20
49.3605477885
 30
0.0
 40
0.63
100
AcDbArc
 50
203.8762077306
 51
156.1237922694
  0
LINE
  5
137
330
1F
100
AcDbEntity
  8
0
  6
CONTINUOUS
 62
     1
100
AcDbLine
 10
19.6515534023
 20
49.6155477885
 30
0.0
 11
18.2276393334
 21
49.6155477885
 31
0.0
  0
ARC
  5
138
330
1F
100
AcDbEntity
  8
0
  6
CONTINUOUS
 62
     1
100
AcDbCircle
 10
20.652485729
 20
45.1105477885
 30
0.0
 40
6.000000000000012
100
AcDbArc
 50
84.986886245
 51
90.0
  0
LINE
  5
139
330
1F
100
AcDbEntity
  8
0
  6
CONTINUOUS
 62
     1
100
AcDbLine
 10
21.1767882153
 20
51.0875961322
 30
0.0
 11
26.3534904516
 21
50.6334994448
 31
0.0
  0
ARC
  5
13A
330
1F
100
AcDbEntity
  8
0
  6
CONTINUOUS
 62
     1
100
AcDbCircle
 10
26.8777929378
 20
56.6105477885
 30
0.0
 40
5.999999999999998
100
AcDbArc
 50
264.986886245
 51
270.0
  0
LINE
  5
13B
330
1F
100
AcDbEntity
  8
0
  6
CONTINUOUS
 62
     1
100
AcDbLine
 10
26.8777929378
 20
50.6105477885
 30
0.0
 11
29.952485729
 21
50.6105477885
 31
0.0
  0
ARC
  5
13C
330
1F
100
AcDbEntity
  8
0
  6
CONTINUOUS
 62
     1
100
AcDbCircle
 10
29.952485729
 20
56.6105477885
 30
0.0
 40
5.999999999999998
100
AcDbArc
 50
270.0
 51
275.013113755
  0
LINE
  5
13D
330
1F
100
AcDbEntity
  8
0
  6
CONTINUOUS
 62
     1
100
AcDbLine
 10
30.4767882153
 20
50.6334994448
 30
0.0
 11
35.6534904516
 21
51.0875961322
 31
0.0
  0
ARC
  5
13E
330
1F
100
AcDbEntity
  8
0
  6
CONTINUOUS
 62
     1
100
AcDbCircle
 10
36.1777929378
 20
45.1105477885
 30
0.0
 40
6.000000000000005
100
AcDbArc
 50
90.0
 51
95.013113755
  0
LINE
  5
13F
330
1F
100
AcDbEntity
  8
0
  6
CONTINUOUS
 62
     1
100
AcDbLine
 10
38.6026393334
 20
49.6155477885
 30
0.0
 11
37.1787252645
 21
49.6155477885
 31
0.0
  0
ARC
  5
140
330
1F
100
AcDbEntity
  8
0
  6
CONTINUOUS
 62
     1
100
AcDbCircle
 10
36.6026393334
 20
49.3605477885
 30
0.0
 40
0.6299999999999968
100
AcDbArc
 50
23.8762077306
 51
336.1237922695
  0
LINE
  5
141
330
1F
100
AcDbEntity
  8
0
  6
CONTINUOUS
 62
     1
100
AcDbLine
 10
37.1787252645
 20
49.1055477885
 30
0.0
 11
38.6026393334
 21
49.1055477885
 31
0.0
  0
ARC
  5
142
330
1F
100
AcDbEntity
  8
0
  6
CONTINUOUS
 62
     1
100
AcDbCircle
 10
38.6026393334
 20
48.6205477885
 30
0.0
 40
0.2600000000000122
100
AcDbArc
 50
90.0
 51
270.0
  0
LINE
  5
143
330
1F
100
AcDbEntity
  8
0
  6
CONTINUOUS
 62
     1
100
AcDbLine
 10
39.0026393334
 20
48.3605477885
 30
0.0
 11
38.6026393334
 21
48.3605477885
 31
0.0
  0
LINE
  5
144
330
1F
100
AcDbEntity
  8
0
  6
CONTINUOUS
 62
     1
100
AcDbLine
 10
39.2526393334
 20
48.1105477885
 30
0.0
 11
39.0026393334
 21
48.3605477885
 31
0.0
  0
LINE
  5
145
330
1F
100
AcDbEntity
  8
0
  6
CONTINUOUS
 62
     1
100
AcDbLine
 10
39.2526393334
 20
47.1105477885
 30
0.0
 11
39.2526393334
 21
48.1105477885
 31
0.0
  0
LINE
  5
146
330
1F
100
AcDbEntity
  8
0
  6
CONTINUOUS
 62
     1
100
AcDbLine
 10
39.0026393334
 20
46.8605477885
 30
0.0
 11
39.2526393334
 21
47.1105477885
 31
0.0
  0
LINE
  5
147
330
1F
100
AcDbEntity
  8
0
  6
CONTINUOUS
 62
     1
100
AcDbLine
 10
38.6026393334
 20
46.8605477885
 30
0.0
 11
39.0026393334
 21
46.8605477885
 31
0.0
  0
ARC
  5
148
330
1F
100
AcDbEntity
  8
0
  6
CONTINUOUS
 62
     1
100
AcDbCircle
 10
38.6026393334
 20
46.6005477885
 30
0.0
 40
0.2600000000000051
100
AcDbArc
 50
90.0
 51
270.0
  0
LINE
  5
149
330
1F
100
AcDbEntity
  8
0
  6
CONTINUOUS
 62
     1
100
AcDbLine
 10
38.6026393334
 20
46.1155477885
 30
0.0
 11
37.1787252645
 21
46.1155477885
 31
0.0
  0
ARC
  5
14A
330
1F
100
AcDbEntity
  8
0
  6
CONTINUOUS
 62
     1
100
AcDbCircle
 10
36.6026393334
 20
45.8605477885
 30
0.0
 40
0.630000000000004
100
AcDbArc
 50
23.8762077305
 51
336.1237922694
  0
LINE
  5
14B
330
1F
100
AcDbEntity
  8
0
  6
CONTINUOUS
 62
     1
100
AcDbLine
 10
37.1787252645
 20
45.6055477885
 30
0.0
 11
38.6026393334
 21
45.6055477885
 31
0.0
  0
ARC
  5
14C
330
1F
100
AcDbEntity
  8
0
  6
CONTINUOUS
 62
     1
100
AcDbCircle
 10
36.1777929378
 20
50.1105477885
 30
0.0
 40
6.0
100
AcDbArc
 50
264.986886245
 51
270.0
  0
LINE
  5
14D
330
1F
100
AcDbEntity
  8
0
  6
CONTINUOUS
 62
     1
100
AcDbLine
 10
35.6534904516
 20
44.1334994448
 30
0.0
 11
30.4767882153
 21
44.5875961322
 31
0.0
  0
ARC
  5
14E
330
1F
100
AcDbEntity
  8
0
  6
CONTINUOUS
 62
     1
100
AcDbCircle
 10
29.952485729
 20
38.6105477885
 30
0.0
 40
6.0
100
AcDbArc
 50
84.986886245
 51
90.0
  0
LINE
  5
14F
330
1F
100
AcDbEntity
  8
0
  6
CONTINUOUS
 62
     1
100
AcDbLine
 10
29.952485729
 20
44.6105477885
 30
0.0
 11
26.8777929378
 21
44.6105477885
 31
0.0
  0
ARC
  5
150
330
1F
100
AcDbEntity
  8
0
  6
CONTINUOUS
 62
     1
100
AcDbCircle
 10
26.8777929378
 20
38.6105477885
 30
0.0
 40
6.0
100
AcDbArc
 50
90.0
 51
95.013113755
  0
LINE
  5
151
330
1F
100
AcDbEntity
  8
0
  6
CONTINUOUS
 62
     1
100
AcDbLine
 10
26.3534904516
 20
44.5875961322
 30
0.0
 11
21.1767882153
 21
44.1334994448
 31
0.0
  0
ARC
  5
152
330
1F
100
AcDbEntity
  8
0
  6
CONTINUOUS
 62
     1
100
AcDbCircle
 10
20.652485729
 20
50.1105477885
 30
0.0
 40
5.999999999999998
100
AcDbArc
 50
270.0
 51
275.013113755
  0
LINE
  5
153
330
1F
100
AcDbEntity
  8
0
  6
CONTINUOUS
 62
     1
100
AcDbLine
 10
18.2276393334
 20
45.6055477885
 30
0.0
 11
19.6515534023
 21
45.6055477885
 31
0.0
  0
ARC
  5
154
330
1F
100
AcDbEntity
  8
0
  6
CONTINUOUS
 62
     1
100
AcDbCircle
 10
20.2276393334
 20
45.8605477885
 30
0.0
 40
0.63
100
AcDbArc
 50
203.8762077306
 51
156.1237922694
  0
LINE
  5
155
330
1F
100
AcDbEntity
  8
0
  6
CONTINUOUS
 62
     1
100
AcDbLine
 10
19.6515534023
 20
46.1155477885
 30
0.0
 11
18.2276393334
 21
46.1155477885
 31
0.0
  0
ARC
  5
156
330
1F
100
AcDbEntity
  8
0
  6
CONTINUOUS
 62
     1
100
AcDbCircle
 10
18.2276393334
 20
46.6005477885
 30
0.0
 40
0.259999999999998
100
AcDbArc
 50
270.0
 51
90.0
  0
LINE
  5
157
330
1F
100
AcDbEntity
  8
0
  6
CONTINUOUS
 62
     1
100
AcDbLine
 10
27.4278591078
 20
49.4698008033
 30
0.0
 11
21.9478591078
 21
49.9505025577
 31
0.0
  0
ARC
  5
158
330
1F
100
AcDbEntity
  8
0
  6
CONTINUOUS
 62
     1
100
AcDbCircle
 10
21.9251393334
 20
49.6914971295
 30
0.0
 40
0.259999999999998
100
AcDbArc
 50
84.986886245
 51
180.0
  0
LINE
  5
159
330
1F
100
AcDbEntity
  8
0
  6
CONTINUOUS
 62
     1
100
AcDbLine
 10
21.6651393334
 20
49.6914971295
 30
0.0
 11
21.6651393334
 21
45.5295984476
 31
0.0
  0
ARC
  5
15A
330
1F
100
AcDbEntity
  8
0
  6
CONTINUOUS
 62
     1
100
AcDbCircle
 10
21.9251393334
 20
45.5295984476
 30
0.0
 40
0.2600000000000023
100
AcDbArc
 50
180.0
 51
275.013113755
  0
LINE
  5
15B
330
1F
100
AcDbEntity
  8
0
  6
CONTINUOUS
 62
     1
100
AcDbLine
 10
21.9478591078
 20
45.2705930193
 30
0.0
 11
27.4278591078
 21
45.7512947737
 31
0.0
  0
ARC
  5
15C
330
1F
100
AcDbEntity
  8
0
  6
CONTINUOUS
 62
     1
100
AcDbCircle
 10
27.4051393334
 20
46.010300202
 30
0.0
 40
0.2600000000000016
100
AcDbArc
 50
275.013113755
 51
0.0
  0
LINE
  5
15D
330
1F
100
AcDbEntity
  8
0
  6
CONTINUOUS
 62
     1
100
AcDbLine
 10
27.6651393334
 20
46.010300202
 30
0.0
 11
27.6651393334
 21
49.2107953751
 31
0.0
  0
ARC
  5
15E
330
1F
100
AcDbEntity
  8
0
  6
CONTINUOUS
 62
     1
100
AcDbCircle
 10
27.4051393334
 20
49.2107953751
 30
0.0
 40
0.2600000000000027
100
AcDbArc
 50
0.0
 51
84.986886245
  0
LINE
  5
15F
330
1F
100
AcDbEntity
  8
0
  6
CONTINUOUS
 62
     1
100
AcDbLine
 10
29.402419559
 20
45.7512947737
 30
0.0
 11
34.882419559
 21
45.2705930193
 31
0.0
  0
ARC
  5
160
330
1F
100
AcDbEntity
  8
0
  6
CONTINUOUS
 62
     1
100
AcDbCircle
 10
34.9051393334
 20
45.5295984476
 30
0.0
 40
0.2600000000000027
100
AcDbArc
 50
264.986886245
 51
0.0
  0
LINE
  5
161
330
1F
100
AcDbEntity
  8
0
  6
CONTINUOUS
 62
     1
100
AcDbLine
 10
35.1651393334
 20
45.5295984476
 30
0.0
 11
35.1651393334
 21
49.6914971295
 31
0.0
  0
ARC
  5
162
330
1F
100
AcDbEntity
  8
0
  6
CONTINUOUS
 62
     1
100
AcDbCircle
 10
34.9051393334
 20
49.6914971295
 30
0.0
 40
0.2600000000000027
100
AcDbArc
 50
360.0
 51
95.013113755
  0
LINE
  5
163
330
1F
100
AcDbEntity
  8
0
  6
CONTINUOUS
 62
     1
100
AcDbLine
 10
34.882419559
 20
49.9505025577
 30
0.0
 11
29.402419559
 21
49.4698008033
 31
0.0
  0
ARC
  5
164
330
1F
100
AcDbEntity
  8
0
  6
CONTINUOUS
 62
     1
100
AcDbCircle
 10
29.4251393334
 20
49.2107953751
 30
0.0
 40
0.2600000000000094
100
AcDbArc
 50
95.013113755
 51
180.0
  0
LINE
  5
165
330
1F
100
AcDbEntity
  8
0
  6
CONTINUOUS
 62
     1
100
AcDbLine
 10
29.1651393334
 20
49.2107953751
 30
0.0
 11
29.1651393334
 21
46.010300202
 31
0.0
  0
ARC
  5
166
330
1F
100
AcDbEntity
  8
0
  6
CONTINUOUS
 62
     1
100
AcDbCircle
 10
29.4251393334
 20
46.010300202
 30
0.0
 40
0.259999999999998
100
AcDbArc
 50
180.0
 51
264.986886245
  0
CIRCLE
  5
167
330
1F
100
AcDbEntity
  8
0
  6
CONTINUOUS
 62
     1
100
AcDbCircle
 10
19.2276393334
 20
47.6105477885
 30
0.0
 40
0.1875
  0
CIRCLE
  5
168
330
1F
100
AcDbEntity
  8
0
  6
CONTINUOUS
 62
     1
100
AcDbCircle
 10
37.6026393334
 20
47.6105477885
 30
0.0
 40
0.1875
  0
LINE
  5
169
330
1F
100
AcDbEntity
  8
0
  6
CONTINUOUS
 62
     1
100
AcDbLine
 10
20.652485729
 20
51.1105477885
 30
0.0
 11
18.2276393334
 21
51.1105477885
 31
0.0
  0
LINE
  5
16A
330
1F
100
AcDbEntity
  8
0
  6
CONTINUOUS
 62
     1
100
AcDbLine
 10
38.6026393334
 20
44.1105477885
 30
0.0
 11
38.6026393334
 21
45.6055477885
 31
0.0
  0
LINE
  5
16B
330
1F
100
AcDbEntity
  8
0
  6
CONTINUOUS
 62
     1
100
AcDbLine
 10
38.6026393334
 20
46.1155477885
 30
0.0
 11
38.6026393334
 21
46.3405477885
 31
0.0
  0
LINE
  5
16C
330
1F
100
AcDbEntity
  8
0
  6
CONTINUOUS
 62
     1
100
AcDbLine
 10
36.1777929378
 20
44.1105477885
 30
0.0
 11
38.6026393334
 21
44.1105477885
 31
0.0
  0
LINE
  5
16D
330
1F
100
AcDbEntity
  8
0
  6
CONTINUOUS
 62
     1
100
AcDbLine
 10
18.2276393334
 20
51.1105477885
 30
0.0
 11
18.2276393334
 21
49.6155477885
 31
0.0
  0
LINE
  5
16E
330
1F
100
AcDbEntity
  8
0
  6
CONTINUOUS
 62
     1
100
AcDbLine
 10
18.2276393334
 20
49.1055477885
 30
0.0
 11
18.2276393334
 21
48.8805477885
 31
0.0
  0
LINE
  5
16F
330
1F
100
AcDbEntity
  8
0
  6
CONTINUOUS
 62
     1
100
AcDbLine
 10
38.6026393334
 20
51.1105477885
 30
0.0
 11
36.1777929378
 21
51.1105477885
 31
0.0
  0
LINE
  5
170
330
1F
100
AcDbEntity
  8
0
  6
CONTINUOUS
 62
     1
100
AcDbLine
 10
18.2276393334
 20
44.1105477885
 30
0.0
 11
20.652485729
 21
44.1105477885
 31
0.0
  0
LINE
  5
171
330
1F
100
AcDbEntity
  8
0
  6
CONTINUOUS
 62
     1
100
AcDbLine
 10
18.2276393334
 20
45.6055477885
 30
0.0
 11
18.2276393334
 21
44.1105477885
 31
0.0
  0
LINE
  5
172
330
1F
100
AcDbEntity
  8
0
  6
CONTINUOUS
 62
     1
100
AcDbLine
 10
18.2276393334
 20
46.3405477885
 30
0.0
 11
18.2276393334
 21
46.1155477885
 31
0.0
  0
LINE
  5
173
330
1F
100
AcDbEntity
  8
0
  6
CONTINUOUS
 62
     1
100
AcDbLine
 10
38.6026393334
 20
49.6155477885
 30
0.0
 11
38.6026393334
 21
51.1105477885
 31
0.0
  0
LINE
  5
174
330
1F
100
AcDbEntity
  8
0
  6
CONTINUOUS
 62
     1
100
AcDbLine
 10
38.6026393334
 20
48.8805477885
 30
0.0
 11
38.6026393334
 21
49.1055477885
 31
0.0
  0
ARC
  5
175
330
1F
100
AcDbEntity
  8
0
  6
CONTINUOUS
 62
     1
100
AcDbCircle
 10
20.2276393334
 20
45.8605477885
 30
0.0
 40
0.63
100
AcDbArc
 50
156.1237922694
 51
203.8762077306
  0
LINE
  5
176
330
1F
100
AcDbEntity
  8
0
  6
CONTINUOUS
 62
     1
100
AcDbLine
 10
18.2276393334
 20
45.6055477885
 30
0.0
 11
18.2276393334
 21
46.1155477885
 31
0.0
  0
ARC
  5
177
330
1F
100
AcDbEntity
  8
0
  6
CONTINUOUS
 62
     1
100
AcDbCircle
 10
36.6026393334
 20
45.8605477885
 30
0.0
 40
0.630000000000004
100
AcDbArc
 50
336.1237922694
 51
23.8762077305
  0
LINE
  5
178
330
1F
100
AcDbEntity
  8
0
  6
CONTINUOUS
 62
     1
100
AcDbLine
 10
38.6026393334
 20
45.6055477885
 30
0.0
 11
38.6026393334
 21
46.1155477885
 31
0.0
  0
ARC
  5
179
330
1F
100
AcDbEntity
  8
0
  6
CONTINUOUS
 62
     1
100
AcDbCircle
 10
36.6026393334
 20
49.3605477885
 30
0.0
 40
0.6299999999999968
100
AcDbArc
 50
336.1237922695
 51
23.8762077306
  0
LINE
  5
17A
330
1F
100
AcDbEntity
  8
0
  6
CONTINUOUS
 62
     1
100
AcDbLine
 10
38.6026393334
 20
49.6155477885
 30
0.0
 11
38.6026393334
 21
49.1055477885
 31
0.0
  0
ARC
  5
17B
330
1F
100
AcDbEntity
  8
0
  6
CONTINUOUS
 62
     1
100
AcDbCircle
 10
20.2276393334
 20
49.3605477885
 30
0.0
 40
0.63
100
AcDbArc
 50
156.1237922694
 51
203.8762077306
  0
LINE
  5
17C
330
1F
100
AcDbEntity
  8
0
  6
CONTINUOUS
 62
     1
100
AcDbLine
 10
18.2276393334
 20
49.6155477885
 30
0.0
 11
18.2276393334
 21
49.1055477885
 31
0.0
  0
INSERT
  5
1AA
330
1F
100
AcDbEntity
  8
0
  6
CONTINUOUS
 62
     7
100
AcDbBlockReference
  2
SW_HATCH_4
 10
18.3993240533
 20
49.6155477885
 30
0.0
  0
INSERT
  5
1B1
330
1F
100
AcDbEntity
  8
0
  6
CONTINUOUS
 62
     7
100
AcDbBlockReference
  2
SW_NOTE_6
 10
22.0199700315
 20
48.1896897182
 30
0.0
  0
CIRCLE
  5
1B2
330
1F
100
AcDbEntity
  8
0
  6
CONTINUOUS
 62
     1
100
AcDbCircle
 10
20.619544084
 20
26.6747771064
 30
0.0
 40
0.6299999999999955
  0
CIRCLE
  5
1B3
330
1F
100
AcDbEntity
  8
0
  6
CONTINUOUS
 62
     1
100
AcDbCircle
 10
36.994544084
 20
26.6747771064
 30
0.0
 40
0.6300000000000026
  0
CIRCLE
  5
1B4
330
1F
100
AcDbEntity
  8
0
  6
CONTINUOUS
 62
     1
100
AcDbCircle
 10
28.807044084
 20
27.6747771064
 30
0.0
 40
0.254999999999999
  0
CIRCLE
  5
1B5
330
1F
100
AcDbEntity
  8
0
  6
CONTINUOUS
 62
     1
100
AcDbCircle
 10
28.807044084
 20
25.6747771064
 30
0.0
 40
0.254999999999999
  0
CIRCLE
  5
1B6
330
1F
100
AcDbEntity
  8
0
  6
CONTINUOUS
 62
     1
100
AcDbCircle
 10
21.807044084
 20
26.6747771064
 30
0.0
 40
0.1875
  0
CIRCLE
  5
1B7
330
1F
100
AcDbEntity
  8
0
  6
CONTINUOUS
 62
     1
100
AcDbCircle
 10
35.807044084
 20
26.6747771064
 30
0.0
 40
0.1875
  0
LINE
  5
1B8
330
1F
100
AcDbEntity
  8
0
  6
CONTINUOUS
 62
     1
100
AcDbLine
 10
38.994544084
 20
29.1747771064
 30
0.0
 11
18.619544084
 21
29.1747771064
 31
0.0
  0
LINE
  5
1B9
330
1F
100
AcDbEntity
  8
0
  6
CONTINUOUS
 62
     1
100
AcDbLine
 10
38.994544084
 20
24.1747771064
 30
0.0
 11
38.994544084
 21
29.1747771064
 31
0.0
  0
LINE
  5
1BA
330
1F
100
AcDbEntity
  8
0
  6
CONTINUOUS
 62
     1
100
AcDbLine
 10
18.619544084
 20
24.1747771064
 30
0.0
 11
38.994544084
 21
24.1747771064
 31
0.0
  0
LINE
  5
1BB
330
1F
100
AcDbEntity
  8
0
  6
CONTINUOUS
 62
     1
100
AcDbLine
 10
18.619544084
 20
29.1747771064
 30
0.0
 11
18.619544084
 21
24.1747771064
 31
0.0
  0
INSERT
  5
1C5
330
1F
100
AcDbEntity
  8
0
  6
CONTINUOUS
 62
     7
100
AcDbBlockReference
  2
SW_HATCH_5
 10
21.7302535614
 20
26.845831091
 30
0.0
  0
INSERT
  5
1CC
330
1F
100
AcDbEntity
  8
0
  6
CONTINUOUS
 62
     7
100
AcDbBlockReference
  2
SW_NOTE_7
 10
22.2348611664
 20
28.1981217218
 30
0.0
  0
LINE
  5
1CD
330
1F
100
AcDbEntity
  8
0
  6
CONTINUOUS
 62
     1
100
AcDbLine
 10
39.7828103563
 20
32.9633735664
 30
0.0
 11
37.6725093465
 21
32.9633735664
 31
0.0
  0
ARC
  5
1CE
330
1F
100
AcDbEntity
  8
0
  6
CONTINUOUS
 62
     1
100
AcDbCircle
 10
37.1328103563
 20
32.6383735664
 30
0.0
 40
0.6300000000000014
100
AcDbArc
 50
31.0558264513
 51
328.9441735487
  0
LINE
  5
1CF
330
1F
100
AcDbEntity
  8
0
  6
CONTINUOUS
 62
     1
100
AcDbLine
 10
37.6725093465
 20
32.3133735664
 30
0.0
 11
39.7828103563
 21
32.3133735664
 31
0.0
  0
LINE
  5
1D0
330
1F
100
AcDbEntity
  8
0
  6
CONTINUOUS
 62
     1
100
AcDbLine
 10
39.7828103563
 20
31.9883735664
 30
0.0
 11
39.7828103563
 21
32.3133735664
 31
0.0
  0
LINE
  5
1D1
330
1F
100
AcDbEntity
  8
0
  6
CONTINUOUS
 62
     1
100
AcDbLine
 10
39.6828103563
 20
31.8883735664
 30
0.0
 11
39.7828103563
 21
31.9883735664
 31
0.0
  0
LINE
  5
1D2
330
1F
100
AcDbEntity
  8
0
  6
CONTINUOUS
 62
     1
100
AcDbLine
 10
39.1328103563
 20
31.8883735664
 30
0.0
 11
39.6828103563
 21
31.8883735664
 31
0.0
  0
ARC
  5
1D3
330
1F
100
AcDbEntity
  8
0
  6
CONTINUOUS
 62
     1
100
AcDbCircle
 10
39.1328103563
 20
31.6283735664
 30
0.0
 40
0.2600000000000016
100
AcDbArc
 50
90.0
 51
270.0
  0
ARC
  5
1D4
330
1F
100
AcDbEntity
  8
0
  6
CONTINUOUS
 62
     1
100
AcDbCircle
 10
18.7578103563
 20
31.6283735664
 30
0.0
 40
0.2600000000000051
100
AcDbArc
 50
270.0
 51
90.0
  0
LINE
  5
1D5
330
1F
100
AcDbEntity
  8
0
  6
CONTINUOUS
 62
     1
100
AcDbLine
 10
18.2078103563
 20
31.8883735664
 30
0.0
 11
18.7578103563
 21
31.8883735664
 31
0.0
  0
LINE
  5
1D6
330
1F
100
AcDbEntity
  8
0
  6
CONTINUOUS
 62
     1
100
AcDbLine
 10
18.1078103563
 20
31.9883735664
 30
0.0
 11
18.2078103563
 21
31.8883735664
 31
0.0
  0
LINE
  5
1D7
330
1F
100
AcDbEntity
  8
0
  6
CONTINUOUS
 62
     1
100
AcDbLine
 10
18.1078103563
 20
32.3133735664
 30
0.0
 11
18.1078103563
 21
31.9883735664
 31
0.0
  0
LINE
  5
1D8
330
1F
100
AcDbEntity
  8
0
  6
CONTINUOUS
 62
     1
100
AcDbLine
 10
18.1078103563
 20
32.3133735664
 30
0.0
 11
20.2181113661
 21
32.3133735664
 31
0.0
  0
ARC
  5
1D9
330
1F
100
AcDbEntity
  8
0
  6
CONTINUOUS
 62
     1
100
AcDbCircle
 10
20.7578103563
 20
32.6383735664
 30
0.0
 40
0.6300000000000014
100
AcDbArc
 50
211.0558264513
 51
148.9441735487
  0
LINE
  5
1DA
330
1F
100
AcDbEntity
  8
0
  6
CONTINUOUS
 62
     1
100
AcDbLine
 10
20.2181113661
 20
32.9633735664
 30
0.0
 11
18.1078103563
 21
32.9633735664
 31
0.0
  0
LINE
  5
1DB
330
1F
100
AcDbEntity
  8
0
  6
CONTINUOUS
 62
     1
100
AcDbLine
 10
18.1078103563
 20
33.2883735664
 30
0.0
 11
18.1078103563
 21
32.9633735664
 31
0.0
  0
LINE
  5
1DC
330
1F
100
AcDbEntity
  8
0
  6
CONTINUOUS
 62
     1
100
AcDbLine
 10
18.2078103563
 20
33.3883735664
 30
0.0
 11
18.1078103563
 21
33.2883735664
 31
0.0
  0
LINE
  5
1DD
330
1F
100
AcDbEntity
  8
0
  6
CONTINUOUS
 62
     1
100
AcDbLine
 10
18.7578103563
 20
33.3883735664
 30
0.0
 11
18.2078103563
 21
33.3883735664
 31
0.0
  0
ARC
  5
1DE
330
1F
100
AcDbEntity
  8
0
  6
CONTINUOUS
 62
     1
100
AcDbCircle
 10
18.7578103563
 20
33.6483735664
 30
0.0
 40
0.2600000000000051
100
AcDbArc
 50
270.0
 51
90.0
  0
ARC
  5
1DF
330
1F
100
AcDbEntity
  8
0
  6
CONTINUOUS
 62
     1
100
AcDbCircle
 10
39.1328103563
 20
33.6483735664
 30
0.0
 40
0.259999999999998
100
AcDbArc
 50
90.0
 51
270.0
  0
LINE
  5
1E0
330
1F
100
AcDbEntity
  8
0
  6
CONTINUOUS
 62
     1
100
AcDbLine
 10
39.6828103563
 20
33.3883735664
 30
0.0
 11
39.1328103563
 21
33.3883735664
 31
0.0
  0
LINE
  5
1E1
330
1F
100
AcDbEntity
  8
0
  6
CONTINUOUS
 62
     1
100
AcDbLine
 10
39.7828103563
 20
33.2883735664
 30
0.0
 11
39.6828103563
 21
33.3883735664
 31
0.0
  0
LINE
  5
1E2
330
1F
100
AcDbEntity
  8
0
  6
CONTINUOUS
 62
     1
100
AcDbLine
 10
39.7828103563
 20
32.9633735664
 30
0.0
 11
39.7828103563
 21
33.2883735664
 31
0.0
  0
CIRCLE
  5
1E3
330
1F
100
AcDbEntity
  8
0
  6
CONTINUOUS
 62
     1
100
AcDbCircle
 10
28.9453103563
 20
33.6383735664
 30
0.0
 40
0.2550000000000026
  0
CIRCLE
  5
1E4
330
1F
100
AcDbEntity
  8
0
  6
CONTINUOUS
 62
     1
100
AcDbCircle
 10
28.9453103563
 20
31.6383735664
 30
0.0
 40
0.2550000000000026
  0
CIRCLE
  5
1E5
330
1F
100
AcDbEntity
  8
0
  6
CONTINUOUS
 62
     1
100
AcDbCircle
 10
21.9453103563
 20
32.6383735664
 30
0.0
 40
0.1875
  0
CIRCLE
  5
1E6
330
1F
100
AcDbEntity
  8
0
  6
CONTINUOUS
 62
     1
100
AcDbCircle
 10
35.9453103563
 20
32.6383735664
 30
0.0
 40
0.1875
  0
LINE
  5
1E7
330
1F
100
AcDbEntity
  8
0
  6
CONTINUOUS
 62
     1
100
AcDbLine
 10
39.1328103563
 20
35.1383735664
 30
0.0
 11
18.7578103563
 21
35.1383735664
 31
0.0
  0
LINE
  5
1E8
330
1F
100
AcDbEntity
  8
0
  6
CONTINUOUS
 62
     1
100
AcDbLine
 10
39.1328103563
 20
30.1383735664
 30
0.0
 11
39.1328103563
 21
31.3683735664
 31
0.0
  0
LINE
  5
1E9
330
1F
100
AcDbEntity
  8
0
  6
CONTINUOUS
 62
     1
100
AcDbLine
 10
18.7578103563
 20
30.1383735664
 30
0.0
 11
39.1328103563
 21
30.1383735664
 31
0.0
  0
LINE
  5
1EA
330
1F
100
AcDbEntity
  8
0
  6
CONTINUOUS
 62
     1
100
AcDbLine
 10
18.7578103563
 20
31.3683735664
 30
0.0
 11
18.7578103563
 21
30.1383735664
 31
0.0
  0
LINE
  5
1EB
330
1F
100
AcDbEntity
  8
0
  6
CONTINUOUS
 62
     1
100
AcDbLine
 10
18.7578103563
 20
35.1383735664
 30
0.0
 11
18.7578103563
 21
33.9083735664
 31
0.0
  0
LINE
  5
1EC
330
1F
100
AcDbEntity
  8
0
  6
CONTINUOUS
 62
     1
100
AcDbLine
 10
39.1328103563
 20
33.9083735664
 30
0.0
 11
39.1328103563
 21
35.1383735664
 31
0.0
  0
LINE
  5
1ED
330
1F
100
AcDbEntity
  8
0
  6
CONTINUOUS
 62
     1
100
AcDbLine
 10
18.1078103563
 20
32.3133735664
 30
0.0
 11
18.1078103563
 21
32.9633735664
 31
0.0
  0
ARC
  5
1EE
330
1F
100
AcDbEntity
  8
0
  6
CONTINUOUS
 62
     1
100
AcDbCircle
 10
20.7578103563
 20
32.6383735664
 30
0.0
 40
0.6300000000000014
100
AcDbArc
 50
148.9441735487
 51
211.0558264513
  0
LINE
  5
1EF
330
1F
100
AcDbEntity
  8
0
  6
CONTINUOUS
 62
     1
100
AcDbLine
 10
39.7828103563
 20
32.3133735664
 30
0.0
 11
39.7828103563
 21
32.9633735664
 31
0.0
  0
ARC
  5
1F0
330
1F
100
AcDbEntity
  8
0
  6
CONTINUOUS
 62
     1
100
AcDbCircle
 10
37.1328103563
 20
32.6383735664
 30
0.0
 40
0.6300000000000014
100
AcDbArc
 50
328.9441735487
 51
31.0558264513
  0
INSERT
  5
214
330
1F
100
AcDbEntity
  8
0
  6
CONTINUOUS
 62
     7
100
AcDbBlockReference
  2
SW_HATCH_6
 10
37.7555917306
 20
32.9633735664
 30
0.0
  0
DIMENSION
  5
215
330
1F
100
AcDbEntity
  8
0
  6
CONTINUOUS
 62
     7
100
AcDbDimension
  2
*D17
 10
17.7558170466
 20
33.3883735664
 30
0.0
 11
17.7558170466
 21
32.665568832
 31
0.0
 70
   160
  3
SLDDIMSTYLE1
100
AcDbAlignedDimension
 13
18.2078103563
 23
31.8883735664
 33
0.0
 14
18.2078103563
 24
33.3883735664
 34
0.0
 50
90.0
100
AcDbRotatedDimension
  0
ARC
  5
220
330
1F
100
AcDbEntity
  8
0
  6
CONTINUOUS
 62
     1
100
AcDbCircle
 10
44.3236988544
 20
19.1702865917
 30
0.0
 40
8.000000000000002
100
AcDbArc
 50
266.6335393366
 51
270.0
  0
LINE
  5
221
330
1F
100
AcDbEntity
  8
0
  6
CONTINUOUS
 62
     1
100
AcDbLine
 10
43.8539226788
 20
11.1840916063
 30
0.0
 11
27.3232931752
 21
12.1564815771
 31
0.0
  0
ARC
  5
222
330
1F
100
AcDbEntity
  8
0
  6
CONTINUOUS
 62
     1
100
AcDbCircle
 10
26.8535169996
 20
4.1702865917
 30
0.0
 40
7.999999999999998
100
AcDbArc
 50
86.6335393366
 51
90.0
  0
LINE
  5
223
330
1F
100
AcDbEntity
  8
0
  6
CONTINUOUS
 62
     1
100
AcDbLine
 10
26.8535169996
 20
12.1702865917
 30
0.0
 11
21.3236988544
 21
12.1702865917
 31
0.0
  0
ARC
  5
224
330
1F
100
AcDbEntity
  8
0
  6
CONTINUOUS
 62
     1
100
AcDbCircle
 10
21.3236988544
 20
4.1702865917
 30
0.0
 40
7.999999999999999
100
AcDbArc
 50
90.0
 51
93.3664606634
  0
LINE
  5
225
330
1F
100
AcDbEntity
  8
0
  6
CONTINUOUS
 62
     1
100
AcDbLine
 10
20.8539226788
 20
12.1564815771
 30
0.0
 11
4.3232931752
 21
11.1840916063
 31
0.0
  0
ARC
  5
226
330
1F
100
AcDbEntity
  8
0
  6
CONTINUOUS
 62
     1
100
AcDbCircle
 10
3.8535169996
 20
19.1702865917
 30
0.0
 40
8.000000000000002
100
AcDbArc
 50
270.0
 51
273.3664606634
  0
LINE
  5
227
330
1F
100
AcDbEntity
  8
0
  6
CONTINUOUS
 62
     1
100
AcDbLine
 10
1.338607927
 20
17.1702865917
 30
0.0
 11
1.338607927
 21
11.1702865917
 31
0.0
  0
ARC
  5
228
330
1F
100
AcDbEntity
  8
0
  6
CONTINUOUS
 62
     1
100
AcDbCircle
 10
3.8535169996
 20
9.1702865917
 30
0.0
 40
8.000000000000002
100
AcDbArc
 50
86.6335393366
 51
90.0
  0
LINE
  5
229
330
1F
100
AcDbEntity
  8
0
  6
CONTINUOUS
 62
     1
100
AcDbLine
 10
4.3232931752
 20
17.1564815771
 30
0.0
 11
20.8539226788
 21
16.1840916063
 31
0.0
  0
ARC
  5
22A
330
1F
100
AcDbEntity
  8
0
  6
CONTINUOUS
 62
     1
100
AcDbCircle
 10
21.3236988544
 20
24.1702865917
 30
0.0
 40
8.0
100
AcDbArc
 50
266.6335393366
 51
270.0
  0
LINE
  5
22B
330
1F
100
AcDbEntity
  8
0
  6
CONTINUOUS
 62
     1
100
AcDbLine
 10
21.3236988544
 20
16.1702865917
 30
0.0
 11
26.8535169996
 21
16.1702865917
 31
0.0
  0
LINE
  5
22C
330
1F
100
AcDbEntity
  8
0
  6
CONTINUOUS
 62
     1
100
AcDbLine
 10
27.3232931752
 20
16.1840916063
 30
0.0
 11
43.8539226788
 21
17.1564815771
 31
0.0
  0
ARC
  5
22D
330
1F
100
AcDbEntity
  8
0
  6
CONTINUOUS
 62
     1
100
AcDbCircle
 10
44.3236988544
 20
9.1702865917
 30
0.0
 40
8.000000000000002
100
AcDbArc
 50
90.0
 51
93.3664606634
  0
LINE
  5
22E
330
1F
100
AcDbEntity
  8
0
  6
CONTINUOUS
 62
     1
100
AcDbLine
 10
46.838607927
 20
11.1702865917
 30
0.0
 11
46.838607927
 21
17.1702865917
 31
0.0
  0
CIRCLE
  5
22F
330
1F
100
AcDbEntity
  8
0
  6
CONTINUOUS
 62
     1
100
AcDbCircle
 10
44.838607927
 20
15.5452865917
 30
0.0
 40
0.6299999999999955
  0
CIRCLE
  5
230
330
1F
100
AcDbEntity
  8
0
  6
CONTINUOUS
 62
     1
100
AcDbCircle
 10
44.838607927
 20
12.7952865917
 30
0.0
 40
0.6299999999999955
  0
CIRCLE
  5
231
330
1F
100
AcDbEntity
  8
0
  6
CONTINUOUS
 62
     1
100
AcDbCircle
 10
3.338607927
 20
12.7952865917
 30
0.0
 40
0.6299999999999986
  0
CIRCLE
  5
232
330
1F
100
AcDbEntity
  8
0
  6
CONTINUOUS
 62
     1
100
AcDbCircle
 10
3.338607927
 20
15.5452865917
 30
0.0
 40
0.6299999999999986
  0
CIRCLE
  5
233
330
1F
100
AcDbEntity
  8
0
  6
CONTINUOUS
 62
     1
100
AcDbCircle
 10
2.338607927
 20
14.1702865917
 30
0.0
 40
0.1875000000000004
  0
CIRCLE
  5
234
330
1F
100
AcDbEntity
  8
0
  6
CONTINUOUS
 62
     1
100
AcDbCircle
 10
45.838607927
 20
14.1702865917
 30
0.0
 40
0.1875
  0
ARC
  5
235
330
1F
100
AcDbEntity
  8
0
  6
CONTINUOUS
 62
     1
100
AcDbCircle
 10
26.8535169996
 20
24.1702865917
 30
0.0
 40
8.0
100
AcDbArc
 50
270.0
 51
273.3664606634
  0
LINE
  5
236
330
1F
100
AcDbEntity
  8
0
  6
CONTINUOUS
 62
     1
100
AcDbLine
 10
1.338607927
 20
17.1702865917
 30
0.0
 11
3.8535169996
 21
17.1702865917
 31
0.0
  0
LINE
  5
237
330
1F
100
AcDbEntity
  8
0
  6
CONTINUOUS
 62
     1
100
AcDbLine
 10
3.8535169996
 20
11.1702865917
 30
0.0
 11
1.338607927
 21
11.1702865917
 31
0.0
  0
LINE
  5
238
330
1F
100
AcDbEntity
  8
0
  6
CONTINUOUS
 62
     1
100
AcDbLine
 10
46.838607927
 20
11.1702865917
 30
0.0
 11
44.3236988544
 21
11.1702865917
 31
0.0
  0
LINE
  5
239
330
1F
100
AcDbEntity
  8
0
  6
CONTINUOUS
 62
     1
100
AcDbLine
 10
44.3236988544
 20
17.1702865917
 30
0.0
 11
46.838607927
 21
17.1702865917
 31
0.0
  0
INSERT
  5
243
330
1F
100
AcDbEntity
  8
0
  6
CONTINUOUS
 62
     7
100
AcDbBlockReference
  2
SW_HATCH_7
 10
2.3550733506
 20
14.357062232
 30
0.0
  0
ARC
  5
244
330
1F
100
AcDbEntity
  8
0
  6
CONTINUOUS
 62
     1
100
AcDbCircle
 10
26.7750216686
 20
10.8845748942
 30
0.0
 40
8.999999999999993
100
AcDbArc
 50
86.6335393366
 51
90.0
  0
LINE
  5
245
330
1F
100
AcDbEntity
  8
0
  6
CONTINUOUS
 62
     1
100
AcDbLine
 10
27.3035198662
 20
19.8690442528
 30
0.0
 11
43.1870581072
 21
18.9347184739
 31
0.0
  0
ARC
  5
246
330
1F
100
AcDbEntity
  8
0
  6
CONTINUOUS
 62
     1
100
AcDbCircle
 10
43.2023258329
 20
19.1942698109
 30
0.0
 40
0.2600000000000051
100
AcDbArc
 50
266.6335393366
 51
0.0
  0
LINE
  5
247
330
1F
100
AcDbEntity
  8
0
  6
CONTINUOUS
 62
     1
100
AcDbLine
 10
43.4623258329
 20
19.1942698109
 30
0.0
 11
43.4623258329
 21
22.5748799775
 31
0.0
  0
ARC
  5
248
330
1F
100
AcDbEntity
  8
0
  6
CONTINUOUS
 62
     1
100
AcDbCircle
 10
43.2023258329
 20
22.5748799775
 30
0.0
 40
0.2600000000000051
100
AcDbArc
 50
0.0
 51
93.3664606634
  0
LINE
  5
249
330
1F
100
AcDbEntity
  8
0
  6
CONTINUOUS
 62
     1
100
AcDbLine
 10
43.1870581072
 20
22.8344313145
 30
0.0
 11
27.3035198662
 21
21.9001055356
 31
0.0
  0
ARC
  5
24A
330
1F
100
AcDbEntity
  8
0
  6
CONTINUOUS
 62
     1
100
AcDbCircle
 10
26.7750216686
 20
30.8845748942
 30
0.0
 40
8.999999999999996
100
AcDbArc
 50
270.0
 51
273.3664606634
  0
LINE
  5
24B
330
1F
100
AcDbEntity
  8
0
  6
CONTINUOUS
 62
     1
100
AcDbLine
 10
26.7750216686
 20
21.8845748942
 30
0.0
 11
25.770112596
 21
21.8845748942
 31
0.0
  0
ARC
  5
24C
330
1F
100
AcDbEntity
  8
0
  6
CONTINUOUS
 62
     1
100
AcDbCircle
 10
25.770112596
 20
21.6245748942
 30
0.0
 40
0.259999999999998
100
AcDbArc
 50
90.0
 51
180.0
  0
LINE
  5
24D
330
1F
100
AcDbEntity
  8
0
  6
CONTINUOUS
 62
     1
100
AcDbLine
 10
25.510112596
 20
20.1445748942
 30
0.0
 11
25.510112596
 21
21.6245748942
 31
0.0
  0
ARC
  5
24E
330
1F
100
AcDbEntity
  8
0
  6
CONTINUOUS
 62
     1
100
AcDbCircle
 10
25.770112596
 20
20.1445748942
 30
0.0
 40
0.259999999999998
100
AcDbArc
 50
180.0
 51
270.0
  0
LINE
  5
24F
330
1F
100
AcDbEntity
  8
0
  6
CONTINUOUS
 62
     1
100
AcDbLine
 10
25.770112596
 20
19.8845748942
 30
0.0
 11
26.7750216686
 21
19.8845748942
 31
0.0
  0
ARC
  5
250
330
1F
100
AcDbEntity
  8
0
  6
CONTINUOUS
 62
     1
100
AcDbCircle
 10
21.2452035234
 20
30.8845748942
 30
0.0
 40
9.0
100
AcDbArc
 50
266.6335393366
 51
270.0
  0
LINE
  5
251
330
1F
100
AcDbEntity
  8
0
  6
CONTINUOUS
 62
     1
100
AcDbLine
 10
20.7167053259
 20
21.9001055356
 30
0.0
 11
4.8331670849
 21
22.8344313145
 31
0.0
  0
ARC
  5
252
330
1F
100
AcDbEntity
  8
0
  6
CONTINUOUS
 62
     1
100
AcDbCircle
 10
4.8178993592
 20
22.5748799775
 30
0.0
 40
0.260000000000004
100
AcDbArc
 50
86.6335393366
 51
180.0
  0
LINE
  5
253
330
1F
100
AcDbEntity
  8
0
  6
CONTINUOUS
 62
     1
100
AcDbLine
 10
4.5578993592
 20
22.5748799775
 30
0.0
 11
4.5578993592
 21
19.1942698109
 31
0.0
  0
ARC
  5
254
330
1F
100
AcDbEntity
  8
0
  6
CONTINUOUS
 62
     1
100
AcDbCircle
 10
4.8178993592
 20
19.1942698109
 30
0.0
 40
0.2599999999999998
100
AcDbArc
 50
180.0
 51
273.3664606634
  0
LINE
  5
255
330
1F
100
AcDbEntity
  8
0
  6
CONTINUOUS
 62
     1
100
AcDbLine
 10
4.8331670849
 20
18.9347184739
 30
0.0
 11
20.7167053259
 21
19.8690442528
 31
0.0
  0
ARC
  5
256
330
1F
100
AcDbEntity
  8
0
  6
CONTINUOUS
 62
     1
100
AcDbCircle
 10
21.2452035234
 20
10.8845748942
 30
0.0
 40
9.000000000000002
100
AcDbArc
 50
90.0
 51
93.3664606634
  0
ARC
  5
257
330
1F
100
AcDbEntity
  8
0
  6
CONTINUOUS
 62
     1
100
AcDbCircle
 10
22.250112596
 20
20.1445748942
 30
0.0
 40
0.259999999999998
100
AcDbArc
 50
270.0
 51
0.0
  0
LINE
  5
258
330
1F
100
AcDbEntity
  8
0
  6
CONTINUOUS
 62
     1
100
AcDbLine
 10
22.510112596
 20
21.6245748942
 30
0.0
 11
22.510112596
 21
20.1445748942
 31
0.0
  0
ARC
  5
259
330
1F
100
AcDbEntity
  8
0
  6
CONTINUOUS
 62
     1
100
AcDbCircle
 10
22.250112596
 20
21.6245748942
 30
0.0
 40
0.259999999999998
100
AcDbArc
 50
0.0
 51
90.0
  0
LINE
  5
25A
330
1F
100
AcDbEntity
  8
0
  6
CONTINUOUS
 62
     1
100
AcDbLine
 10
0.860112596
 20
20.3845748942
 30
0.0
 11
1.260112596
 21
20.3845748942
 31
0.0
  0
LINE
  5
25B
330
1F
100
AcDbEntity
  8
0
  6
CONTINUOUS
 62
     1
100
AcDbLine
 10
0.760112596
 20
20.4845748942
 30
0.0
 11
0.860112596
 21
20.3845748942
 31
0.0
  0
LINE
  5
25C
330
1F
100
AcDbEntity
  8
0
  6
CONTINUOUS
 62
     1
100
AcDbLine
 10
0.760112596
 20
21.2845748942
 30
0.0
 11
0.760112596
 21
20.4845748942
 31
0.0
  0
LINE
  5
25D
330
1F
100
AcDbEntity
  8
0
  6
CONTINUOUS
 62
     1
100
AcDbLine
 10
0.860112596
 20
21.3845748942
 30
0.0
 11
0.760112596
 21
21.2845748942
 31
0.0
  0
LINE
  5
25E
330
1F
100
AcDbEntity
  8
0
  6
CONTINUOUS
 62
     1
100
AcDbLine
 10
1.260112596
 20
21.3845748942
 30
0.0
 11
0.860112596
 21
21.3845748942
 31
0.0
  0
ARC
  5
25F
330
1F
100
AcDbEntity
  8
0
  6
CONTINUOUS
 62
     1
100
AcDbCircle
 10
1.260112596
 20
21.6445748942
 30
0.0
 40
0.2600000000000022
100
AcDbArc
 50
270.0
 51
0.0
  0
LINE
  5
260
330
1F
100
AcDbEntity
  8
0
  6
CONTINUOUS
 62
     1
100
AcDbLine
 10
1.520112596
 20
21.6445748942
 30
0.0
 11
2.7061270367
 21
21.9595748942
 31
0.0
  0
ARC
  5
261
330
1F
100
AcDbEntity
  8
0
  6
CONTINUOUS
 62
     1
100
AcDbCircle
 10
3.260112596
 20
22.2595748942
 30
0.0
 40
0.6299999999999997
100
AcDbArc
 50
208.4368901489
 51
151.5631098511
  0
LINE
  5
262
330
1F
100
AcDbEntity
  8
0
  6
CONTINUOUS
 62
     1
100
AcDbLine
 10
2.7061270367
 20
22.5595748942
 30
0.0
 11
1.260112596
 21
22.5595748942
 31
0.0
  0
ARC
  5
263
330
1F
100
AcDbEntity
  8
0
  6
CONTINUOUS
 62
     1
100
AcDbCircle
 10
3.7750216686
 20
15.8845748942
 30
0.0
 40
8.000000000000002
100
AcDbArc
 50
86.6335393366
 51
90.0
  0
LINE
  5
264
330
1F
100
AcDbEntity
  8
0
  6
CONTINUOUS
 62
     1
100
AcDbLine
 10
20.7754273478
 20
22.8983799088
 30
0.0
 11
4.2447978442
 21
23.8707698796
 31
0.0
  0
ARC
  5
265
330
1F
100
AcDbEntity
  8
0
  6
CONTINUOUS
 62
     1
100
AcDbCircle
 10
21.2452035234
 20
30.8845748942
 30
0.0
 40
7.999999999999998
100
AcDbArc
 50
266.6335393366
 51
270.0
  0
LINE
  5
266
330
1F
100
AcDbEntity
  8
0
  6
CONTINUOUS
 62
     1
100
AcDbLine
 10
26.7750216686
 20
22.8845748942
 30
0.0
 11
21.2452035234
 21
22.8845748942
 31
0.0
  0
ARC
  5
267
330
1F
100
AcDbEntity
  8
0
  6
CONTINUOUS
 62
     1
100
AcDbCircle
 10
26.7750216686
 20
30.8845748942
 30
0.0
 40
7.999999999999998
100
AcDbArc
 50
270.0
 51
273.3664606634
  0
LINE
  5
268
330
1F
100
AcDbEntity
  8
0
  6
CONTINUOUS
 62
     1
100
AcDbLine
 10
43.7754273478
 20
23.8707698796
 30
0.0
 11
27.2447978442
 21
22.8983799088
 31
0.0
  0
ARC
  5
269
330
1F
100
AcDbEntity
  8
0
  6
CONTINUOUS
 62
     1
100
AcDbCircle
 10
44.2452035234
 20
15.8845748942
 30
0.0
 40
7.999999999999998
100
AcDbArc
 50
90.0
 51
93.3664606634
  0
LINE
  5
26A
330
1F
100
AcDbEntity
  8
0
  6
CONTINUOUS
 62
     1
100
AcDbLine
 10
46.760112596
 20
22.5595748942
 30
0.0
 11
45.3140981554
 21
22.5595748942
 31
0.0
  0
ARC
  5
26B
330
1F
100
AcDbEntity
  8
0
  6
CONTINUOUS
 62
     1
100
AcDbCircle
 10
44.760112596
 20
22.2595748942
 30
0.0
 40
0.6299999999999975
100
AcDbArc
 50
28.4368901489
 51
331.5631098511
  0
LINE
  5
26C
330
1F
100
AcDbEntity
  8
0
  6
CONTINUOUS
 62
     1
100
AcDbLine
 10
45.3140981554
 20
21.9595748942
 30
0.0
 11
46.500112596
 21
21.6445748942
 31
0.0
  0
ARC
  5
26D
330
1F
100
AcDbEntity
  8
0
  6
CONTINUOUS
 62
     1
100
AcDbCircle
 10
46.760112596
 20
21.6445748942
 30
0.0
 40
0.2600000000000016
100
AcDbArc
 50
180.0
 51
270.0
  0
LINE
  5
26E
330
1F
100
AcDbEntity
  8
0
  6
CONTINUOUS
 62
     1
100
AcDbLine
 10
47.160112596
 20
21.3845748942
 30
0.0
 11
46.760112596
 21
21.3845748942
 31
0.0
  0
LINE
  5
26F
330
1F
100
AcDbEntity
  8
0
  6
CONTINUOUS
 62
     1
100
AcDbLine
 10
47.260112596
 20
21.2845748942
 30
0.0
 11
47.160112596
 21
21.3845748942
 31
0.0
  0
LINE
  5
270
330
1F
100
AcDbEntity
  8
0
  6
CONTINUOUS
 62
     1
100
AcDbLine
 10
47.260112596
 20
20.4845748942
 30
0.0
 11
47.260112596
 21
21.2845748942
 31
0.0
  0
LINE
  5
271
330
1F
100
AcDbEntity
  8
0
  6
CONTINUOUS
 62
     1
100
AcDbLine
 10
47.160112596
 20
20.3845748942
 30
0.0
 11
47.260112596
 21
20.4845748942
 31
0.0
  0
LINE
  5
272
330
1F
100
AcDbEntity
  8
0
  6
CONTINUOUS
 62
     1
100
AcDbLine
 10
46.760112596
 20
20.3845748942
 30
0.0
 11
47.160112596
 21
20.3845748942
 31
0.0
  0
ARC
  5
273
330
1F
100
AcDbEntity
  8
0
  6
CONTINUOUS
 62
     1
100
AcDbCircle
 10
46.760112596
 20
20.1245748942
 30
0.0
 40
0.259999999999998
100
AcDbArc
 50
90.0
 51
180.0
  0
LINE
  5
274
330
1F
100
AcDbEntity
  8
0
  6
CONTINUOUS
 62
     1
100
AcDbLine
 10
46.500112596
 20
20.1245748942
 30
0.0
 11
45.3140981554
 21
19.8095748942
 31
0.0
  0
ARC
  5
275
330
1F
100
AcDbEntity
  8
0
  6
CONTINUOUS
 62
     1
100
AcDbCircle
 10
44.760112596
 20
19.5095748942
 30
0.0
 40
0.6299999999999958
100
AcDbArc
 50
28.4368901489
 51
331.5631098511
  0
LINE
  5
276
330
1F
100
AcDbEntity
  8
0
  6
CONTINUOUS
 62
     1
100
AcDbLine
 10
45.3140981554
 20
19.2095748942
 30
0.0
 11
46.760112596
 21
19.2095748942
 31
0.0
  0
ARC
  5
277
330
1F
100
AcDbEntity
  8
0
  6
CONTINUOUS
 62
     1
100
AcDbCircle
 10
44.2452035234
 20
25.8845748942
 30
0.0
 40
8.0
100
AcDbArc
 50
266.6335393366
 51
270.0
  0
LINE
  5
278
330
1F
100
AcDbEntity
  8
0
  6
CONTINUOUS
 62
     1
100
AcDbLine
 10
27.2447978442
 20
18.8707698796
 30
0.0
 11
43.7754273478
 21
17.8983799088
 31
0.0
  0
ARC
  5
279
330
1F
100
AcDbEntity
  8
0
  6
CONTINUOUS
 62
     1
100
AcDbCircle
 10
26.7750216686
 20
10.8845748942
 30
0.0
 40
8.0
100
AcDbArc
 50
86.6335393366
 51
90.0
  0
LINE
  5
27A
330
1F
100
AcDbEntity
  8
0
  6
CONTINUOUS
 62
     1
100
AcDbLine
 10
21.2452035234
 20
18.8845748942
 30
0.0
 11
26.7750216686
 21
18.8845748942
 31
0.0
  0
ARC
  5
27B
330
1F
100
AcDbEntity
  8
0
  6
CONTINUOUS
 62
     1
100
AcDbCircle
 10
21.2452035234
 20
10.8845748942
 30
0.0
 40
8.0
100
AcDbArc
 50
90.0
 51
93.3664606634
  0
LINE
  5
27C
330
1F
100
AcDbEntity
  8
0
  6
CONTINUOUS
 62
     1
100
AcDbLine
 10
4.2447978442
 20
17.8983799088
 30
0.0
 11
20.7754273478
 21
18.8707698796
 31
0.0
  0
ARC
  5
27D
330
1F
100
AcDbEntity
  8
0
  6
CONTINUOUS
 62
     1
100
AcDbCircle
 10
3.7750216686
 20
25.8845748942
 30
0.0
 40
8.0
100
AcDbArc
 50
270.0
 51
273.3664606634
  0
LINE
  5
27E
330
1F
100
AcDbEntity
  8
0
  6
CONTINUOUS
 62
     1
100
AcDbLine
 10
1.260112596
 20
19.2095748942
 30
0.0
 11
2.7061270367
 21
19.2095748942
 31
0.0
  0
ARC
  5
27F
330
1F
100
AcDbEntity
  8
0
  6
CONTINUOUS
 62
     1
100
AcDbCircle
 10
3.260112596
 20
19.5095748942
 30
0.0
 40
0.6300000000000013
100
AcDbArc
 50
208.4368901489
 51
151.5631098511
  0
LINE
  5
280
330
1F
100
AcDbEntity
  8
0
  6
CONTINUOUS
 62
     1
100
AcDbLine
 10
2.7061270367
 20
19.8095748942
 30
0.0
 11
1.520112596
 21
20.1245748942
 31
0.0
  0
ARC
  5
281
330
1F
100
AcDbEntity
  8
0
  6
CONTINUOUS
 62
     1
100
AcDbCircle
 10
1.260112596
 20
20.1245748942
 30
0.0
 40
0.2600000000000022
100
AcDbArc
 50
0.0
 51
90.0
  0
CIRCLE
  5
282
330
1F
100
AcDbEntity
  8
0
  6
CONTINUOUS
 62
     1
100
AcDbCircle
 10
2.260112596
 20
20.8845748942
 30
0.0
 40
0.1875
  0
CIRCLE
  5
283
330
1F
100
AcDbEntity
  8
0
  6
CONTINUOUS
 62
     1
100
AcDbCircle
 10
45.760112596
 20
20.8845748942
 30
0.0
 40
0.1875
  0
LINE
  5
284
330
1F
100
AcDbEntity
  8
0
  6
CONTINUOUS
 62
     1
100
AcDbLine
 10
46.760112596
 20
23.8845748942
 30
0.0
 11
44.2452035234
 21
23.8845748942
 31
0.0
  0
LINE
  5
285
330
1F
100
AcDbEntity
  8
0
  6
CONTINUOUS
 62
     1
100
AcDbLine
 10
44.2452035234
 20
17.8845748942
 30
0.0
 11
46.760112596
 21
17.8845748942
 31
0.0
  0
LINE
  5
286
330
1F
100
AcDbEntity
  8
0
  6
CONTINUOUS
 62
     1
100
AcDbLine
 10
1.260112596
 20
17.8845748942
 30
0.0
 11
3.7750216686
 21
17.8845748942
 31
0.0
  0
LINE
  5
287
330
1F
100
AcDbEntity
  8
0
  6
CONTINUOUS
 62
     1
100
AcDbLine
 10
3.7750216686
 20
23.8845748942
 30
0.0
 11
1.260112596
 21
23.8845748942
 31
0.0
  0
LINE
  5
288
330
1F
100
AcDbEntity
  8
0
  6
CONTINUOUS
 62
     1
100
AcDbLine
 10
21.2452035234
 20
19.8845748942
 30
0.0
 11
22.250112596
 21
19.8845748942
 31
0.0
  0
LINE
  5
289
330
1F
100
AcDbEntity
  8
0
  6
CONTINUOUS
 62
     1
100
AcDbLine
 10
22.250112596
 20
21.8845748942
 30
0.0
 11
21.2452035234
 21
21.8845748942
 31
0.0
  0
LINE
  5
28A
330
1F
100
AcDbEntity
  8
0
  6
CONTINUOUS
 62
     1
100
AcDbLine
 10
1.260112596
 20
23.8845748942
 30
0.0
 11
1.260112596
 21
22.5595748942
 31
0.0
  0
LINE
  5
28B
330
1F
100
AcDbEntity
  8
0
  6
CONTINUOUS
 62
     1
100
AcDbLine
 10
46.760112596
 20
22.5595748942
 30
0.0
 11
46.760112596
 21
23.8845748942
 31
0.0
  0
LINE
  5
28C
330
1F
100
AcDbEntity
  8
0
  6
CONTINUOUS
 62
     1
100
AcDbLine
 10
46.760112596
 20
17.8845748942
 30
0.0
 11
46.760112596
 21
19.2095748942
 31
0.0
  0
LINE
  5
28D
330
1F
100
AcDbEntity
  8
0
  6
CONTINUOUS
 62
     1
100
AcDbLine
 10
1.260112596
 20
19.2095748942
 30
0.0
 11
1.260112596
 21
17.8845748942
 31
0.0
  0
ARC
  5
28E
330
1F
100
AcDbEntity
  8
0
  6
CONTINUOUS
 62
     1
100
AcDbCircle
 10
1.260112596
 20
20.1245748942
 30
0.0
 40
0.2600000000000022
100
AcDbArc
 50
270.0
 51
0.0
  0
ARC
  5
28F
330
1F
100
AcDbEntity
  8
0
  6
CONTINUOUS
 62
     1
100
AcDbCircle
 10
3.260112596
 20
19.5095748942
 30
0.0
 40
0.6300000000000013
100
AcDbArc
 50
151.5631098511
 51
208.4368901489
  0
LINE
  5
290
330
1F
100
AcDbEntity
  8
0
  6
CONTINUOUS
 62
     1
100
AcDbLine
 10
1.260112596
 20
19.8645748942
 30
0.0
 11
1.260112596
 21
19.2095748942
 31
0.0
  0
ARC
  5
291
330
1F
100
AcDbEntity
  8
0
  6
CONTINUOUS
 62
     1
100
AcDbCircle
 10
1.260112596
 20
21.6445748942
 30
0.0
 40
0.2600000000000022
100
AcDbArc
 50
0.0
 51
90.0
  0
ARC
  5
292
330
1F
100
AcDbEntity
  8
0
  6
CONTINUOUS
 62
     1
100
AcDbCircle
 10
3.260112596
 20
22.2595748942
 30
0.0
 40
0.6299999999999997
100
AcDbArc
 50
151.5631098511
 51
208.4368901489
  0
LINE
  5
293
330
1F
100
AcDbEntity
  8
0
  6
CONTINUOUS
 62
     1
100
AcDbLine
 10
1.260112596
 20
22.5595748942
 30
0.0
 11
1.260112596
 21
21.9045748942
 31
0.0
  0
ARC
  5
294
330
1F
100
AcDbEntity
  8
0
  6
CONTINUOUS
 62
     1
100
AcDbCircle
 10
46.760112596
 20
20.1245748942
 30
0.0
 40
0.2600000000000016
100
AcDbArc
 50
180.0
 51
270.0
  0
ARC
  5
295
330
1F
100
AcDbEntity
  8
0
  6
CONTINUOUS
 62
     1
100
AcDbCircle
 10
44.760112596
 20
19.5095748942
 30
0.0
 40
0.6299999999999958
100
AcDbArc
 50
331.5631098511
 51
28.4368901489
  0
LINE
  5
296
330
1F
100
AcDbEntity
  8
0
  6
CONTINUOUS
 62
     1
100
AcDbLine
 10
46.760112596
 20
19.2095748942
 30
0.0
 11
46.760112596
 21
19.8645748942
 31
0.0
  0
ARC
  5
297
330
1F
100
AcDbEntity
  8
0
  6
CONTINUOUS
 62
     1
100
AcDbCircle
 10
46.760112596
 20
21.6445748942
 30
0.0
 40
0.2600000000000016
100
AcDbArc
 50
90.0
 51
180.0
  0
ARC
  5
298
330
1F
100
AcDbEntity
  8
0
  6
CONTINUOUS
 62
     1
100
AcDbCircle
 10
44.760112596
 20
22.2595748942
 30
0.0
 40
0.6299999999999975
100
AcDbArc
 50
331.5631098511
 51
28.4368901489
  0
LINE
  5
299
330
1F
100
AcDbEntity
  8
0
  6
CONTINUOUS
 62
     1
100
AcDbLine
 10
46.760112596
 20
21.9045748942
 30
0.0
 11
46.760112596
 21
22.5595748942
 31
0.0
  0
INSERT
  5
2CB
330
1F
100
AcDbEntity
  8
0
  6
CONTINUOUS
 62
     7
100
AcDbBlockReference
  2
SW_HATCH_8
 10
45.4116666414
 20
19.835488637
 30
0.0
  0
DIMENSION
  5
2CC
330
1F
100
AcDbEntity
  8
0
  6
CONTINUOUS
 62
     7
100
AcDbDimension
  2
*D20
 10
47.260112596
 20
24.7507166265
 30
0.0
 11
31.2236088478
 21
24.7507166265
 31
0.0
 70
   160
  3
SLDDIMSTYLE1
100
AcDbAlignedDimension
 13
0.760112596
 23
21.2845748942
 33
0.0
 14
47.260112596
 24
21.2845748942
 34
0.0
100
AcDbRotatedDimension
  0
DIMENSION
  5
2D6
330
1F
100
AcDbEntity
  8
0
  6
CONTINUOUS
 62
     7
100
AcDbDimension
  2
*D21
 10
0.4618678396
 20
21.3845748942
 30
0.0
 11
0.4618678396
 21
20.7595866554
 31
0.0
 70
   160
  3
SLDDIMSTYLE0
100
AcDbAlignedDimension
 13
0.860112596
 23
20.3845748942
 33
0.0
 14
0.860112596
 24
21.3845748942
 34
0.0
 50
90.0
100
AcDbRotatedDimension
  0
INSERT
  5
2E8
330
1F
100
AcDbEntity
  8
0
  6
CONTINUOUS
 62
     7
100
AcDbBlockReference
  2
SW_NOTE_8
 10
5.7367081425
 20
14.7100154591
 30
0.0
  0
INSERT
  5
2EF
330
1F
100
AcDbEntity
  8
0
  6
CONTINUOUS
 62
     7
100
AcDbBlockReference
  2
SW_NOTE_9
 10
5.247241226
 20
21.3785436737
 30
0.0
  0
ARC
  5
2F0
330
1F
100
AcDbEntity
  8
0
  6
CONTINUOUS
 62
     1
100
AcDbCircle
 10
27.8261340961
 20
-5.7500710147
 30
0.0
 40
10.0
100
AcDbArc
 50
86.1214754972
 51
90.0
  0
LINE
  5
2F1
330
1F
100
AcDbEntity
  8
0
  6
CONTINUOUS
 62
     1
100
AcDbLine
 10
27.8261340961
 20
4.2499289853
 30
0.0
 11
20.5033229356
 21
4.2499289853
 31
0.0
  0
ARC
  5
2F2
330
1F
100
AcDbEntity
  8
0
  6
CONTINUOUS
 62
     1
100
AcDbCircle
 10
20.5033229356
 20
-5.7500710147
 30
0.0
 40
10.0
100
AcDbArc
 50
90.0
 51
93.8785245028
  0
LINE
  5
2F3
330
1F
100
AcDbEntity
  8
0
  6
CONTINUOUS
 62
     1
100
AcDbLine
 10
19.8269095782
 20
4.2270260065
 30
0.0
 11
5.5160741971
 21
3.2567998789
 31
0.0
  0
ARC
  5
2F4
330
1F
100
AcDbEntity
  8
0
  6
CONTINUOUS
 62
     1
100
AcDbCircle
 10
5.3131501899
 20
6.2499289853
 30
0.0
 40
3.0
100
AcDbArc
 50
270.0
 51
273.8785245028
  0
LINE
  5
2F5
330
1F
100
AcDbEntity
  8
0
  6
CONTINUOUS
 62
     1
100
AcDbLine
 10
1.4147285158
 20
4.4499289853
 30
0.0
 11
2.8606873108
 21
4.4499289853
 31
0.0
  0
ARC
  5
2F6
330
1F
100
AcDbEntity
  8
0
  6
CONTINUOUS
 62
     1
100
AcDbCircle
 10
3.4146728702
 20
4.7499289853
 30
0.0
 40
0.6299999999999976
100
AcDbArc
 50
208.4368901489
 51
151.5631098511
  0
LINE
  5
2F7
330
1F
100
AcDbEntity
  8
0
  6
CONTINUOUS
 62
     1
100
AcDbLine
 10
2.8606873108
 20
5.0499289853
 30
0.0
 11
1.4147285158
 21
5.0499289853
 31
0.0
  0
LINE
  5
2F8
330
1F
100
AcDbEntity
  8
0
  6
CONTINUOUS
 62
     1
100
AcDbLine
 10
1.4147285158
 20
6.4499289845
 30
0.0
 11
2.8607429565
 21
6.4499289845
 31
0.0
  0
ARC
  5
2F9
330
1F
100
AcDbEntity
  8
0
  6
CONTINUOUS
 62
     1
100
AcDbCircle
 10
3.4147285158
 20
6.7499289845
 30
0.0
 40
0.629999999999998
100
AcDbArc
 50
208.4368901489
 51
151.5631098511
  0
LINE
  5
2FA
330
1F
100
AcDbEntity
  8
0
  6
CONTINUOUS
 62
     1
100
AcDbLine
 10
2.8607429565
 20
7.0499289845
 30
0.0
 11
1.4147285158
 21
7.0499289845
 31
0.0
  0
LINE
  5
2FB
330
1F
100
AcDbEntity
  8
0
  6
CONTINUOUS
 62
     1
100
AcDbLine
 10
46.9147285158
 20
7.0499289845
 30
0.0
 11
45.4687140752
 21
7.0499289845
 31
0.0
  0
ARC
  5
2FC
330
1F
100
AcDbEntity
  8
0
  6
CONTINUOUS
 62
     1
100
AcDbCircle
 10
44.9147285158
 20
6.7499289845
 30
0.0
 40
0.6300000000000003
100
AcDbArc
 50
28.4368901489
 51
331.5631098511
  0
LINE
  5
2FD
330
1F
100
AcDbEntity
  8
0
  6
CONTINUOUS
 62
     1
100
AcDbLine
 10
45.4687140752
 20
6.4499289845
 30
0.0
 11
46.9147285158
 21
6.4499289845
 31
0.0
  0
LINE
  5
2FE
330
1F
100
AcDbEntity
  8
0
  6
CONTINUOUS
 62
     1
100
AcDbLine
 10
46.9147285158
 20
5.0499289853
 30
0.0
 11
45.4687697209
 21
5.0499289853
 31
0.0
  0
ARC
  5
2FF
330
1F
100
AcDbEntity
  8
0
  6
CONTINUOUS
 62
     1
100
AcDbCircle
 10
44.9147841615
 20
4.7499289853
 30
0.0
 40
0.6299999999999937
100
AcDbArc
 50
28.4368901489
 51
331.5631098511
  0
LINE
  5
300
330
1F
100
AcDbEntity
  8
0
  6
CONTINUOUS
 62
     1
100
AcDbLine
 10
45.4687697209
 20
4.4499289853
 30
0.0
 11
46.9147285158
 21
4.4499289853
 31
0.0
  0
ARC
  5
301
330
1F
100
AcDbEntity
  8
0
  6
CONTINUOUS
 62
     1
100
AcDbCircle
 10
43.0163068418
 20
6.2499289853
 30
0.0
 40
3.0
100
AcDbArc
 50
266.1214754972
 51
270.0
  0
LINE
  5
302
330
1F
100
AcDbEntity
  8
0
  6
CONTINUOUS
 62
     1
100
AcDbLine
 10
42.8133828346
 20
3.2567998789
 30
0.0
 11
28.5025474535
 21
4.2270260065
 31
0.0
  0
CIRCLE
  5
303
330
1F
100
AcDbEntity
  8
0
  6
CONTINUOUS
 62
     1
100
AcDbCircle
 10
4.9147285158
 20
5.7499289853
 30
0.0
 40
0.1875000000000009
  0
CIRCLE
  5
304
330
1F
100
AcDbEntity
  8
0
  6
CONTINUOUS
 62
     1
100
AcDbCircle
 10
43.4147285158
 20
5.7499289853
 30
0.0
 40
0.1875
  0
LINE
  5
305
330
1F
100
AcDbEntity
  8
0
  6
CONTINUOUS
 62
     1
100
AcDbLine
 10
46.9147285158
 20
8.2499289853
 30
0.0
 11
1.4147285158
 21
8.2499289853
 31
0.0
  0
LINE
  5
306
330
1F
100
AcDbEntity
  8
0
  6
CONTINUOUS
 62
     1
100
AcDbLine
 10
46.9147285158
 20
3.2499289853
 30
0.0
 11
46.9147285158
 21
4.4499289853
 31
0.0
  0
LINE
  5
307
330
1F
100
AcDbEntity
  8
0
  6
CONTINUOUS
 62
     1
100
AcDbLine
 10
46.9147285158
 20
5.0499289853
 30
0.0
 11
46.9147285158
 21
6.4499289845
 31
0.0
  0
LINE
  5
308
330
1F
100
AcDbEntity
  8
0
  6
CONTINUOUS
 62
     1
100
AcDbLine
 10
46.9147285158
 20
7.0499289845
 30
0.0
 11
46.9147285158
 21
8.2499289853
 31
0.0
  0
LINE
  5
309
330
1F
100
AcDbEntity
  8
0
  6
CONTINUOUS
 62
     1
100
AcDbLine
 10
43.0163068418
 20
3.2499289853
 30
0.0
 11
46.9147285158
 21
3.2499289853
 31
0.0
  0
LINE
  5
30A
330
1F
100
AcDbEntity
  8
0
  6
CONTINUOUS
 62
     1
100
AcDbLine
 10
1.4147285158
 20
8.2499289853
 30
0.0
 11
1.4147285158
 21
7.0499289845
 31
0.0
  0
LINE
  5
30B
330
1F
100
AcDbEntity
  8
0
  6
CONTINUOUS
 62
     1
100
AcDbLine
 10
1.4147285158
 20
6.4499289845
 30
0.0
 11
1.4147285158
 21
5.0499289853
 31
0.0
  0
LINE
  5
30C
330
1F
100
AcDbEntity
  8
0
  6
CONTINUOUS
 62
     1
100
AcDbLine
 10
1.4147285158
 20
4.4499289853
 30
0.0
 11
1.4147285158
 21
3.2499289853
 31
0.0
  0
LINE
  5
30D
330
1F
100
AcDbEntity
  8
0
  6
CONTINUOUS
 62
     1
100
AcDbLine
 10
1.4147285158
 20
3.2499289853
 30
0.0
 11
5.3131501899
 21
3.2499289853
 31
0.0
  0
ARC
  5
30E
330
1F
100
AcDbEntity
  8
0
  6
CONTINUOUS
 62
     1
100
AcDbCircle
 10
44.9147841615
 20
4.7499289853
 30
0.0
 40
0.6299999999999937
100
AcDbArc
 50
331.5631098511
 51
28.4368901489
  0
LINE
  5
30F
330
1F
100
AcDbEntity
  8
0
  6
CONTINUOUS
 62
     1
100
AcDbLine
 10
46.9147285158
 20
4.4499289853
 30
0.0
 11
46.9147285158
 21
5.0499289853
 31
0.0
  0
ARC
  5
310
330
1F
100
AcDbEntity
  8
0
  6
CONTINUOUS
 62
     1
100
AcDbCircle
 10
44.9147285158
 20
6.7499289845
 30
0.0
 40
0.6300000000000003
100
AcDbArc
 50
331.5631098511
 51
28.4368901489
  0
LINE
  5
311
330
1F
100
AcDbEntity
  8
0
  6
CONTINUOUS
 62
     1
100
AcDbLine
 10
46.9147285158
 20
7.0499289845
 30
0.0
 11
46.9147285158
 21
6.4499289845
 31
0.0
  0
ARC
  5
312
330
1F
100
AcDbEntity
  8
0
  6
CONTINUOUS
 62
     1
100
AcDbCircle
 10
3.4147285158
 20
6.7499289845
 30
0.0
 40
0.629999999999998
100
AcDbArc
 50
151.5631098511
 51
208.4368901489
  0
LINE
  5
313
330
1F
100
AcDbEntity
  8
0
  6
CONTINUOUS
 62
     1
100
AcDbLine
 10
1.4147285158
 20
7.0499289845
 30
0.0
 11
1.4147285158
 21
6.4499289845
 31
0.0
  0
ARC
  5
314
330
1F
100
AcDbEntity
  8
0
  6
CONTINUOUS
 62
     1
100
AcDbCircle
 10
3.4146728702
 20
4.7499289853
 30
0.0
 40
0.6299999999999976
100
AcDbArc
 50
151.5631098511
 51
208.4368901489
  0
LINE
  5
315
330
1F
100
AcDbEntity
  8
0
  6
CONTINUOUS
 62
     1
100
AcDbLine
 10
1.4147285158
 20
4.4499289853
 30
0.0
 11
1.4147285158
 21
5.0499289853
 31
0.0
  0
INSERT
  5
353
330
1F
100
AcDbEntity
  8
0
  6
CONTINUOUS
 62
     7
100
AcDbBlockReference
  2
SW_HATCH_9
 10
1.4230979547
 20
7.0499289845
 30
0.0
  0
INSERT
  5
35E
330
1F
100
AcDbEntity
  8
0
  6
CONTINUOUS
 62
     7
100
AcDbBlockReference
  2
SW_NOTE_10
 10
48.0668191779
 20
3.9807144283
 30
0.0
  0
LEADER
  5
368
330
1F
100
AcDbEntity
  8
0
  6
CONTINUOUS
 62
     7
100
AcDbLeader
  3
SLDDIMSTYLE2
 76
     2
 10
46.2214559714
 20
4.7715053172
 30
0.0
 10
48.0668191779
 20
3.9807144283
 30
0.0
1001
ACAD
1000
DSTYLE
1002
{
1070
     6
1000
DOT
1002
}
  0
INSERT
  5
373
330
1F
100
AcDbEntity
  8
0
  6
CONTINUOUS
 62
     7
100
AcDbBlockReference
  2
SW_NOTE_11
 10
5.7214692904
 20
6.1938441782
 30
0.0
  0
LEADER
  5
374
330
1F
100
AcDbEntity
  8
0
  6
CONTINUOUS
 62
     7
100
AcDbLeader
  3
SLDDIMSTYLE2
 76
     2
 10
5.0053730425
 20
5.7701867241
 30
0.0
 10
5.7214692904
 20
6.1938441782
 30
0.0
1001
ACAD
1000
DSTYLE
1002
{
1070
     6
1000
DOT
1002
}
  0
INSERT
  5
37A
330
1F
100
AcDbEntity
  8
0
  6
CONTINUOUS
 62
     7
100
AcDbBlockReference
  2
SW_NOTE_12
 10
8.0112101165
 20
7.162631844
 30
0.0
  0
ENDSEC
  0
SECTION
  2
OBJECTS
  0
DICTIONARY
  5
C
330
0
100
AcDbDictionary
  3
ACAD_GROUP
350
D
  3
ACAD_MLINESTYLE
350
17
1001
ACAD
1000
TREAT_AS_HARD
1070
     0
  0
DICTIONARY
  5
D
102
{ACAD_REACTORS
330
C
102
}
330
C
100
AcDbDictionary
1001
ACAD
1000
TREAT_AS_HARD
1070
     0
  0
DICTIONARY
  5
17
102
{ACAD_REACTORS
330
C
102
}
330
C
100
AcDbDictionary
  3
STANDARD
350
18
1001
ACAD
1000
TREAT_AS_HARD
1070
     0
  0
MLINESTYLE
  5
18
102
{ACAD_REACTORS
330
17
102
}
330
17
100
AcDbMlineStyle
  2
Standard
 70
     0
  3

 62
   256
 51
90.0
 52
90.0
 71
     2
 49
0.5
 62
   256
  6
BYLAYER
 49
-0.5
 62
   256
  6
BYLAYER
  0
ENDSEC
  0
EOF
