  0
SECTION
  2
HEADER
  9
$ACADVER
  1
AC1015
  9
$ACADMAINTVER
 70
     6
  9
$DWGCODEPAGE
  3
ANSI_1252
  9
$INSBASE
 10
0.0
 20
0.0
 30
0.0
  9
$EXTMIN
 10
0.0
 20
0.0
 30
0.0
  9
$EXTMAX
 10
594.0
 20
420.0
 30
0.0
  9
$LIMMIN
 10
0.0
 20
0.0
  9
$LIMMAX
 10
594.0
 20
420.0
  9
$ORTHOMODE
 70
     0
  9
$REGENMODE
 70
     1
  9
$FILLMODE
 70
     1
  9
$QTEXTMODE
 70
     0
  9
$MIRRTEXT
 70
     1
  9
$LTSCALE
 40
1.0
  9
$ATTMODE
 70
     1
  9
$TEXTSIZE
 40
0.2
  9
$TRACEWID
 40
0.05
  9
$TEXTSTYLE
  7
Standard
  9
$CLAYER
  8
0
  9
$CELTYPE
  6
ByLayer
  9
$CECOLOR
 62
   256
  9
$CELTSCALE
 40
25.4
  9
$DISPSILH
 70
     0
  9
$DIMSCALE
 40
1.0
  9
$DIMASZ
 40
0.18
  9
$DIMEXO
 40
0.0625
  9
$DIMDLI
 40
0.38
  9
$DIMRND
 40
0.0
  9
$DIMDLE
 40
0.0
  9
$DIMEXE
 40
0.18
  9
$DIMTP
 40
0.0
  9
$DIMTM
 40
0.0
  9
$DIMTXT
 40
0.18
  9
$DIMCEN
 40
0.09
  9
$DIMTSZ
 40
0.0
  9
$DIMTOL
 70
     0
  9
$DIMLIM
 70
     0
  9
$DIMTIH
 70
     1
  9
$DIMTOH
 70
     1
  9
$DIMSE1
 70
     0
  9
$DIMSE2
 70
     0
  9
$DIMTAD
 70
     0
  9
$DIMZIN
 70
     0
  9
$DIMBLK
  1

  9
$DIMASO
 70
     1
  9
$DIMSHO
 70
     1
  9
$DIMPOST
  1

  9
$DIMAPOST
  1

  9
$DIMALT
 70
     0
  9
$DIMALTD
 70
     2
  9
$DIMALTF
 40
25.4
  9
$DIMLFAC
 40
1.0
  9
$DIMTOFL
 70
     0
  9
$DIMTVP
 40
0.0
  9
$DIMTIX
 70
     0
  9
$DIMSOXD
 70
     0
  9
$DIMSAH
 70
     0
  9
$DIMBLK1
  1

  9
$DIMBLK2
  1

  9
$DIMSTYLE
  2
Standard
  9
$DIMCLRD
 70
     0
  9
$DIMCLRE
 70
     0
  9
$DIMCLRT
 70
     0
  9
$DIMTFAC
 40
1.0
  9
$DIMGAP
 40
0.09
  9
$DIMJUST
 70
     0
  9
$DIMSD1
 70
     0
  9
$DIMSD2
 70
     0
  9
$DIMTOLJ
 70
     1
  9
$DIMTZIN
 70
     0
  9
$DIMALTZ
 70
     0
  9
$DIMALTTZ
 70
     0
  9
$DIMUPT
 70
     0
  9
$DIMDEC
 70
     4
  9
$DIMTDEC
 70
     4
  9
$DIMALTU
 70
     2
  9
$DIMALTTD
 70
     2
  9
$DIMTXSTY
  7
Standard
  9
$DIMAUNIT
 70
     0
  9
$DIMADEC
 70
     0
  9
$DIMALTRND
 40
0.0
  9
$DIMAZIN
 70
     0
  9
$DIMDSEP
 70
    46
  9
$DIMATFIT
 70
     3
  9
$DIMFRAC
 70
     0
  9
$DIMLDRBLK
  1

  9
$DIMLUNIT
 70
     2
  9
$DIMLWD
 70
    -2
  9
$DIMLWE
 70
    -2
  9
$DIMTMOVE
 70
     0
  9
$LUNITS
 70
     2
  9
$LUPREC
 70
     4
  9
$SKETCHINC
 40
0.1
  9
$FILLETRAD
 40
0.5
  9
$AUNITS
 70
     0
  9
$AUPREC
 70
     0
  9
$MENU
  1
.
  9
$ELEVATION
 40
0.0
  9
$PELEVATION
 40
0.0
  9
$THICKNESS
 40
0.0
  9
$LIMCHECK
 70
     0
  9
$CHAMFERA
 40
0.5
  9
$CHAMFERB
 40
0.5
  9
$CHAMFERC
 40
1.0
  9
$CHAMFERD
 40
0.0
  9
$SKPOLY
 70
     0
  9
$TDCREATE
 40
2457425.552913773
  9
$TDUCREATE
 40
2457425.323747106
  9
$TDUPDATE
 40
2457425.552913785
  9
$TDUUPDATE
 40
2457425.323747118
  9
$TDINDWG
 40
0.0000000116
  9
$TDUSRTIMER
 40
0.0000000116
  9
$USRTIMER
 70
     1
  9
$ANGBASE
 50
0.0
  9
$ANGDIR
 70
     0
  9
$PDMODE
 70
     0
  9
$PDSIZE
 40
0.0
  9
$PLINEWID
 40
0.0
  9
$SPLFRAME
 70
     0
  9
$SPLINETYPE
 70
     6
  9
$SPLINESEGS
 70
     8
  9
$HANDSEED
  5
1C3
  9
$SURFTAB1
 70
     6
  9
$SURFTAB2
 70
     6
  9
$SURFTYPE
 70
     6
  9
$SURFU
 70
     6
  9
$SURFV
 70
     6
  9
$UCSBASE
  2

  9
$UCSNAME
  2

  9
$UCSORG
 10
0.0
 20
0.0
 30
0.0
  9
$UCSXDIR
 10
1.0
 20
0.0
 30
0.0
  9
$UCSYDIR
 10
0.0
 20
1.0
 30
0.0
  9
$UCSORTHOREF
  2

  9
$UCSORTHOVIEW
 70
     0
  9
$UCSORGTOP
 10
0.0
 20
0.0
 30
0.0
  9
$UCSORGBOTTOM
 10
0.0
 20
0.0
 30
0.0
  9
$UCSORGLEFT
 10
0.0
 20
0.0
 30
0.0
  9
$UCSORGRIGHT
 10
0.0
 20
0.0
 30
0.0
  9
$UCSORGFRONT
 10
0.0
 20
0.0
 30
0.0
  9
$UCSORGBACK
 10
0.0
 20
0.0
 30
0.0
  9
$PUCSBASE
  2

  9
$PUCSNAME
  2

  9
$PUCSORG
 10
0.0
 20
0.0
 30
0.0
  9
$PUCSXDIR
 10
1.0
 20
0.0
 30
0.0
  9
$PUCSYDIR
 10
0.0
 20
1.0
 30
0.0
  9
$PUCSORTHOREF
  2

  9
$PUCSORTHOVIEW
 70
     0
  9
$PUCSORGTOP
 10
0.0
 20
0.0
 30
0.0
  9
$PUCSORGBOTTOM
 10
0.0
 20
0.0
 30
0.0
  9
$PUCSORGLEFT
 10
0.0
 20
0.0
 30
0.0
  9
$PUCSORGRIGHT
 10
0.0
 20
0.0
 30
0.0
  9
$PUCSORGFRONT
 10
0.0
 20
0.0
 30
0.0
  9
$PUCSORGBACK
 10
0.0
 20
0.0
 30
0.0
  9
$USERI1
 70
     0
  9
$USERI2
 70
     0
  9
$USERI3
 70
     0
  9
$USERI4
 70
     0
  9
$USERI5
 70
     0
  9
$USERR1
 40
0.0
  9
$USERR2
 40
0.0
  9
$USERR3
 40
0.0
  9
$USERR4
 40
0.0
  9
$USERR5
 40
0.0
  9
$WORLDVIEW
 70
     1
  9
$SHADEDGE
 70
     3
  9
$SHADEDIF
 70
    70
  9
$TILEMODE
 70
     1
  9
$MAXACTVP
 70
    64
  9
$PINSBASE
 10
0.0
 20
0.0
 30
0.0
  9
$PLIMCHECK
 70
     0
  9
$PEXTMIN
 10
0.0
 20
0.0
 30
0.0
  9
$PEXTMAX
 10
594.0
 20
420.0
 30
0.0
  9
$PLIMMIN
 10
0.0
 20
0.0
  9
$PLIMMAX
 10
594.0
 20
420.0
  9
$UNITMODE
 70
     0
  9
$VISRETAIN
 70
     1
  9
$PLINEGEN
 70
     0
  9
$PSLTSCALE
 70
     1
  9
$TREEDEPTH
 70
  3020
  9
$CMLSTYLE
  2
Standard
  9
$CMLJUST
 70
     0
  9
$CMLSCALE
 40
1.0
  9
$PROXYGRAPHICS
 70
     1
  9
$MEASUREMENT
 70
     1
  9
$CELWEIGHT
370
    -1
  9
$ENDCAPS
280
     0
  9
$JOINSTYLE
280
     0
  9
$LWDISPLAY
290
     0
  9
$INSUNITS
 70
     1
  9
$HYPERLINKBASE
  1

  9
$STYLESHEET
  1

  9
$XEDIT
290
     1
  9
$CEPSNTYPE
380
     0
  9
$PSTYLEMODE
290
     1
  9
$FINGERPRINTGUID
  2
{F29F6FFF-EFC2-4B68-A62A-E9F9A75659BE}
  9
$VERSIONGUID
  2
{FAEB1C32-E019-11D5-929B-00C0DF256EC4}
  9
$EXTNAMES
290
     1
  9
$PSVPSCALE
 40
0.0
  9
$OLESTARTUP
290
     0
  0
ENDSEC
  0
SECTION
  2
CLASSES
  0
CLASS
  1
ACDBDICTIONARYWDFLT
  2
AcDbDictionaryWithDefault
  3
ObjectDBX Classes
 90
        0
280
     0
281
     0
  0
CLASS
  1
ACDBPLACEHOLDER
  2
AcDbPlaceHolder
  3
ObjectDBX Classes
 90
        0
280
     0
281
     0
  0
CLASS
  1
LAYOUT
  2
AcDbLayout
  3
ObjectDBX Classes
 90
        0
280
     0
281
     0
  0
ENDSEC
  0
SECTION
  2
TABLES
  0
TABLE
  2
VPORT
  5
8
330
0
100
AcDbSymbolTable
 70
     1
  0
VPORT
  5
29
330
8
100
AcDbSymbolTableRecord
100
AcDbViewportTableRecord
  2
*Active
 70
     0
 10
0.0
 20
0.0
 11
1.0
 21
1.0
 12
10.4299065421
 22
4.5
 13
0.0
 23
0.0
 14
0.5
 24
0.5
 15
0.5
 25
0.5
 16
0.0
 26
0.0
 36
1.0
 17
0.0
 27
0.0
 37
0.0
 40
9.0
 41
1.9729729729
 42
50.0
 43
0.0
 44
0.0
 50
0.0
 51
0.0
 71
     0
 72
   100
 73
     1
 74
     3
 75
     0
 76
     0
 77
     0
 78
     0
281
     0
 65
     1
110
0.0
120
0.0
130
0.0
111
1.0
121
0.0
131
0.0
112
0.0
122
1.0
132
0.0
 79
     0
146
0.0
  0
ENDTAB
  0
TABLE
  2
LTYPE
  5
5
330
0
100
AcDbSymbolTable
 70
     2
  0
LTYPE
  5
14
330
5
100
AcDbSymbolTableRecord
100
AcDbLinetypeTableRecord
  2
ByBlock
 70
     0
  3

 72
    65
 73
     0
 40
0.0
  0
LTYPE
  5
15
330
5
100
AcDbSymbolTableRecord
100
AcDbLinetypeTableRecord
  2
ByLayer
 70
     0
  3

 72
    65
 73
     0
 40
0.0
  0
LTYPE
  5
16
330
5
100
AcDbSymbolTableRecord
100
AcDbLinetypeTableRecord
  2
Continuous
 70
     0
  3
Solid line
 72
    65
 73
     0
 40
0.0
  0
LTYPE
  5
3A
330
5
100
AcDbSymbolTableRecord
100
AcDbLinetypeTableRecord
  2
CENTER2
 70
     0
  3
___ _ ___ _ ___ _ ___ _ ___ _ ___ _ ___ _ ___ _
 72
    65
 73
     4
 40
1.125
 49
0.75
 74
     4
 75
     0
340
0
 46
0.0
 50
0.0
 44
0.0
 45
0.0
 49
-0.125
 74
     4
 75
     0
340
0
 46
0.0
 50
0.0
 44
0.0
 45
0.0
 49
0.125
 74
     4
 75
     0
340
0
 46
0.0
 50
0.0
 44
0.0
 45
0.0
 49
-0.125
 74
     4
 75
     0
340
0
 46
0.0
 50
0.0
 44
0.0
 45
0.0
  0
ENDTAB
  0
TABLE
  2
LAYER
  5
2
330
0
100
AcDbSymbolTable
 70
     2
  0
LAYER
  5
10
330
2
100
AcDbSymbolTableRecord
100
AcDbLayerTableRecord
  2
0
 70
     0
 62
     7
  6
Continuous
370
    -3
390
F
  0
LAYER
  5
2A
330
2
100
AcDbSymbolTableRecord
100
AcDbLayerTableRecord
  2
Default
 70
     0
 62
     7
  6
Continuous
370
    -3
390
F
  0
ENDTAB
  0
TABLE
  2
STYLE
  5
3
330
0
100
AcDbSymbolTable
 70
     6
  0
STYLE
  5
11
330
3
100
AcDbSymbolTableRecord
100
AcDbTextStyleTableRecord
  2
Standard
 70
     0
 40
0.0
 41
1.0
 50
0.0
 71
     0
 42
0.2
  3
txt
  4

  0
STYLE
  5
76
330
3
100
AcDbSymbolTableRecord
100
AcDbTextStyleTableRecord
  2
SEACAD_seiso_ttf
 70
     0
 40
3.5
 41
1.0
 50
0.0
 71
     0
 42
0.2
  3
seiso.ttf
  4

  0
STYLE
  5
A9
330
3
100
AcDbSymbolTableRecord
100
AcDbTextStyleTableRecord
  2
SEACAD_semeci1_ttf
 70
     0
 40
0.2
 41
1.0
 50
0.0
 71
     0
 42
0.2
  3
semeci1.ttf
  4

  0
STYLE
  5
196
330
3
100
AcDbSymbolTableRecord
100
AcDbTextStyleTableRecord
  2
SEACAD_arial_ttfB
 70
     0
 40
0.2
 41
1.0
 50
0.0
 71
     0
 42
0.2
  3
arial.ttf
  4

  0
STYLE
  5
198
330
3
100
AcDbSymbolTableRecord
100
AcDbTextStyleTableRecord
  2
SEACAD_arial_ttfI
 70
     0
 40
0.2
 41
1.0
 50
0.0
 71
     0
 42
0.2
  3
arial.ttf
  4

  0
STYLE
  5
1A0
330
3
100
AcDbSymbolTableRecord
100
AcDbTextStyleTableRecord
  2
SEACAD_seiso_ttfB
 70
     0
 40
0.2
 41
1.0
 50
0.0
 71
     0
 42
0.2
  3
seiso.ttf
  4

  0
ENDTAB
  0
TABLE
  2
VIEW
  5
6
330
0
100
AcDbSymbolTable
 70
     0
  0
ENDTAB
  0
TABLE
  2
UCS
  5
7
330
0
100
AcDbSymbolTable
 70
     0
  0
ENDTAB
  0
TABLE
  2
APPID
  5
9
330
0
100
AcDbSymbolTable
 70
     1
  0
APPID
  5
12
330
9
100
AcDbSymbolTableRecord
100
AcDbRegAppTableRecord
  2
ACAD
 70
     0
  0
ENDTAB
  0
TABLE
  2
DIMSTYLE
  5
A
330
0
100
AcDbSymbolTable
 70
     2
100
AcDbDimStyleTable
  0
DIMSTYLE
105
27
330
A
100
AcDbSymbolTableRecord
100
AcDbDimStyleTableRecord
  2
Standard
 70
     0
340
11
  0
DIMSTYLE
105
77
102
{ACAD_REACTORS
330
78
330
84
330
90
330
9C
330
A8
330
B6
330
C3
330
CF
330
DB
330
E7
330
F3
330
FF
330
10B
330
117
330
123
330
12F
330
13B
330
147
330
153
330
160
102
}
330
A
100
AcDbSymbolTableRecord
100
AcDbDimStyleTableRecord
  2
ISO
 70
     0
 41
3.5
 42
0.0
 44
1.75
 73
     0
 74
     0
 77
     1
 78
     8
140
3.5
141
1.75
147
1.75
172
     1
173
     1
176
     7
177
     7
178
     7
271
     2
272
     2
278
    44
284
     8
340
76
343
71
344
71
  0
ENDTAB
  0
TABLE
  2
BLOCK_RECORD
  5
1
330
0
100
AcDbSymbolTable
 70
    29
  0
BLOCK_RECORD
  5
1F
330
1
100
AcDbSymbolTableRecord
100
AcDbBlockTableRecord
  2
*Model_Space
340
22
  0
BLOCK_RECORD
  5
1B
330
1
100
AcDbSymbolTableRecord
100
AcDbBlockTableRecord
  2
*Paper_Space
340
1E
  0
BLOCK_RECORD
  5
71
330
1
100
AcDbSymbolTableRecord
100
AcDbBlockTableRecord
  2
_SE_FILLED
340
0
  0
BLOCK_RECORD
  5
79
330
1
100
AcDbSymbolTableRecord
100
AcDbBlockTableRecord
  2
DMBLK1
340
0
  0
BLOCK_RECORD
  5
85
330
1
100
AcDbSymbolTableRecord
100
AcDbBlockTableRecord
  2
DMBLK2
340
0
  0
BLOCK_RECORD
  5
91
330
1
100
AcDbSymbolTableRecord
100
AcDbBlockTableRecord
  2
DMBLK3
340
0
  0
BLOCK_RECORD
  5
9D
330
1
100
AcDbSymbolTableRecord
100
AcDbBlockTableRecord
  2
DMBLK4
340
0
  0
BLOCK_RECORD
  5
AA
330
1
100
AcDbSymbolTableRecord
100
AcDbBlockTableRecord
  2
DMBLK5
340
0
  0
BLOCK_RECORD
  5
B7
330
1
100
AcDbSymbolTableRecord
100
AcDbBlockTableRecord
  2
DMBLK6
340
0
  0
BLOCK_RECORD
  5
C4
330
1
100
AcDbSymbolTableRecord
100
AcDbBlockTableRecord
  2
DMBLK7
340
0
  0
BLOCK_RECORD
  5
D0
330
1
100
AcDbSymbolTableRecord
100
AcDbBlockTableRecord
  2
DMBLK8
340
0
  0
BLOCK_RECORD
  5
DC
330
1
100
AcDbSymbolTableRecord
100
AcDbBlockTableRecord
  2
DMBLK9
340
0
  0
BLOCK_RECORD
  5
E8
330
1
100
AcDbSymbolTableRecord
100
AcDbBlockTableRecord
  2
DMBLK10
340
0
  0
BLOCK_RECORD
  5
F4
330
1
100
AcDbSymbolTableRecord
100
AcDbBlockTableRecord
  2
DMBLK11
340
0
  0
BLOCK_RECORD
  5
100
330
1
100
AcDbSymbolTableRecord
100
AcDbBlockTableRecord
  2
DMBLK12
340
0
  0
BLOCK_RECORD
  5
10C
330
1
100
AcDbSymbolTableRecord
100
AcDbBlockTableRecord
  2
DMBLK13
340
0
  0
BLOCK_RECORD
  5
118
330
1
100
AcDbSymbolTableRecord
100
AcDbBlockTableRecord
  2
DMBLK14
340
0
  0
BLOCK_RECORD
  5
124
330
1
100
AcDbSymbolTableRecord
100
AcDbBlockTableRecord
  2
DMBLK15
340
0
  0
BLOCK_RECORD
  5
130
330
1
100
AcDbSymbolTableRecord
100
AcDbBlockTableRecord
  2
DMBLK16
340
0
  0
BLOCK_RECORD
  5
13C
330
1
100
AcDbSymbolTableRecord
100
AcDbBlockTableRecord
  2
DMBLK17
340
0
  0
BLOCK_RECORD
  5
148
330
1
100
AcDbSymbolTableRecord
100
AcDbBlockTableRecord
  2
DMBLK18
340
0
  0
BLOCK_RECORD
  5
154
330
1
100
AcDbSymbolTableRecord
100
AcDbBlockTableRecord
  2
DMBLK19
340
0
  0
BLOCK_RECORD
  5
161
330
1
100
AcDbSymbolTableRecord
100
AcDbBlockTableRecord
  2
DMBLK20
340
0
  0
BLOCK_RECORD
  5
18B
330
1
100
AcDbSymbolTableRecord
100
AcDbBlockTableRecord
  2
SEANNOT_GROUP
340
0
102
{BLKREFS
331
18C
102
}
  0
BLOCK_RECORD
  5
191
330
1
100
AcDbSymbolTableRecord
100
AcDbBlockTableRecord
  2
SEANNOT_GROUP1
340
0
102
{BLKREFS
331
192
102
}
  0
BLOCK_RECORD
  5
19B
330
1
100
AcDbSymbolTableRecord
100
AcDbBlockTableRecord
  2
SEANNOT_GROUP2
340
0
102
{BLKREFS
331
19C
102
}
  0
BLOCK_RECORD
  5
1A3
330
1
100
AcDbSymbolTableRecord
100
AcDbBlockTableRecord
  2
SEANNOT_GROUP3
340
0
102
{BLKREFS
331
1A4
102
}
  0
BLOCK_RECORD
  5
1A8
330
1
100
AcDbSymbolTableRecord
100
AcDbBlockTableRecord
  2
SEANNOT_GROUP4
340
0
102
{BLKREFS
331
1A9
102
}
  0
BLOCK_RECORD
  5
1AC
330
1
100
AcDbSymbolTableRecord
100
AcDbBlockTableRecord
  2
SEANNOT_GROUP5
340
0
102
{BLKREFS
331
1AD
102
}
  0
BLOCK_RECORD
  5
1B3
330
1
100
AcDbSymbolTableRecord
100
AcDbBlockTableRecord
  2
SEANNOT_GROUP6
340
0
102
{BLKREFS
331
1B4
102
}
  0
ENDTAB
  0
ENDSEC
  0
SECTION
  2
BLOCKS
  0
BLOCK
  5
20
330
1F
100
AcDbEntity
  8
0
100
AcDbBlockBegin
  2
*Model_Space
 70
     0
 71
     0
 10
0.0
 20
0.0
 30
0.0
  3
*Model_Space
  1

  0
ENDBLK
  5
21
330
1F
100
AcDbEntity
  8
0
100
AcDbBlockEnd
  0
BLOCK
  5
1C
330
1B
100
AcDbEntity
 67
     1
  8
0
100
AcDbBlockBegin
  2
*Paper_Space
 70
     0
 71
     0
 10
0.0
 20
0.0
 30
0.0
  3
*Paper_Space
  1

  0
ENDBLK
  5
1D
330
1B
100
AcDbEntity
 67
     1
  8
0
100
AcDbBlockEnd
  0
BLOCK
  5
74
330
71
100
AcDbEntity
  8
0
100
AcDbBlockBegin
  2
_SE_FILLED
 70
     0
 71
     0
 10
0.0
 20
0.0
 30
0.0
  3
_SE_FILLED
  1

  0
SOLID
  5
72
330
71
100
AcDbEntity
  8
0
100
AcDbTrace
 10
0.0
 20
0.0
 30
0.0
 11
-1.0
 21
-0.1665
 31
0.0
 12
-1.0
 22
0.1665
 32
0.0
 13
0.0
 23
0.0
 33
0.0
  0
LINE
  5
73
330
71
100
AcDbEntity
  8
0
100
AcDbLine
 10
0.0
 20
0.0
 30
0.0
 11
-1.0
 21
0.0
 31
0.0
  0
ENDBLK
  5
75
330
71
100
AcDbEntity
  8
0
100
AcDbBlockEnd
  0
BLOCK
  5
82
330
79
100
AcDbEntity
  8
0
100
AcDbBlockBegin
  2
DMBLK1
 70
     0
 71
     0
 10
0.0
 20
0.0
 30
0.0
  3
DMBLK1
  1

  0
HATCH
  5
7A
330
79
100
AcDbEntity
  8
Default
  6
Continuous
 62
   136
 48
25.4
100
AcDbHatch
 10
0.0
 20
0.0
 30
0.0
210
0.0
220
0.0
230
1.0
  2
SOLID
 70
     1
 71
     0
 91
        1
 92
        1
 93
        3
 72
     1
 10
130.3553370554873
 20
232.2330455088656
 11
130.3553370554873
 21
233.3997122115434
 72
     1
 10
130.3553370554873
 20
233.3997122115434
 11
126.8553369474538
 21
232.8163788602045
 72
     1
 10
126.8553369474538
 20
232.8163788602045
 11
130.3553370554873
 21
232.2330455088656
 97
        0
 75
     0
 76
     1
 98
        0
  0
LWPOLYLINE
  5
7B
330
79
100
AcDbEntity
  8
Default
  6
Continuous
 62
   136
 48
25.4
370
    20
100
AcDbPolyline
 90
        4
 70
     1
 43
0.00025
 10
130.3553370555
 20
232.2330455089
 10
126.8553369475
 20
232.8163788602
 10
130.3553370555
 20
233.3997122115
 10
130.3553370555
 20
232.2330455089
  0
HATCH
  5
7C
330
79
100
AcDbEntity
  8
Default
  6
Continuous
 62
   136
 48
25.4
100
AcDbHatch
 10
0.0
 20
0.0
 30
0.0
210
0.0
220
0.0
230
1.0
  2
SOLID
 70
     1
 71
     0
 91
        1
 92
        1
 93
        3
 72
     1
 10
138.3553365041443
 20
232.2330455088656
 11
141.8553366121777
 21
232.8163788602045
 72
     1
 10
141.8553366121777
 20
232.8163788602045
 11
138.3553365041443
 21
233.3997122115434
 72
     1
 10
138.3553365041443
 20
233.3997122115434
 11
138.3553365041443
 21
232.2330455088656
 97
        0
 75
     0
 76
     1
 98
        0
  0
LWPOLYLINE
  5
7D
330
79
100
AcDbEntity
  8
Default
  6
Continuous
 62
   136
 48
25.4
370
    20
100
AcDbPolyline
 90
        4
 70
     1
 43
0.00025
 10
138.3553365041
 20
232.2330455089
 10
141.8553366122
 20
232.8163788602
 10
138.3553365041
 20
233.3997122115
 10
138.3553365041
 20
232.2330455089
  0
LINE
  5
7E
330
79
100
AcDbEntity
  8
Default
  6
Continuous
 62
     7
 48
25.4
100
AcDbLine
 10
126.8553369475
 20
241.8184385583
 30
0.0
 11
126.8553369475
 21
231.0663788062
 31
0.0
  0
LINE
  5
7F
330
79
100
AcDbEntity
  8
Default
  6
Continuous
 62
     7
 48
25.4
100
AcDbLine
 10
141.8553369475
 20
241.8184385583
 30
0.0
 11
141.8553369475
 21
231.0663788062
 31
0.0
  0
LINE
  5
80
330
79
100
AcDbEntity
  8
Default
  6
Continuous
 62
     7
 48
25.4
100
AcDbLine
 10
126.8553369475
 20
232.8163788602
 30
0.0
 11
141.8553366122
 21
232.8163788602
 31
0.0
  0
TEXT
  5
81
330
79
100
AcDbEntity
  8
Default
  6
Continuous
 62
     7
 48
25.4
100
AcDbText
 10
132.6451095071
 20
233.6913788602
 30
0.0
 40
3.5
  1
15
  7
SEACAD_seiso_ttf
 11
132.6451095071
 21
237.1913788602
 31
0.0
100
AcDbText
 73
     3
  0
ENDBLK
  5
83
330
79
100
AcDbEntity
  8
0
100
AcDbBlockEnd
  0
BLOCK
  5
8E
330
85
100
AcDbEntity
  8
0
100
AcDbBlockBegin
  2
DMBLK2
 70
     0
 71
     0
 10
0.0
 20
0.0
 30
0.0
  3
DMBLK2
  1

  0
HATCH
  5
86
330
85
100
AcDbEntity
  8
Default
  6
Continuous
 62
   136
 48
25.4
100
AcDbHatch
 10
0.0
 20
0.0
 30
0.0
210
0.0
220
0.0
230
1.0
  2
SOLID
 70
     1
 71
     0
 91
        1
 92
        1
 93
        3
 72
     1
 10
267.3553370554873
 20
232.0736654827039
 11
267.3553370554873
 21
233.2403321853817
 72
     1
 10
267.3553370554873
 20
233.2403321853817
 11
263.8553369474539
 21
232.6569988340428
 72
     1
 10
263.8553369474539
 20
232.6569988340428
 11
267.3553370554873
 21
232.0736654827039
 97
        0
 75
     0
 76
     1
 98
        0
  0
LWPOLYLINE
  5
87
330
85
100
AcDbEntity
  8
Default
  6
Continuous
 62
   136
 48
25.4
370
    20
100
AcDbPolyline
 90
        4
 70
     1
 43
0.00025
 10
267.3553370555
 20
232.0736654827
 10
263.8553369475
 20
232.656998834
 10
267.3553370555
 20
233.2403321854
 10
267.3553370555
 20
232.0736654827
  0
HATCH
  5
88
330
85
100
AcDbEntity
  8
Default
  6
Continuous
 62
   136
 48
25.4
100
AcDbHatch
 10
0.0
 20
0.0
 30
0.0
210
0.0
220
0.0
230
1.0
  2
SOLID
 70
     1
 71
     0
 91
        1
 92
        1
 93
        3
 72
     1
 10
275.3553365041444
 20
232.0736654827039
 11
278.8553366121778
 21
232.6569988340428
 72
     1
 10
278.8553366121778
 20
232.6569988340428
 11
275.3553365041444
 21
233.2403321853817
 72
     1
 10
275.3553365041444
 20
233.2403321853817
 11
275.3553365041444
 21
232.0736654827039
 97
        0
 75
     0
 76
     1
 98
        0
  0
LWPOLYLINE
  5
89
330
85
100
AcDbEntity
  8
Default
  6
Continuous
 62
   136
 48
25.4
370
    20
100
AcDbPolyline
 90
        4
 70
     1
 43
0.00025
 10
275.3553365041
 20
232.0736654827
 10
278.8553366122
 20
232.656998834
 10
275.3553365041
 20
233.2403321854
 10
275.3553365041
 20
232.0736654827
  0
LINE
  5
8A
330
85
100
AcDbEntity
  8
Default
  6
Continuous
 62
     7
 48
25.4
100
AcDbLine
 10
263.8553369475
 20
241.8184385583
 30
0.0
 11
263.8553369475
 21
230.90699878
 31
0.0
  0
LINE
  5
8B
330
85
100
AcDbEntity
  8
Default
  6
Continuous
 62
     7
 48
25.4
100
AcDbLine
 10
278.8553369475
 20
241.8184385583
 30
0.0
 11
278.8553369475
 21
230.90699878
 31
0.0
  0
LINE
  5
8C
330
85
100
AcDbEntity
  8
Default
  6
Continuous
 62
     7
 48
25.4
100
AcDbLine
 10
263.8553369475
 20
232.656998834
 30
0.0
 11
278.8553366122
 21
232.656998834
 31
0.0
  0
TEXT
  5
8D
330
85
100
AcDbEntity
  8
Default
  6
Continuous
 62
     7
 48
25.4
100
AcDbText
 10
269.6451095071
 20
233.531998834
 30
0.0
 40
3.5
  1
15
  7
SEACAD_seiso_ttf
 11
269.6451095071
 21
237.031998834
 31
0.0
100
AcDbText
 73
     3
  0
ENDBLK
  5
8F
330
85
100
AcDbEntity
  8
0
100
AcDbBlockEnd
  0
BLOCK
  5
9A
330
91
100
AcDbEntity
  8
0
100
AcDbBlockBegin
  2
DMBLK3
 70
     0
 71
     0
 10
0.0
 20
0.0
 30
0.0
  3
DMBLK3
  1

  0
HATCH
  5
92
330
91
100
AcDbEntity
  8
Default
  6
Continuous
 62
   136
 48
25.4
100
AcDbHatch
 10
0.0
 20
0.0
 30
0.0
210
0.0
220
0.0
230
1.0
  2
SOLID
 70
     1
 71
     0
 91
        1
 92
        1
 93
        3
 72
     1
 10
177.3553370554873
 20
253.1628950602354
 11
173.8553369474539
 21
252.5795617088964
 72
     1
 10
173.8553369474539
 20
252.5795617088964
 11
177.3553370554873
 21
251.9962283575575
 72
     1
 10
177.3553370554873
 20
251.9962283575575
 11
177.3553370554873
 21
253.1628950602354
 97
        0
 75
     0
 76
     1
 98
        0
  0
LWPOLYLINE
  5
93
330
91
100
AcDbEntity
  8
Default
  6
Continuous
 62
   136
 48
25.4
370
    20
100
AcDbPolyline
 90
        4
 70
     1
 43
0.00025
 10
177.3553370555
 20
253.1628950602
 10
173.8553369475
 20
252.5795617089
 10
177.3553370555
 20
251.9962283576
 10
177.3553370555
 20
253.1628950602
  0
HATCH
  5
94
330
91
100
AcDbEntity
  8
Default
  6
Continuous
 62
   136
 48
25.4
100
AcDbHatch
 10
0.0
 20
0.0
 30
0.0
210
0.0
220
0.0
230
1.0
  2
SOLID
 70
     1
 71
     0
 91
        1
 92
        1
 93
        3
 72
     1
 10
228.3553351704904
 20
253.1628950602353
 11
228.3553351704904
 21
251.9962283575575
 72
     1
 10
228.3553351704904
 20
251.9962283575575
 11
231.8553352785238
 21
252.5795617088964
 72
     1
 10
231.8553352785238
 20
252.5795617088964
 11
228.3553351704904
 21
253.1628950602353
 97
        0
 75
     0
 76
     1
 98
        0
  0
LWPOLYLINE
  5
95
330
91
100
AcDbEntity
  8
Default
  6
Continuous
 62
   136
 48
25.4
370
    20
100
AcDbPolyline
 90
        4
 70
     1
 43
0.00025
 10
228.3553351705
 20
253.1628950602
 10
231.8553352785
 20
252.5795617089
 10
228.3553351705
 20
251.9962283576
 10
228.3553351705
 20
253.1628950602
  0
LINE
  5
96
330
91
100
AcDbEntity
  8
Default
  6
Continuous
 62
     7
 48
25.4
100
AcDbLine
 10
173.8553369475
 20
241.8184385583
 30
0.0
 11
173.8553369475
 21
254.3295617629
 31
0.0
  0
LINE
  5
97
330
91
100
AcDbEntity
  8
Default
  6
Continuous
 62
     7
 48
25.4
100
AcDbLine
 10
231.8553369475
 20
241.8184385583
 30
0.0
 11
231.8553369475
 21
254.3295617629
 31
0.0
  0
LINE
  5
98
330
91
100
AcDbEntity
  8
Default
  6
Continuous
 62
     7
 48
25.4
100
AcDbLine
 10
173.8553369475
 20
252.5795617089
 30
0.0
 11
231.8553352785
 21
252.5795617089
 31
0.0
  0
TEXT
  5
99
330
91
100
AcDbEntity
  8
Default
  6
Continuous
 62
     7
 48
25.4
100
AcDbText
 10
200.7473815675
 20
253.4545617089
 30
0.0
 40
3.5
  1
58
  7
SEACAD_seiso_ttf
 11
200.7473815675
 21
256.9545617089
 31
0.0
100
AcDbText
 73
     3
  0
ENDBLK
  5
9B
330
91
100
AcDbEntity
  8
0
100
AcDbBlockEnd
  0
BLOCK
  5
A6
330
9D
100
AcDbEntity
  8
0
100
AcDbBlockBegin
  2
DMBLK4
 70
     0
 71
     0
 10
0.0
 20
0.0
 30
0.0
  3
DMBLK4
  1

  0
HATCH
  5
9E
330
9D
100
AcDbEntity
  8
Default
  6
Continuous
 62
   136
 48
25.4
100
AcDbHatch
 10
0.0
 20
0.0
 30
0.0
210
0.0
220
0.0
230
1.0
  2
SOLID
 70
     1
 71
     0
 91
        1
 92
        1
 93
        3
 72
     1
 10
161.3553370554873
 20
211.3512226732116
 11
161.3553370554873
 21
212.5178893758894
 72
     1
 10
161.3553370554873
 20
212.5178893758894
 11
157.8553369474538
 21
211.9345560245505
 72
     1
 10
157.8553369474538
 20
211.9345560245505
 11
161.3553370554873
 21
211.3512226732116
 97
        0
 75
     0
 76
     1
 98
        0
  0
LWPOLYLINE
  5
9F
330
9D
100
AcDbEntity
  8
Default
  6
Continuous
 62
   136
 48
25.4
370
    20
100
AcDbPolyline
 90
        4
 70
     1
 43
0.00025
 10
161.3553370555
 20
211.3512226732
 10
157.8553369475
 20
211.9345560246
 10
161.3553370555
 20
212.5178893759
 10
161.3553370555
 20
211.3512226732
  0
HATCH
  5
A0
330
9D
100
AcDbEntity
  8
Default
  6
Continuous
 62
   136
 48
25.4
100
AcDbHatch
 10
0.0
 20
0.0
 30
0.0
210
0.0
220
0.0
230
1.0
  2
SOLID
 70
     1
 71
     0
 91
        1
 92
        1
 93
        3
 72
     1
 10
244.3553404156991
 20
211.3512226732116
 11
247.8553405237325
 21
211.9345560245505
 72
     1
 10
247.8553405237325
 20
211.9345560245505
 11
244.3553404156991
 21
212.5178893758894
 72
     1
 10
244.3553404156991
 20
212.5178893758894
 11
244.3553404156991
 21
211.3512226732116
 97
        0
 75
     0
 76
     1
 98
        0
  0
LWPOLYLINE
  5
A1
330
9D
100
AcDbEntity
  8
Default
  6
Continuous
 62
   136
 48
25.4
370
    20
100
AcDbPolyline
 90
        4
 70
     1
 43
0.00025
 10
244.3553404157
 20
211.3512226732
 10
247.8553405237
 20
211.9345560246
 10
244.3553404157
 20
212.5178893759
 10
244.3553404157
 20
211.3512226732
  0
LINE
  5
A2
330
9D
100
AcDbEntity
  8
Default
  6
Continuous
 62
     7
 48
25.4
100
AcDbLine
 10
157.8553369475
 20
219.3184385583
 30
0.0
 11
157.8553369475
 21
210.1845559705
 31
0.0
  0
LINE
  5
A3
330
9D
100
AcDbEntity
  8
Default
  6
Continuous
 62
     7
 48
25.4
100
AcDbLine
 10
247.8553369475
 20
219.3184385583
 30
0.0
 11
247.8553369475
 21
210.1845559705
 31
0.0
  0
LINE
  5
A4
330
9D
100
AcDbEntity
  8
Default
  6
Continuous
 62
     7
 48
25.4
100
AcDbLine
 10
157.8553369475
 20
211.9345560246
 30
0.0
 11
247.8553405237
 21
211.9345560246
 31
0.0
  0
TEXT
  5
A5
330
9D
100
AcDbEntity
  8
Default
  6
Continuous
 62
     7
 48
25.4
100
AcDbText
 10
200.7473841901
 20
212.8095560246
 30
0.0
 40
3.5
  1
90
  7
SEACAD_seiso_ttf
 11
200.7473841901
 21
216.3095560246
 31
0.0
100
AcDbText
 73
     3
  0
ENDBLK
  5
A7
330
9D
100
AcDbEntity
  8
0
100
AcDbBlockEnd
  0
BLOCK
  5
B4
330
AA
100
AcDbEntity
  8
0
100
AcDbBlockBegin
  2
DMBLK5
 70
     0
 71
     0
 10
0.0
 20
0.0
 30
0.0
  3
DMBLK5
  1

  0
HATCH
  5
AB
330
AA
100
AcDbEntity
  8
Default
  6
Continuous
 62
   136
 48
25.4
100
AcDbHatch
 10
0.0
 20
0.0
 30
0.0
210
0.0
220
0.0
230
1.0
  2
SOLID
 70
     1
 71
     0
 91
        1
 92
        1
 93
        3
 72
     1
 10
170.3553368394205
 20
263.6591388947309
 11
170.3553368394205
 21
262.4924721920531
 72
     1
 10
170.3553368394205
 20
262.4924721920531
 11
173.8553369474539
 21
263.075805543392
 72
     1
 10
173.8553369474539
 20
263.075805543392
 11
170.3553368394205
 21
263.6591388947309
 97
        0
 75
     0
 76
     1
 98
        0
  0
LWPOLYLINE
  5
AC
330
AA
100
AcDbEntity
  8
Default
  6
Continuous
 62
   136
 48
25.4
370
    20
100
AcDbPolyline
 90
        4
 70
     1
 43
0.00025
 10
170.3553368394
 20
263.6591388947
 10
173.8553369475
 20
263.0758055434
 10
170.3553368394
 20
262.4924721921
 10
170.3553368394
 20
263.6591388947
  0
HATCH
  5
AD
330
AA
100
AcDbEntity
  8
Default
  6
Continuous
 62
   136
 48
25.4
100
AcDbHatch
 10
0.0
 20
0.0
 30
0.0
210
0.0
220
0.0
230
1.0
  2
SOLID
 70
     1
 71
     0
 91
        1
 92
        1
 93
        3
 72
     1
 10
145.3553355355689
 20
263.6591388947309
 11
141.8553354275354
 21
263.075805543392
 72
     1
 10
141.8553354275354
 20
263.075805543392
 11
145.3553355355689
 21
262.4924721920531
 72
     1
 10
145.3553355355689
 20
262.4924721920531
 11
145.3553355355689
 21
263.6591388947309
 97
        0
 75
     0
 76
     1
 98
        0
  0
LWPOLYLINE
  5
AE
330
AA
100
AcDbEntity
  8
Default
  6
Continuous
 62
   136
 48
25.4
370
    20
100
AcDbPolyline
 90
        4
 70
     1
 43
0.00025
 10
145.3553355356
 20
263.6591388947
 10
141.8553354275
 20
263.0758055434
 10
145.3553355356
 20
262.4924721921
 10
145.3553355356
 20
263.6591388947
  0
LINE
  5
AF
330
AA
100
AcDbEntity
  8
Default
  6
Continuous
 62
     7
 48
25.4
100
AcDbLine
 10
173.8553369475
 20
241.8184385583
 30
0.0
 11
173.8553369475
 21
264.8258055974
 31
0.0
  0
LINE
  5
B0
330
AA
100
AcDbEntity
  8
Default
  6
Continuous
 62
     7
 48
25.4
100
AcDbLine
 10
141.8553369475
 20
241.8184385583
 30
0.0
 11
141.8553369475
 21
264.8258055974
 31
0.0
  0
LINE
  5
B1
330
AA
100
AcDbEntity
  8
Default
  6
Continuous
 62
     7
 48
25.4
100
AcDbLine
 10
173.8553369475
 20
263.0758055434
 30
0.0
 11
141.8553354275
 21
263.0758055434
 31
0.0
  0
TEXT
  5
B2
330
AA
100
AcDbEntity
  8
Default
  6
Continuous
 62
     7
 48
25.4
100
AcDbText
 10
152.8680098675
 20
263.9508055434
 30
0.0
 40
3.5
  1
O
  7
SEACAD_semeci1_ttf
 11
152.8680098675
 21
267.4508055434
 31
0.0
100
AcDbText
 73
     3
  0
TEXT
  5
B3
330
AA
100
AcDbEntity
  8
Default
  6
Continuous
 62
     7
 48
25.4
100
AcDbText
 10
158.8653897802
 20
263.9508055434
 30
0.0
 40
3.5
  1
32
  7
SEACAD_seiso_ttf
 11
158.8653897802
 21
267.4508055434
 31
0.0
100
AcDbText
 73
     3
  0
ENDBLK
  5
B5
330
AA
100
AcDbEntity
  8
0
100
AcDbBlockEnd
  0
BLOCK
  5
C1
330
B7
100
AcDbEntity
  8
0
100
AcDbBlockBegin
  2
DMBLK6
 70
     0
 71
     0
 10
0.0
 20
0.0
 30
0.0
  3
DMBLK6
  1

  0
HATCH
  5
B8
330
B7
100
AcDbEntity
  8
Default
  6
Continuous
 62
   136
 48
25.4
100
AcDbHatch
 10
0.0
 20
0.0
 30
0.0
210
0.0
220
0.0
230
1.0
  2
SOLID
 70
     1
 71
     0
 91
        1
 92
        1
 93
        3
 72
     1
 10
260.3553368394205
 20
261.3524968839229
 11
260.3553368394205
 21
260.185830181245
 72
     1
 10
260.3553368394205
 20
260.185830181245
 11
263.8553369474539
 21
260.7691635325839
 72
     1
 10
263.8553369474539
 20
260.7691635325839
 11
260.3553368394205
 21
261.3524968839229
 97
        0
 75
     0
 76
     1
 98
        0
  0
LWPOLYLINE
  5
B9
330
B7
100
AcDbEntity
  8
Default
  6
Continuous
 62
   136
 48
25.4
370
    20
100
AcDbPolyline
 90
        4
 70
     1
 43
0.00025
 10
260.3553368394
 20
261.3524968839
 10
263.8553369475
 20
260.7691635326
 10
260.3553368394
 20
260.1858301812
 10
260.3553368394
 20
261.3524968839
  0
HATCH
  5
BA
330
B7
100
AcDbEntity
  8
Default
  6
Continuous
 62
   136
 48
25.4
100
AcDbHatch
 10
0.0
 20
0.0
 30
0.0
210
0.0
220
0.0
230
1.0
  2
SOLID
 70
     1
 71
     0
 91
        1
 92
        1
 93
        3
 72
     1
 10
235.3553355355689
 20
261.3524968839229
 11
231.8553354275354
 21
260.7691635325839
 72
     1
 10
231.8553354275354
 20
260.7691635325839
 11
235.3553355355689
 21
260.185830181245
 72
     1
 10
235.3553355355689
 20
260.185830181245
 11
235.3553355355689
 21
261.3524968839229
 97
        0
 75
     0
 76
     1
 98
        0
  0
LWPOLYLINE
  5
BB
330
B7
100
AcDbEntity
  8
Default
  6
Continuous
 62
   136
 48
25.4
370
    20
100
AcDbPolyline
 90
        4
 70
     1
 43
0.00025
 10
235.3553355356
 20
261.3524968839
 10
231.8553354275
 20
260.7691635326
 10
235.3553355356
 20
260.1858301812
 10
235.3553355356
 20
261.3524968839
  0
LINE
  5
BC
330
B7
100
AcDbEntity
  8
Default
  6
Continuous
 62
     7
 48
25.4
100
AcDbLine
 10
263.8553369475
 20
241.8184385583
 30
0.0
 11
263.8553369475
 21
262.5191635866
 31
0.0
  0
LINE
  5
BD
330
B7
100
AcDbEntity
  8
Default
  6
Continuous
 62
     7
 48
25.4
100
AcDbLine
 10
231.8553369475
 20
241.8184385583
 30
0.0
 11
231.8553369475
 21
262.5191635866
 31
0.0
  0
LINE
  5
BE
330
B7
100
AcDbEntity
  8
Default
  6
Continuous
 62
     7
 48
25.4
100
AcDbLine
 10
263.8553369475
 20
260.7691635326
 30
0.0
 11
231.8553354275
 21
260.7691635326
 31
0.0
  0
TEXT
  5
BF
330
B7
100
AcDbEntity
  8
Default
  6
Continuous
 62
     7
 48
25.4
100
AcDbText
 10
242.8680098675
 20
261.6441635326
 30
0.0
 40
3.5
  1
O
  7
SEACAD_semeci1_ttf
 11
242.8680098675
 21
265.1441635326
 31
0.0
100
AcDbText
 73
     3
  0
TEXT
  5
C0
330
B7
100
AcDbEntity
  8
Default
  6
Continuous
 62
     7
 48
25.4
100
AcDbText
 10
248.8653897802
 20
261.6441635326
 30
0.0
 40
3.5
  1
32
  7
SEACAD_seiso_ttf
 11
248.8653897802
 21
265.1441635326
 31
0.0
100
AcDbText
 73
     3
  0
ENDBLK
  5
C2
330
B7
100
AcDbEntity
  8
0
100
AcDbBlockEnd
  0
BLOCK
  5
CD
330
C4
100
AcDbEntity
  8
0
100
AcDbBlockBegin
  2
DMBLK7
 70
     0
 71
     0
 10
0.0
 20
0.0
 30
0.0
  3
DMBLK7
  1

  0
HATCH
  5
C5
330
C4
100
AcDbEntity
  8
Default
  6
Continuous
 62
   136
 48
25.4
100
AcDbHatch
 10
0.0
 20
0.0
 30
0.0
210
0.0
220
0.0
230
1.0
  2
SOLID
 70
     1
 71
     0
 91
        1
 92
        1
 93
        3
 72
     1
 10
111.8097561052321
 20
245.3184386663428
 11
112.393089456571
 21
241.8184385583094
 72
     1
 10
112.393089456571
 20
241.8184385583094
 11
112.9764228079099
 21
245.3184386663428
 72
     1
 10
112.9764228079099
 20
245.3184386663428
 11
111.8097561052321
 21
245.3184386663428
 97
        0
 75
     0
 76
     1
 98
        0
  0
LWPOLYLINE
  5
C6
330
C4
100
AcDbEntity
  8
Default
  6
Continuous
 62
   136
 48
25.4
370
    20
100
AcDbPolyline
 90
        4
 70
     1
 43
0.00025
 10
111.8097561052
 20
245.3184386663
 10
112.3930894566
 20
241.8184385583
 10
112.9764228079
 20
245.3184386663
 10
111.8097561052
 20
245.3184386663
  0
HATCH
  5
C7
330
C4
100
AcDbEntity
  8
Default
  6
Continuous
 62
   136
 48
25.4
100
AcDbHatch
 10
0.0
 20
0.0
 30
0.0
210
0.0
220
0.0
230
1.0
  2
SOLID
 70
     1
 71
     0
 91
        1
 92
        1
 93
        3
 72
     1
 10
111.809756105232
 20
280.3184378840318
 11
112.9764228079098
 21
280.3184378840318
 72
     1
 10
112.9764228079098
 20
280.3184378840318
 11
112.3930894565709
 21
283.8184379920652
 72
     1
 10
112.3930894565709
 20
283.8184379920652
 11
111.809756105232
 21
280.3184378840318
 97
        0
 75
     0
 76
     1
 98
        0
  0
LWPOLYLINE
  5
C8
330
C4
100
AcDbEntity
  8
Default
  6
Continuous
 62
   136
 48
25.4
370
    20
100
AcDbPolyline
 90
        4
 70
     1
 43
0.00025
 10
111.8097561052
 20
280.318437884
 10
112.3930894566
 20
283.8184379921
 10
112.9764228079
 20
280.318437884
 10
111.8097561052
 20
280.318437884
  0
LINE
  5
C9
330
C4
100
AcDbEntity
  8
Default
  6
Continuous
 62
     7
 48
25.4
100
AcDbLine
 10
126.8553369475
 20
241.8184385583
 30
0.0
 11
110.6430894026
 21
241.8184385583
 31
0.0
  0
LINE
  5
CA
330
C4
100
AcDbEntity
  8
Default
  6
Continuous
 62
     7
 48
25.4
100
AcDbLine
 10
126.8553369475
 20
283.8184385583
 30
0.0
 11
110.6430894026
 21
283.8184385583
 31
0.0
  0
LINE
  5
CB
330
C4
100
AcDbEntity
  8
Default
  6
Continuous
 62
     7
 48
25.4
100
AcDbLine
 10
112.3930894566
 20
241.8184385583
 30
0.0
 11
112.3930894566
 21
283.8184379921
 31
0.0
  0
TEXT
  5
CC
330
C4
100
AcDbEntity
  8
Default
  6
Continuous
 62
     7
 48
25.4
100
AcDbText
 10
111.5180894566
 20
260.7104837297
 30
0.0
 40
3.5
  1
42
 50
90.0
  7
SEACAD_seiso_ttf
 11
108.0180894566
 21
260.7104837297
 31
0.0
100
AcDbText
 73
     3
  0
ENDBLK
  5
CE
330
C4
100
AcDbEntity
  8
0
100
AcDbBlockEnd
  0
BLOCK
  5
D9
330
D0
100
AcDbEntity
  8
0
100
AcDbBlockBegin
  2
DMBLK8
 70
     0
 71
     0
 10
0.0
 20
0.0
 30
0.0
  3
DMBLK8
  1

  0
HATCH
  5
D1
330
D0
100
AcDbEntity
  8
Default
  6
Continuous
 62
   136
 48
25.4
100
AcDbHatch
 10
0.0
 20
0.0
 30
0.0
210
0.0
220
0.0
230
1.0
  2
SOLID
 70
     1
 71
     0
 91
        1
 92
        1
 93
        3
 72
     1
 10
130.3553370554874
 20
288.1565928171369
 11
126.8553369474539
 21
287.5732594657979
 72
     1
 10
126.8553369474539
 20
287.5732594657979
 11
130.3553370554874
 21
286.989926114459
 72
     1
 10
130.3553370554874
 20
286.989926114459
 11
130.3553370554874
 21
288.1565928171369
 97
        0
 75
     0
 76
     1
 98
        0
  0
LWPOLYLINE
  5
D2
330
D0
100
AcDbEntity
  8
Default
  6
Continuous
 62
   136
 48
25.4
370
    20
100
AcDbPolyline
 90
        4
 70
     1
 43
0.00025
 10
130.3553370555
 20
288.1565928171
 10
126.8553369475
 20
287.5732594658
 10
130.3553370555
 20
286.9899261145
 10
130.3553370555
 20
288.1565928171
  0
HATCH
  5
D3
330
D0
100
AcDbEntity
  8
Default
  6
Continuous
 62
   136
 48
25.4
100
AcDbHatch
 10
0.0
 20
0.0
 30
0.0
210
0.0
220
0.0
230
1.0
  2
SOLID
 70
     1
 71
     0
 91
        1
 92
        1
 93
        3
 72
     1
 10
275.3553319518396
 20
288.1565928171369
 11
275.3553319518396
 21
286.989926114459
 72
     1
 10
275.3553319518396
 20
286.989926114459
 11
278.855332059873
 21
287.5732594657979
 72
     1
 10
278.855332059873
 20
287.5732594657979
 11
275.3553319518396
 21
288.1565928171369
 97
        0
 75
     0
 76
     1
 98
        0
  0
LWPOLYLINE
  5
D4
330
D0
100
AcDbEntity
  8
Default
  6
Continuous
 62
   136
 48
25.4
370
    20
100
AcDbPolyline
 90
        4
 70
     1
 43
0.00025
 10
275.3553319518
 20
288.1565928171
 10
278.8553320599
 20
287.5732594658
 10
275.3553319518
 20
286.9899261145
 10
275.3553319518
 20
288.1565928171
  0
LINE
  5
D5
330
D0
100
AcDbEntity
  8
Default
  6
Continuous
 62
     7
 48
25.4
100
AcDbLine
 10
126.8553369475
 20
283.8184385583
 30
0.0
 11
126.8553369475
 21
289.3232595198
 31
0.0
  0
LINE
  5
D6
330
D0
100
AcDbEntity
  8
Default
  6
Continuous
 62
     7
 48
25.4
100
AcDbLine
 10
278.8553369475
 20
283.8184385583
 30
0.0
 11
278.8553369475
 21
289.3232595198
 31
0.0
  0
LINE
  5
D7
330
D0
100
AcDbEntity
  8
Default
  6
Continuous
 62
     7
 48
25.4
100
AcDbLine
 10
126.8553369475
 20
287.5732594658
 30
0.0
 11
278.8553320599
 21
287.5732594658
 31
0.0
  0
TEXT
  5
D8
330
D0
100
AcDbEntity
  8
Default
  6
Continuous
 62
     7
 48
25.4
100
AcDbText
 10
200.0712435946
 20
288.4482594658
 30
0.0
 40
3.5
  1
152
  7
SEACAD_seiso_ttf
 11
200.0712435946
 21
291.9482594658
 31
0.0
100
AcDbText
 73
     3
  0
ENDBLK
  5
DA
330
D0
100
AcDbEntity
  8
0
100
AcDbBlockEnd
  0
BLOCK
  5
E5
330
DC
100
AcDbEntity
  8
0
100
AcDbBlockBegin
  2
DMBLK9
 70
     0
 71
     0
 10
0.0
 20
0.0
 30
0.0
  3
DMBLK9
  1

  0
HATCH
  5
DD
330
DC
100
AcDbEntity
  8
Default
  6
Continuous
 62
   136
 48
25.4
100
AcDbHatch
 10
0.0
 20
0.0
 30
0.0
210
0.0
220
0.0
230
1.0
  2
SOLID
 70
     1
 71
     0
 91
        1
 92
        1
 93
        3
 72
     1
 10
297.4938652876397
 20
317.3370685038329
 11
296.3271985849618
 21
317.3370685038329
 72
     1
 10
296.3271985849618
 20
317.3370685038329
 11
296.9105319363007
 21
313.8370683957995
 72
     1
 10
296.9105319363007
 20
313.8370683957995
 11
297.4938652876397
 21
317.3370685038329
 97
        0
 75
     0
 76
     1
 98
        0
  0
LWPOLYLINE
  5
DE
330
DC
100
AcDbEntity
  8
Default
  6
Continuous
 62
   136
 48
25.4
370
    20
100
AcDbPolyline
 90
        4
 70
     1
 43
0.00025
 10
297.4938652876
 20
317.3370685038
 10
296.9105319363
 20
313.8370683958
 10
296.327198585
 20
317.3370685038
 10
297.4938652876
 20
317.3370685038
  0
HATCH
  5
DF
330
DC
100
AcDbEntity
  8
Default
  6
Continuous
 62
   136
 48
25.4
100
AcDbHatch
 10
0.0
 20
0.0
 30
0.0
210
0.0
220
0.0
230
1.0
  2
SOLID
 70
     1
 71
     0
 91
        1
 92
        1
 93
        3
 72
     1
 10
297.4938652876397
 20
337.3370689881206
 11
296.9105319363008
 21
340.837069096154
 72
     1
 10
296.9105319363008
 20
340.837069096154
 11
296.3271985849619
 21
337.3370689881206
 72
     1
 10
296.3271985849619
 20
337.3370689881206
 11
297.4938652876397
 21
337.3370689881206
 97
        0
 75
     0
 76
     1
 98
        0
  0
LWPOLYLINE
  5
E0
330
DC
100
AcDbEntity
  8
Default
  6
Continuous
 62
   136
 48
25.4
370
    20
100
AcDbPolyline
 90
        4
 70
     1
 43
0.00025
 10
297.4938652876
 20
337.3370689881
 10
296.9105319363
 20
340.8370690962
 10
296.327198585
 20
337.3370689881
 10
297.4938652876
 20
337.3370689881
  0
LINE
  5
E1
330
DC
100
AcDbEntity
  8
Default
  6
Continuous
 62
     7
 48
25.4
100
AcDbLine
 10
278.8553369475
 20
313.8370683958
 30
0.0
 11
298.6605319903
 21
313.8370683958
 31
0.0
  0
LINE
  5
E2
330
DC
100
AcDbEntity
  8
Default
  6
Continuous
 62
     7
 48
25.4
100
AcDbLine
 10
278.8553369475
 20
340.8370683958
 30
0.0
 11
298.6605319903
 21
340.8370683958
 31
0.0
  0
LINE
  5
E3
330
DC
100
AcDbEntity
  8
Default
  6
Continuous
 62
     7
 48
25.4
100
AcDbLine
 10
296.9105319363
 20
313.8370683958
 30
0.0
 11
296.9105319363
 21
340.8370690962
 31
0.0
  0
TEXT
  5
E4
330
DC
100
AcDbEntity
  8
Default
  6
Continuous
 62
     7
 48
25.4
100
AcDbText
 10
296.0355319363
 20
325.149568746
 30
0.0
 40
3.5
  1
27
 50
90.0
  7
SEACAD_seiso_ttf
 11
292.5355319363
 21
325.149568746
 31
0.0
100
AcDbText
 73
     3
  0
ENDBLK
  5
E6
330
DC
100
AcDbEntity
  8
0
100
AcDbBlockEnd
  0
BLOCK
  5
F1
330
E8
100
AcDbEntity
  8
0
100
AcDbBlockBegin
  2
DMBLK10
 70
     0
 71
     0
 10
0.0
 20
0.0
 30
0.0
  3
DMBLK10
  1

  0
HATCH
  5
E9
330
E8
100
AcDbEntity
  8
Default
  6
Continuous
 62
   136
 48
25.4
100
AcDbHatch
 10
0.0
 20
0.0
 30
0.0
210
0.0
220
0.0
230
1.0
  2
SOLID
 70
     1
 71
     0
 91
        1
 92
        1
 93
        3
 72
     1
 10
275.3553368394206
 20
353.7772334392976
 11
275.3553368394206
 21
352.6105667366198
 72
     1
 10
275.3553368394206
 20
352.6105667366198
 11
278.855336947454
 21
353.1939000879587
 72
     1
 10
278.855336947454
 20
353.1939000879587
 11
275.3553368394206
 21
353.7772334392976
 97
        0
 75
     0
 76
     1
 98
        0
  0
LWPOLYLINE
  5
EA
330
E8
100
AcDbEntity
  8
Default
  6
Continuous
 62
   136
 48
25.4
370
    20
100
AcDbPolyline
 90
        4
 70
     1
 43
0.00025
 10
275.3553368394
 20
353.7772334393
 10
278.8553369475
 20
353.193900088
 10
275.3553368394
 20
352.6105667366
 10
275.3553368394
 20
353.7772334393
  0
HATCH
  5
EB
330
E8
100
AcDbEntity
  8
Default
  6
Continuous
 62
   136
 48
25.4
100
AcDbHatch
 10
0.0
 20
0.0
 30
0.0
210
0.0
220
0.0
230
1.0
  2
SOLID
 70
     1
 71
     0
 91
        1
 92
        1
 93
        3
 72
     1
 10
130.3553419430683
 20
353.7772334392976
 11
126.8553418350349
 21
353.1939000879587
 72
     1
 10
126.8553418350349
 20
353.1939000879587
 11
130.3553419430683
 21
352.6105667366198
 72
     1
 10
130.3553419430683
 20
352.6105667366198
 11
130.3553419430683
 21
353.7772334392976
 97
        0
 75
     0
 76
     1
 98
        0
  0
LWPOLYLINE
  5
EC
330
E8
100
AcDbEntity
  8
Default
  6
Continuous
 62
   136
 48
25.4
370
    20
100
AcDbPolyline
 90
        4
 70
     1
 43
0.00025
 10
130.3553419431
 20
353.7772334393
 10
126.855341835
 20
353.193900088
 10
130.3553419431
 20
352.6105667366
 10
130.3553419431
 20
353.7772334393
  0
LINE
  5
ED
330
E8
100
AcDbEntity
  8
Default
  6
Continuous
 62
     7
 48
25.4
100
AcDbLine
 10
278.8553369475
 20
340.8370683958
 30
0.0
 11
278.8553369475
 21
354.943900142
 31
0.0
  0
LINE
  5
EE
330
E8
100
AcDbEntity
  8
Default
  6
Continuous
 62
     7
 48
25.4
100
AcDbLine
 10
126.8553369475
 20
340.8370683958
 30
0.0
 11
126.8553369475
 21
354.943900142
 31
0.0
  0
LINE
  5
EF
330
E8
100
AcDbEntity
  8
Default
  6
Continuous
 62
     7
 48
25.4
100
AcDbLine
 10
278.8553369475
 20
353.193900088
 30
0.0
 11
126.855341835
 21
353.193900088
 31
0.0
  0
TEXT
  5
F0
330
E8
100
AcDbEntity
  8
Default
  6
Continuous
 62
     7
 48
25.4
100
AcDbText
 10
200.0712484822
 20
354.068900088
 30
0.0
 40
3.5
  1
152
  7
SEACAD_seiso_ttf
 11
200.0712484822
 21
357.568900088
 31
0.0
100
AcDbText
 73
     3
  0
ENDBLK
  5
F2
330
E8
100
AcDbEntity
  8
0
100
AcDbBlockEnd
  0
BLOCK
  5
FD
330
F4
100
AcDbEntity
  8
0
100
AcDbBlockBegin
  2
DMBLK11
 70
     0
 71
     0
 10
0.0
 20
0.0
 30
0.0
  3
DMBLK11
  1

  0
LINE
  5
F5
330
F4
100
AcDbEntity
  8
Default
  6
Continuous
 62
     7
 48
25.4
100
AcDbLine
 10
191.0515893155
 20
325.1756922075
 30
0.0
 11
207.773564819
 21
328.2376417511
 31
0.0
  0
LINE
  5
F6
330
F4
100
AcDbEntity
  8
Default
  6
Continuous
 62
     7
 48
25.4
100
AcDbLine
 10
207.7735650389
 20
328.2376417914
 30
0.0
 11
225.7162991672
 21
331.5231236152
 31
0.0
  0
HATCH
  5
F7
330
F4
100
AcDbEntity
  8
Default
  6
Continuous
 62
   136
 48
25.4
100
AcDbHatch
 10
0.0
 20
0.0
 30
0.0
210
0.0
220
0.0
230
1.0
  2
SOLID
 70
     1
 71
     0
 91
        1
 92
        1
 93
        3
 72
     1
 10
194.3892821863899
 20
326.379886898894
 11
194.5994159851785
 21
325.2323003088086
 72
     1
 10
194.5994159851785
 20
325.2323003088086
 11
197.9371088560403
 21
326.4364950002173
 72
     1
 10
197.9371088560403
 20
326.4364950002173
 11
194.3892821863899
 21
326.379886898894
 97
        0
 75
     0
 76
     1
 98
        0
  0
LWPOLYLINE
  5
F8
330
F4
100
AcDbEntity
  8
Default
  6
Continuous
 62
   136
 48
25.4
370
    20
100
AcDbPolyline
 90
        4
 70
     1
 43
0.00025
 10
194.3892821864
 20
326.3798868989
 10
197.937108856
 20
326.4364950002
 10
194.5994159852
 20
325.2323003088
 10
194.3892821864
 20
326.3798868989
  0
HATCH
  5
F9
330
F4
100
AcDbEntity
  8
Default
  6
Continuous
 62
   136
 48
25.4
100
AcDbHatch
 10
0.0
 20
0.0
 30
0.0
210
0.0
220
0.0
230
1.0
  2
SOLID
 70
     1
 71
     0
 91
        1
 92
        1
 93
        3
 72
     1
 10
211.1112579097292
 20
329.4418364827903
 11
207.7735650388674
 21
328.2376417913816
 72
     1
 10
207.7735650388674
 20
328.2376417913816
 11
211.3213917085178
 21
328.2942498927049
 72
     1
 10
211.3213917085179
 20
328.2942498927049
 11
211.1112579097292
 21
329.4418364827903
 97
        0
 75
     0
 76
     1
 98
        0
  0
LWPOLYLINE
  5
FA
330
F4
100
AcDbEntity
  8
Default
  6
Continuous
 62
   136
 48
25.4
370
    20
100
AcDbPolyline
 90
        4
 70
     1
 43
0.00025
 10
211.1112579097
 20
329.4418364828
 10
207.7735650389
 20
328.2376417914
 10
211.3213917085
 20
328.2942498927
 10
211.1112579097
 20
329.4418364828
  0
TEXT
  5
FB
330
F4
100
AcDbEntity
  8
Default
  6
Continuous
 62
     7
 48
25.4
100
AcDbText
 10
215.0116761259
 20
330.4525553897
 30
0.0
 40
3.5
  1
O
 50
10.3764396088
  7
SEACAD_semeci1_ttf
 11
214.381274749
 21
333.8953150537
 31
0.0
100
AcDbText
 73
     3
  0
TEXT
  5
FC
330
F4
100
AcDbEntity
  8
Default
  6
Continuous
 62
     7
 48
25.4
100
AcDbText
 10
220.9109725981
 20
331.5327715482
 30
0.0
 40
3.5
  1
10
 50
10.3764396088
  7
SEACAD_seiso_ttf
 11
220.2805712212
 21
334.9755312122
 31
0.0
100
AcDbText
 73
     3
  0
ENDBLK
  5
FE
330
F4
100
AcDbEntity
  8
0
100
AcDbBlockEnd
  0
BLOCK
  5
109
330
100
100
AcDbEntity
  8
0
100
AcDbBlockBegin
  2
DMBLK12
 70
     0
 71
     0
 10
0.0
 20
0.0
 30
0.0
  3
DMBLK12
  1

  0
HATCH
  5
101
330
100
100
AcDbEntity
  8
Default
  6
Continuous
 62
   136
 48
25.4
100
AcDbHatch
 10
0.0
 20
0.0
 30
0.0
210
0.0
220
0.0
230
1.0
  2
SOLID
 70
     1
 71
     0
 91
        1
 92
        1
 93
        3
 72
     1
 10
303.0408623272602
 20
280.3184384502761
 11
304.207529029938
 21
280.3184384502761
 72
     1
 10
304.207529029938
 20
280.3184384502761
 11
303.6241956785991
 21
283.8184385583095
 72
     1
 10
303.6241956785991
 20
283.8184385583095
 11
303.0408623272602
 21
280.3184384502761
 97
        0
 75
     0
 76
     1
 98
        0
  0
LWPOLYLINE
  5
102
330
100
100
AcDbEntity
  8
Default
  6
Continuous
 62
   136
 48
25.4
370
    20
100
AcDbPolyline
 90
        4
 70
     1
 43
0.00025
 10
303.0408623273
 20
280.3184384503
 10
303.6241956786
 20
283.8184385583
 10
304.2075290299
 20
280.3184384503
 10
303.0408623273
 20
280.3184384503
  0
HATCH
  5
103
330
100
100
AcDbEntity
  8
Default
  6
Continuous
 62
   136
 48
25.4
100
AcDbHatch
 10
0.0
 20
0.0
 30
0.0
210
0.0
220
0.0
230
1.0
  2
SOLID
 70
     1
 71
     0
 91
        1
 92
        1
 93
        3
 72
     1
 10
303.0408623272602
 20
245.318439232587
 11
303.6241956785991
 21
241.8184391245536
 72
     1
 10
303.6241956785991
 20
241.8184391245536
 11
304.207529029938
 21
245.318439232587
 72
     1
 10
304.207529029938
 20
245.318439232587
 11
303.0408623272602
 21
245.318439232587
 97
        0
 75
     0
 76
     1
 98
        0
  0
LWPOLYLINE
  5
104
330
100
100
AcDbEntity
  8
Default
  6
Continuous
 62
   136
 48
25.4
370
    20
100
AcDbPolyline
 90
        4
 70
     1
 43
0.00025
 10
303.0408623273
 20
245.3184392326
 10
303.6241956786
 20
241.8184391246
 10
304.2075290299
 20
245.3184392326
 10
303.0408623273
 20
245.3184392326
  0
LINE
  5
105
330
100
100
AcDbEntity
  8
Default
  6
Continuous
 62
     7
 48
25.4
100
AcDbLine
 10
311.921302861
 20
283.8184385583
 30
0.0
 11
301.8741956246
 21
283.8184385583
 31
0.0
  0
LINE
  5
106
330
100
100
AcDbEntity
  8
Default
  6
Continuous
 62
     7
 48
25.4
100
AcDbLine
 10
311.921302861
 20
241.8184385583
 30
0.0
 11
301.8741956246
 21
241.8184385583
 31
0.0
  0
LINE
  5
107
330
100
100
AcDbEntity
  8
Default
  6
Continuous
 62
     7
 48
25.4
100
AcDbLine
 10
303.6241956786
 20
283.8184385583
 30
0.0
 11
303.6241956786
 21
241.8184391246
 31
0.0
  0
TEXT
  5
108
330
100
100
AcDbEntity
  8
Default
  6
Continuous
 62
     7
 48
25.4
100
AcDbText
 10
302.7491956786
 20
260.710484296
 30
0.0
 40
3.5
  1
42
 50
90.0
  7
SEACAD_seiso_ttf
 11
299.2491956786
 21
260.710484296
 31
0.0
100
AcDbText
 73
     3
  0
ENDBLK
  5
10A
330
100
100
AcDbEntity
  8
0
100
AcDbBlockEnd
  0
BLOCK
  5
115
330
10C
100
AcDbEntity
  8
0
100
AcDbBlockBegin
  2
DMBLK13
 70
     0
 71
     0
 10
0.0
 20
0.0
 30
0.0
  3
DMBLK13
  1

  0
HATCH
  5
10D
330
10C
100
AcDbEntity
  8
Default
  6
Continuous
 62
   136
 48
25.4
100
AcDbHatch
 10
0.0
 20
0.0
 30
0.0
210
0.0
220
0.0
230
1.0
  2
SOLID
 70
     1
 71
     0
 91
        1
 92
        1
 93
        3
 72
     1
 10
335.4213027530088
 20
290.1057208134773
 11
335.4213027530088
 21
288.9390541107994
 72
     1
 10
335.4213027530088
 20
288.9390541107994
 11
338.9213028610422
 21
289.5223874621383
 72
     1
 10
338.9213028610422
 20
289.5223874621383
 11
335.4213027530088
 21
290.1057208134773
 97
        0
 75
     0
 76
     1
 98
        0
  0
LWPOLYLINE
  5
10E
330
10C
100
AcDbEntity
  8
Default
  6
Continuous
 62
   136
 48
25.4
370
    20
100
AcDbPolyline
 90
        4
 70
     1
 43
0.00025
 10
335.421302753
 20
290.1057208135
 10
338.921302861
 20
289.5223874621
 10
335.421302753
 20
288.9390541108
 10
335.421302753
 20
290.1057208135
  0
HATCH
  5
10F
330
10C
100
AcDbEntity
  8
Default
  6
Continuous
 62
   136
 48
25.4
100
AcDbHatch
 10
0.0
 20
0.0
 30
0.0
210
0.0
220
0.0
230
1.0
  2
SOLID
 70
     1
 71
     0
 91
        1
 92
        1
 93
        3
 72
     1
 10
315.4213022687211
 20
290.1057208134773
 11
311.9213021606877
 21
289.5223874621383
 72
     1
 10
311.9213021606877
 20
289.5223874621383
 11
315.4213022687211
 21
288.9390541107994
 72
     1
 10
315.4213022687211
 20
288.9390541107994
 11
315.4213022687211
 21
290.1057208134773
 97
        0
 75
     0
 76
     1
 98
        0
  0
LWPOLYLINE
  5
110
330
10C
100
AcDbEntity
  8
Default
  6
Continuous
 62
   136
 48
25.4
370
    20
100
AcDbPolyline
 90
        4
 70
     1
 43
0.00025
 10
315.4213022687
 20
290.1057208135
 10
311.9213021607
 20
289.5223874621
 10
315.4213022687
 20
288.9390541108
 10
315.4213022687
 20
290.1057208135
  0
LINE
  5
111
330
10C
100
AcDbEntity
  8
Default
  6
Continuous
 62
     7
 48
25.4
100
AcDbLine
 10
338.921302861
 20
283.8184385583
 30
0.0
 11
338.921302861
 21
291.2723875162
 31
0.0
  0
LINE
  5
112
330
10C
100
AcDbEntity
  8
Default
  6
Continuous
 62
     7
 48
25.4
100
AcDbLine
 10
311.921302861
 20
283.8184385583
 30
0.0
 11
311.921302861
 21
291.2723875162
 31
0.0
  0
LINE
  5
113
330
10C
100
AcDbEntity
  8
Default
  6
Continuous
 62
     7
 48
25.4
100
AcDbLine
 10
338.921302861
 20
289.5223874621
 30
0.0
 11
311.9213021607
 21
289.5223874621
 31
0.0
  0
TEXT
  5
114
330
10C
100
AcDbEntity
  8
Default
  6
Continuous
 62
     7
 48
25.4
100
AcDbText
 10
323.2338025109
 20
290.3973874621
 30
0.0
 40
3.5
  1
27
  7
SEACAD_seiso_ttf
 11
323.2338025109
 21
293.8973874621
 31
0.0
100
AcDbText
 73
     3
  0
ENDBLK
  5
116
330
10C
100
AcDbEntity
  8
0
100
AcDbBlockEnd
  0
BLOCK
  5
121
330
118
100
AcDbEntity
  8
0
100
AcDbBlockBegin
  2
DMBLK14
 70
     0
 71
     0
 10
0.0
 20
0.0
 30
0.0
  3
DMBLK14
  1

  0
HATCH
  5
119
330
118
100
AcDbEntity
  8
Default
  6
Continuous
 62
   136
 48
25.4
100
AcDbHatch
 10
0.0
 20
0.0
 30
0.0
210
0.0
220
0.0
230
1.0
  2
SOLID
 70
     1
 71
     0
 91
        1
 92
        1
 93
        3
 72
     1
 10
347.0308448364593
 20
222.8914541289374
 11
345.8642761575352
 21
222.8763308855491
 72
     1
 10
345.8642761575352
 20
222.8763308855491
 11
346.4929302271622
 21
219.3841864704712
 72
     1
 10
346.4929302271622
 20
219.3841864704712
 11
347.0308448364593
 21
222.8914541289374
 97
        0
 75
     0
 76
     1
 98
        0
  0
LWPOLYLINE
  5
11A
330
118
100
AcDbEntity
  8
Default
  6
Continuous
 62
   136
 48
25.4
370
    20
100
AcDbPolyline
 90
        4
 70
     1
 43
0.00025
 10
347.0308448365
 20
222.8914541289
 10
346.4929302272
 20
219.3841864705
 10
345.8642761575
 20
222.8763308855
 10
347.0308448365
 20
222.8914541289
  0
HATCH
  5
11B
330
118
100
AcDbEntity
  8
Default
  6
Continuous
 62
   136
 48
25.4
100
AcDbHatch
 10
0.0
 20
0.0
 30
0.0
210
0.0
220
0.0
230
1.0
  2
SOLID
 70
     1
 71
     0
 91
        1
 92
        1
 93
        3
 72
     1
 10
346.9141624039987
 20
231.8920413438799
 11
346.2855083343717
 21
235.3841857589578
 72
     1
 10
346.2855083343717
 20
235.3841857589578
 11
345.7475937250746
 21
231.8769181004916
 72
     1
 10
345.7475937250746
 20
231.8769181004916
 11
346.9141624039987
 21
231.8920413438799
 97
        0
 75
     0
 76
     1
 98
        0
  0
LWPOLYLINE
  5
11C
330
118
100
AcDbEntity
  8
Default
  6
Continuous
 62
   136
 48
25.4
370
    20
100
AcDbPolyline
 90
        4
 70
     1
 43
0.00025
 10
346.914162404
 20
231.8920413439
 10
346.2855083344
 20
235.384185759
 10
345.7475937251
 20
231.8769181005
 10
346.914162404
 20
231.8920413439
  0
LINE
  5
11D
330
118
100
AcDbEntity
  8
Default
  6
Continuous
 62
     7
 48
25.4
100
AcDbLine
 10
341.421302861
 20
219.3184385583
 30
0.0
 11
348.2427832455
 21
219.4068713356
 31
0.0
  0
LINE
  5
11E
330
118
100
AcDbEntity
  8
Default
  6
Continuous
 62
     7
 48
25.4
100
AcDbLine
 10
341.213880959
 20
235.3184385583
 30
0.0
 11
348.0353613435
 21
235.4068713356
 31
0.0
  0
LINE
  5
11F
330
118
100
AcDbEntity
  8
Default
  6
Continuous
 62
     7
 48
25.4
100
AcDbLine
 10
346.4929302272
 20
219.3841864705
 30
0.0
 11
346.2855083344
 21
235.384185759
 31
0.0
  0
TEXT
  5
120
330
118
100
AcDbEntity
  8
Default
  6
Continuous
 62
     7
 48
25.4
100
AcDbText
 10
347.2409453335
 20
229.1851508968
 30
0.0
 40
3.5
  1
16
 50
270.7427333662
  7
SEACAD_seiso_ttf
 11
350.7406512622
 21
229.2305206256
 31
0.0
100
AcDbText
 73
     3
  0
ENDBLK
  5
122
330
118
100
AcDbEntity
  8
0
100
AcDbBlockEnd
  0
BLOCK
  5
12D
330
124
100
AcDbEntity
  8
0
100
AcDbBlockBegin
  2
DMBLK15
 70
     0
 71
     0
 10
0.0
 20
0.0
 30
0.0
  3
DMBLK15
  1

  0
HATCH
  5
125
330
124
100
AcDbEntity
  8
Default
  6
Continuous
 62
   136
 48
25.4
100
AcDbHatch
 10
0.0
 20
0.0
 30
0.0
210
0.0
220
0.0
230
1.0
  2
SOLID
 70
     1
 71
     0
 91
        1
 92
        1
 93
        3
 72
     1
 10
312.7138810670612
 20
209.0299044156115
 11
312.7138810670612
 21
210.1965711182893
 72
     1
 10
312.7138810670612
 20
210.1965711182893
 11
309.2138809590278
 21
209.6132377669504
 72
     1
 10
309.2138809590278
 20
209.6132377669504
 11
312.7138810670612
 21
209.0299044156115
 97
        0
 75
     0
 76
     1
 98
        0
  0
LWPOLYLINE
  5
126
330
124
100
AcDbEntity
  8
Default
  6
Continuous
 62
   136
 48
25.4
370
    20
100
AcDbPolyline
 90
        4
 70
     1
 43
0.00025
 10
312.7138810671
 20
209.0299044156
 10
309.213880959
 20
209.613237767
 10
312.7138810671
 20
210.1965711183
 10
312.7138810671
 20
209.0299044156
  0
HATCH
  5
127
330
124
100
AcDbEntity
  8
Default
  6
Continuous
 62
   136
 48
25.4
100
AcDbHatch
 10
0.0
 20
0.0
 30
0.0
210
0.0
220
0.0
230
1.0
  2
SOLID
 70
     1
 71
     0
 91
        1
 92
        1
 93
        3
 72
     1
 10
337.7138823709128
 20
209.0299044156115
 11
341.2138824789462
 21
209.6132377669504
 72
     1
 10
341.2138824789462
 20
209.6132377669504
 11
337.7138823709128
 21
210.1965711182893
 72
     1
 10
337.7138823709128
 20
210.1965711182893
 11
337.7138823709128
 21
209.0299044156115
 97
        0
 75
     0
 76
     1
 98
        0
  0
LWPOLYLINE
  5
128
330
124
100
AcDbEntity
  8
Default
  6
Continuous
 62
   136
 48
25.4
370
    20
100
AcDbPolyline
 90
        4
 70
     1
 43
0.00025
 10
337.7138823709
 20
209.0299044156
 10
341.2138824789
 20
209.613237767
 10
337.7138823709
 20
210.1965711183
 10
337.7138823709
 20
209.0299044156
  0
LINE
  5
129
330
124
100
AcDbEntity
  8
Default
  6
Continuous
 62
     7
 48
25.4
100
AcDbLine
 10
309.213880959
 20
219.3184385583
 30
0.0
 11
309.213880959
 21
207.8632377129
 31
0.0
  0
LINE
  5
12A
330
124
100
AcDbEntity
  8
Default
  6
Continuous
 62
     7
 48
25.4
100
AcDbLine
 10
341.213880959
 20
219.3184385583
 30
0.0
 11
341.213880959
 21
207.8632377129
 31
0.0
  0
LINE
  5
12B
330
124
100
AcDbEntity
  8
Default
  6
Continuous
 62
     7
 48
25.4
100
AcDbLine
 10
309.213880959
 20
209.613237767
 30
0.0
 11
341.2138824789
 21
209.613237767
 31
0.0
  0
TEXT
  5
12C
330
124
100
AcDbEntity
  8
Default
  6
Continuous
 62
     7
 48
25.4
100
AcDbText
 10
323.2252453554
 20
210.488237767
 30
0.0
 40
3.5
  1
32
  7
SEACAD_seiso_ttf
 11
323.2252453554
 21
213.988237767
 31
0.0
100
AcDbText
 73
     3
  0
ENDBLK
  5
12E
330
124
100
AcDbEntity
  8
0
100
AcDbBlockEnd
  0
BLOCK
  5
139
330
130
100
AcDbEntity
  8
0
100
AcDbBlockBegin
  2
DMBLK16
 70
     0
 71
     0
 10
0.0
 20
0.0
 30
0.0
  3
DMBLK16
  1

  0
HATCH
  5
131
330
130
100
AcDbEntity
  8
Default
  6
Continuous
 62
   136
 48
25.4
100
AcDbHatch
 10
0.0
 20
0.0
 30
0.0
210
0.0
220
0.0
230
1.0
  2
SOLID
 70
     1
 71
     0
 91
        1
 92
        1
 93
        3
 72
     1
 10
271.5575199352838
 20
181.41918872141
 11
270.9741865839449
 21
184.9191888294434
 72
     1
 10
270.9741865839449
 20
184.9191888294434
 11
270.390853232606
 21
181.41918872141
 72
     1
 10
270.390853232606
 20
181.41918872141
 11
271.5575199352838
 21
181.41918872141
 97
        0
 75
     0
 76
     1
 98
        0
  0
LWPOLYLINE
  5
132
330
130
100
AcDbEntity
  8
Default
  6
Continuous
 62
   136
 48
25.4
370
    20
100
AcDbPolyline
 90
        4
 70
     1
 43
0.00025
 10
271.5575199353
 20
181.4191887214
 10
270.9741865839
 20
184.9191888294
 10
270.3908532326
 20
181.4191887214
 10
271.5575199353
 20
181.4191887214
  0
HATCH
  5
133
330
130
100
AcDbEntity
  8
Default
  6
Continuous
 62
   136
 48
25.4
100
AcDbHatch
 10
0.0
 20
0.0
 30
0.0
210
0.0
220
0.0
230
1.0
  2
SOLID
 70
     1
 71
     0
 91
        1
 92
        1
 93
        3
 72
     1
 10
271.5575199352838
 20
156.4191874175584
 11
270.390853232606
 21
156.4191874175584
 72
     1
 10
270.390853232606
 20
156.4191874175584
 11
270.9741865839449
 21
152.919187309525
 72
     1
 10
270.9741865839449
 20
152.919187309525
 11
271.5575199352838
 21
156.4191874175584
 97
        0
 75
     0
 76
     1
 98
        0
  0
LWPOLYLINE
  5
134
330
130
100
AcDbEntity
  8
Default
  6
Continuous
 62
   136
 48
25.4
370
    20
100
AcDbPolyline
 90
        4
 70
     1
 43
0.00025
 10
271.5575199353
 20
156.4191874176
 10
270.9741865839
 20
152.9191873095
 10
270.3908532326
 20
156.4191874176
 10
271.5575199353
 20
156.4191874176
  0
LINE
  5
135
330
130
100
AcDbEntity
  8
Default
  6
Continuous
 62
     7
 48
25.4
100
AcDbLine
 10
252.1958438303
 20
184.9191888294
 30
0.0
 11
272.724186638
 21
184.9191888294
 31
0.0
  0
LINE
  5
136
330
130
100
AcDbEntity
  8
Default
  6
Continuous
 62
     7
 48
25.4
100
AcDbLine
 10
252.1958438303
 20
152.9191888294
 30
0.0
 11
272.724186638
 21
152.9191888294
 31
0.0
  0
LINE
  5
137
330
130
100
AcDbEntity
  8
Default
  6
Continuous
 62
     7
 48
25.4
100
AcDbLine
 10
270.9741865839
 20
184.9191888294
 30
0.0
 11
270.9741865839
 21
152.9191873095
 31
0.0
  0
TEXT
  5
138
330
130
100
AcDbEntity
  8
Default
  6
Continuous
 62
     7
 48
25.4
100
AcDbText
 10
270.0991865839
 20
166.9305517058
 30
0.0
 40
3.5
  1
32
 50
90.0
  7
SEACAD_seiso_ttf
 11
266.5991865839
 21
166.9305517058
 31
0.0
100
AcDbText
 73
     3
  0
ENDBLK
  5
13A
330
130
100
AcDbEntity
  8
0
100
AcDbBlockEnd
  0
BLOCK
  5
145
330
13C
100
AcDbEntity
  8
0
100
AcDbBlockBegin
  2
DMBLK17
 70
     0
 71
     0
 10
0.0
 20
0.0
 30
0.0
  3
DMBLK17
  1

  0
HATCH
  5
13D
330
13C
100
AcDbEntity
  8
Default
  6
Continuous
 62
   136
 48
25.4
100
AcDbHatch
 10
0.0
 20
0.0
 30
0.0
210
0.0
220
0.0
230
1.0
  2
SOLID
 70
     1
 71
     0
 91
        1
 92
        1
 93
        3
 72
     1
 10
248.6958437222627
 20
138.2205247149433
 11
252.1958438302961
 21
138.8038580662822
 72
     1
 10
252.1958438302961
 20
138.8038580662822
 11
248.6958437222627
 21
139.3871914176211
 72
     1
 10
248.6958437222627
 20
139.3871914176211
 11
248.6958437222627
 21
138.2205247149433
 97
        0
 75
     0
 76
     1
 98
        0
  0
LWPOLYLINE
  5
13E
330
13C
100
AcDbEntity
  8
Default
  6
Continuous
 62
   136
 48
25.4
370
    20
100
AcDbPolyline
 90
        4
 70
     1
 43
0.00025
 10
248.6958437223
 20
138.2205247149
 10
252.1958438303
 20
138.8038580663
 10
248.6958437223
 20
139.3871914176
 10
248.6958437223
 20
138.2205247149
  0
HATCH
  5
13F
330
13C
100
AcDbEntity
  8
Default
  6
Continuous
 62
   136
 48
25.4
100
AcDbHatch
 10
0.0
 20
0.0
 30
0.0
210
0.0
220
0.0
230
1.0
  2
SOLID
 70
     1
 71
     0
 91
        1
 92
        1
 93
        3
 72
     1
 10
157.014833632448
 20
138.2205247149433
 11
157.014833632448
 21
139.3871914176211
 72
     1
 10
157.014833632448
 20
139.3871914176211
 11
153.5148335244146
 21
138.8038580662822
 72
     1
 10
153.5148335244146
 20
138.8038580662822
 11
157.014833632448
 21
138.2205247149433
 97
        0
 75
     0
 76
     1
 98
        0
  0
LWPOLYLINE
  5
140
330
13C
100
AcDbEntity
  8
Default
  6
Continuous
 62
   136
 48
25.4
370
    20
100
AcDbPolyline
 90
        4
 70
     1
 43
0.00025
 10
157.0148336324
 20
138.2205247149
 10
153.5148335244
 20
138.8038580663
 10
157.0148336324
 20
139.3871914176
 10
157.0148336324
 20
138.2205247149
  0
LINE
  5
141
330
13C
100
AcDbEntity
  8
Default
  6
Continuous
 62
     7
 48
25.4
100
AcDbLine
 10
252.1958438303
 20
152.9191888294
 30
0.0
 11
252.1958438303
 21
137.0538580123
 31
0.0
  0
LINE
  5
142
330
13C
100
AcDbEntity
  8
Default
  6
Continuous
 62
     7
 48
25.4
100
AcDbLine
 10
153.5148300646
 20
152.9191888294
 30
0.0
 11
153.5148300646
 21
137.0538580123
 31
0.0
  0
LINE
  5
143
330
13C
100
AcDbEntity
  8
Default
  6
Continuous
 62
     7
 48
25.4
100
AcDbLine
 10
252.1958438303
 20
138.8038580663
 30
0.0
 11
153.5148335244
 21
138.8038580663
 31
0.0
  0
TEXT
  5
144
330
13C
100
AcDbEntity
  8
Default
  6
Continuous
 62
     7
 48
25.4
100
AcDbText
 10
198.1621568592
 20
139.6788580663
 30
0.0
 40
3.5
  1
98,68
  7
SEACAD_seiso_ttf
 11
198.1621568592
 21
143.1788580663
 31
0.0
100
AcDbText
 73
     3
  0
ENDBLK
  5
146
330
13C
100
AcDbEntity
  8
0
100
AcDbBlockEnd
  0
BLOCK
  5
151
330
148
100
AcDbEntity
  8
0
100
AcDbBlockBegin
  2
DMBLK18
 70
     0
 71
     0
 10
0.0
 20
0.0
 30
0.0
  3
DMBLK18
  1

  0
HATCH
  5
149
330
148
100
AcDbEntity
  8
Default
  6
Continuous
 62
   136
 48
25.4
100
AcDbHatch
 10
0.0
 20
0.0
 30
0.0
210
0.0
220
0.0
230
1.0
  2
SOLID
 70
     1
 71
     0
 91
        1
 92
        1
 93
        3
 72
     1
 10
157.0148301726452
 20
201.8136613422673
 11
157.0148301726452
 21
202.9803280449451
 72
     1
 10
157.0148301726452
 20
202.9803280449451
 11
153.5148300646118
 21
202.3969946936062
 72
     1
 10
153.5148300646118
 20
202.3969946936062
 11
157.0148301726452
 21
201.8136613422673
 97
        0
 75
     0
 76
     1
 98
        0
  0
LWPOLYLINE
  5
14A
330
148
100
AcDbEntity
  8
Default
  6
Continuous
 62
   136
 48
25.4
370
    20
100
AcDbPolyline
 90
        4
 70
     1
 43
0.00025
 10
157.0148301726
 20
201.8136613423
 10
153.5148300646
 20
202.3969946936
 10
157.0148301726
 20
202.9803280449
 10
157.0148301726
 20
201.8136613423
  0
HATCH
  5
14B
330
148
100
AcDbEntity
  8
Default
  6
Continuous
 62
   136
 48
25.4
100
AcDbHatch
 10
0.0
 20
0.0
 30
0.0
210
0.0
220
0.0
230
1.0
  2
SOLID
 70
     1
 71
     0
 91
        1
 92
        1
 93
        3
 72
     1
 10
248.6958402624599
 20
201.8136613422673
 11
252.1958403704933
 21
202.3969946936062
 72
     1
 10
252.1958403704933
 20
202.3969946936062
 11
248.6958402624599
 21
202.9803280449451
 72
     1
 10
248.6958402624599
 20
202.9803280449451
 11
248.6958402624599
 21
201.8136613422673
 97
        0
 75
     0
 76
     1
 98
        0
  0
LWPOLYLINE
  5
14C
330
148
100
AcDbEntity
  8
Default
  6
Continuous
 62
   136
 48
25.4
370
    20
100
AcDbPolyline
 90
        4
 70
     1
 43
0.00025
 10
248.6958402625
 20
201.8136613423
 10
252.1958403705
 20
202.3969946936
 10
248.6958402625
 20
202.9803280449
 10
248.6958402625
 20
201.8136613423
  0
LINE
  5
14D
330
148
100
AcDbEntity
  8
Default
  6
Continuous
 62
     7
 48
25.4
100
AcDbLine
 10
153.5148300646
 20
219.3184385583
 30
0.0
 11
153.5148300646
 21
200.6469946396
 31
0.0
  0
LINE
  5
14E
330
148
100
AcDbEntity
  8
Default
  6
Continuous
 62
     7
 48
25.4
100
AcDbLine
 10
252.1958438303
 20
219.3184385583
 30
0.0
 11
252.1958438303
 21
200.6469946396
 31
0.0
  0
LINE
  5
14F
330
148
100
AcDbEntity
  8
Default
  6
Continuous
 62
     7
 48
25.4
100
AcDbLine
 10
153.5148300646
 20
202.3969946936
 30
0.0
 11
252.1958403705
 21
202.3969946936
 31
0.0
  0
TEXT
  5
150
330
148
100
AcDbEntity
  8
Default
  6
Continuous
 62
     7
 48
25.4
100
AcDbText
 10
198.1621533994
 20
203.2719946936
 30
0.0
 40
3.5
  1
98,68
  7
SEACAD_seiso_ttf
 11
198.1621533994
 21
206.7719946936
 31
0.0
100
AcDbText
 73
     3
  0
ENDBLK
  5
152
330
148
100
AcDbEntity
  8
0
100
AcDbBlockEnd
  0
BLOCK
  5
15E
330
154
100
AcDbEntity
  8
0
100
AcDbBlockBegin
  2
DMBLK19
 70
     0
 71
     0
 10
0.0
 20
0.0
 30
0.0
  3
DMBLK19
  1

  0
HATCH
  5
155
330
154
100
AcDbEntity
  8
Default
  6
Continuous
 62
   136
 48
25.4
100
AcDbHatch
 10
0.0
 20
0.0
 30
0.0
210
0.0
220
0.0
230
1.0
  2
SOLID
 70
     1
 71
     0
 91
        1
 92
        1
 93
        3
 72
     1
 10
220.6741617235918
 20
163.4191889374768
 11
219.507495020914
 21
163.4191889374768
 72
     1
 10
219.507495020914
 20
163.4191889374768
 11
220.0908283722529
 21
159.9191888294434
 72
     1
 10
220.0908283722529
 20
159.9191888294434
 11
220.6741617235918
 21
163.4191889374768
 97
        0
 75
     0
 76
     1
 98
        0
  0
LWPOLYLINE
  5
156
330
154
100
AcDbEntity
  8
Default
  6
Continuous
 62
   136
 48
25.4
370
    20
100
AcDbPolyline
 90
        4
 70
     1
 43
0.00025
 10
220.6741617236
 20
163.4191889375
 10
220.0908283723
 20
159.9191888294
 10
219.5074950209
 20
163.4191889375
 10
220.6741617236
 20
163.4191889375
  0
HATCH
  5
157
330
154
100
AcDbEntity
  8
Default
  6
Continuous
 62
   136
 48
25.4
100
AcDbHatch
 10
0.0
 20
0.0
 30
0.0
210
0.0
220
0.0
230
1.0
  2
SOLID
 70
     1
 71
     0
 91
        1
 92
        1
 93
        3
 72
     1
 10
220.6741617235918
 20
174.4191879465496
 11
220.0908283722529
 21
177.919188054583
 72
     1
 10
220.0908283722529
 20
177.919188054583
 11
219.507495020914
 21
174.4191879465496
 72
     1
 10
219.507495020914
 20
174.4191879465496
 11
220.6741617235918
 21
174.4191879465496
 97
        0
 75
     0
 76
     1
 98
        0
  0
LWPOLYLINE
  5
158
330
154
100
AcDbEntity
  8
Default
  6
Continuous
 62
   136
 48
25.4
370
    20
100
AcDbPolyline
 90
        4
 70
     1
 43
0.00025
 10
220.6741617236
 20
174.4191879465
 10
220.0908283723
 20
177.9191880546
 10
219.5074950209
 20
174.4191879465
 10
220.6741617236
 20
174.4191879465
  0
LINE
  5
159
330
154
100
AcDbEntity
  8
Default
  6
Continuous
 62
     7
 48
25.4
100
AcDbLine
 10
202.8553369475
 20
159.9191888294
 30
0.0
 11
221.8408284263
 21
159.9191888294
 31
0.0
  0
LINE
  5
15A
330
154
100
AcDbEntity
  8
Default
  6
Continuous
 62
     7
 48
25.4
100
AcDbLine
 10
202.8553369475
 20
177.9191888294
 30
0.0
 11
221.8408284263
 21
177.9191888294
 31
0.0
  0
LINE
  5
15B
330
154
100
AcDbEntity
  8
Default
  6
Continuous
 62
     7
 48
25.4
100
AcDbLine
 10
220.0908283723
 20
159.9191888294
 30
0.0
 11
220.0908283723
 21
177.9191880546
 31
0.0
  0
TEXT
  5
15C
330
154
100
AcDbEntity
  8
Default
  6
Continuous
 62
     7
 48
25.4
100
AcDbText
 10
219.2158283723
 20
164.0909530311
 30
0.0
 40
3.5
  1
O
 50
90.0
  7
SEACAD_semeci1_ttf
 11
215.7158283723
 21
164.0909530311
 31
0.0
100
AcDbText
 73
     3
  0
TEXT
  5
15D
330
154
100
AcDbEntity
  8
Default
  6
Continuous
 62
     7
 48
25.4
100
AcDbText
 10
219.2158283723
 20
170.0883329438
 30
0.0
 40
3.5
  1
18
 50
90.0
  7
SEACAD_seiso_ttf
 11
215.7158283723
 21
170.0883329438
 31
0.0
100
AcDbText
 73
     3
  0
ENDBLK
  5
15F
330
154
100
AcDbEntity
  8
0
100
AcDbBlockEnd
  0
BLOCK
  5
16B
330
161
100
AcDbEntity
  8
0
100
AcDbBlockBegin
  2
DMBLK20
 70
     0
 71
     0
 10
0.0
 20
0.0
 30
0.0
  3
DMBLK20
  1

  0
HATCH
  5
162
330
161
100
AcDbEntity
  8
Default
  6
Continuous
 62
   136
 48
25.4
100
AcDbHatch
 10
0.0
 20
0.0
 30
0.0
210
0.0
220
0.0
230
1.0
  2
SOLID
 70
     1
 71
     0
 91
        1
 92
        1
 93
        3
 72
     1
 10
186.7798418602228
 20
177.4191889374768
 11
187.3631752115617
 21
173.9191888294434
 72
     1
 10
187.3631752115617
 20
173.9191888294434
 11
187.9465085629006
 21
177.4191889374768
 72
     1
 10
187.9465085629006
 20
177.4191889374768
 11
186.7798418602228
 21
177.4191889374768
 97
        0
 75
     0
 76
     1
 98
        0
  0
LWPOLYLINE
  5
163
330
161
100
AcDbEntity
  8
Default
  6
Continuous
 62
   136
 48
25.4
370
    20
100
AcDbPolyline
 90
        4
 70
     1
 43
0.00025
 10
186.7798418602
 20
177.4191889375
 10
187.3631752116
 20
173.9191888294
 10
187.9465085629
 20
177.4191889375
 10
186.7798418602
 20
177.4191889375
  0
HATCH
  5
164
330
161
100
AcDbEntity
  8
Default
  6
Continuous
 62
   136
 48
25.4
100
AcDbHatch
 10
0.0
 20
0.0
 30
0.0
210
0.0
220
0.0
230
1.0
  2
SOLID
 70
     1
 71
     0
 91
        1
 92
        1
 93
        3
 72
     1
 10
186.7798418602228
 20
160.41918872141
 11
187.9465085629006
 21
160.41918872141
 72
     1
 10
187.9465085629006
 20
160.41918872141
 11
187.3631752115617
 21
163.9191888294434
 72
     1
 10
187.3631752115617
 20
163.9191888294434
 11
186.7798418602228
 21
160.41918872141
 97
        0
 75
     0
 76
     1
 98
        0
  0
LWPOLYLINE
  5
165
330
161
100
AcDbEntity
  8
Default
  6
Continuous
 62
   136
 48
25.4
370
    20
100
AcDbPolyline
 90
        4
 70
     1
 43
0.00025
 10
186.7798418602
 20
160.4191887214
 10
187.3631752116
 20
163.9191888294
 10
187.9465085629
 20
160.4191887214
 10
186.7798418602
 20
160.4191887214
  0
LINE
  5
166
330
161
100
AcDbEntity
  8
Default
  6
Continuous
 62
     7
 48
25.4
100
AcDbLine
 10
202.8553369475
 20
173.9191888294
 30
0.0
 11
185.6131751575
 21
173.9191888294
 31
0.0
  0
LINE
  5
167
330
161
100
AcDbEntity
  8
Default
  6
Continuous
 62
     7
 48
25.4
100
AcDbLine
 10
202.8553369475
 20
163.9191888294
 30
0.0
 11
185.6131751575
 21
163.9191888294
 31
0.0
  0
LINE
  5
168
330
161
100
AcDbEntity
  8
Default
  6
Continuous
 62
     7
 48
25.4
100
AcDbLine
 10
187.3631752116
 20
180.9191890455
 30
0.0
 11
187.3631752116
 21
156.9191879056
 31
0.0
  0
TEXT
  5
169
330
161
100
AcDbEntity
  8
Default
  6
Continuous
 62
     7
 48
25.4
100
AcDbText
 10
186.4881752116
 20
164.1704989849
 30
0.0
 40
3.5
  1
O
 50
90.0
  7
SEACAD_semeci1_ttf
 11
182.9881752116
 21
164.1704989849
 31
0.0
100
AcDbText
 73
     3
  0
TEXT
  5
16A
330
161
100
AcDbEntity
  8
Default
  6
Continuous
 62
     7
 48
25.4
100
AcDbText
 10
186.4881752116
 20
170.1678788975
 30
0.0
 40
3.5
  1
10
 50
90.0
  7
SEACAD_seiso_ttf
 11
182.9881752116
 21
170.1678788975
 31
0.0
100
AcDbText
 73
     3
  0
ENDBLK
  5
16C
330
161
100
AcDbEntity
  8
0
100
AcDbBlockEnd
  0
BLOCK
  5
18E
330
18B
100
AcDbEntity
  8
0
100
AcDbBlockBegin
  2
SEANNOT_GROUP
 70
     0
 71
     0
 10
0.0
 20
0.0
 30
0.0
  3
SEANNOT_GROUP
  1

  0
TEXT
  5
18D
330
18B
100
AcDbEntity
  8
Default
  6
Continuous
 62
     7
 48
25.4
100
AcDbText
 10
464.874
 20
50.7035
 30
0.0
 40
3.048
  1
chiranjeevi
  7
SEACAD_seiso_ttf
 11
464.874
 21
53.7515
 31
0.0
100
AcDbText
 73
     3
  0
ENDBLK
  5
18F
330
18B
100
AcDbEntity
  8
0
100
AcDbBlockEnd
  0
BLOCK
  5
194
330
191
100
AcDbEntity
  8
0
100
AcDbBlockBegin
  2
SEANNOT_GROUP1
 70
     0
 71
     0
 10
0.0
 20
0.0
 30
0.0
  3
SEANNOT_GROUP1
  1

  0
TEXT
  5
193
330
191
100
AcDbEntity
  8
Default
  6
Continuous
 62
     7
 48
25.4
100
AcDbText
 10
483.924
 20
50.7035
 30
0.0
 40
3.048
  1
02/04/16
  7
SEACAD_seiso_ttf
 11
483.924
 21
53.7515
 31
0.0
100
AcDbText
 73
     3
  0
ENDBLK
  5
195
330
191
100
AcDbEntity
  8
0
100
AcDbBlockEnd
  0
BLOCK
  5
19D
330
19B
100
AcDbEntity
  8
0
100
AcDbBlockBegin
  2
SEANNOT_GROUP2
 70
     0
 71
     0
 10
0.0
 20
0.0
 30
0.0
  3
SEANNOT_GROUP2
  1

  0
ENDBLK
  5
19E
330
19B
100
AcDbEntity
  8
0
100
AcDbBlockEnd
  0
BLOCK
  5
1A5
330
1A3
100
AcDbEntity
  8
0
100
AcDbBlockBegin
  2
SEANNOT_GROUP3
 70
     0
 71
     0
 10
0.0
 20
0.0
 30
0.0
  3
SEANNOT_GROUP3
  1

  0
ENDBLK
  5
1A6
330
1A3
100
AcDbEntity
  8
0
100
AcDbBlockEnd
  0
BLOCK
  5
1AA
330
1A8
100
AcDbEntity
  8
0
100
AcDbBlockBegin
  2
SEANNOT_GROUP4
 70
     0
 71
     0
 10
0.0
 20
0.0
 30
0.0
  3
SEANNOT_GROUP4
  1

  0
ENDBLK
  5
1AB
330
1A8
100
AcDbEntity
  8
0
100
AcDbBlockEnd
  0
BLOCK
  5
1AF
330
1AC
100
AcDbEntity
  8
0
100
AcDbBlockBegin
  2
SEANNOT_GROUP5
 70
     0
 71
     0
 10
0.0
 20
0.0
 30
0.0
  3
SEANNOT_GROUP5
  1

  0
TEXT
  5
1AE
330
1AC
100
AcDbEntity
  8
Default
  6
Continuous
 62
     7
 48
25.4
100
AcDbText
 10
506.149
 20
18.001
 30
0.0
 40
3.048
  1
FILE NAME: engine mount drawing.dft
  7
SEACAD_seiso_ttf
 11
506.149
 21
21.049
 31
0.0
100
AcDbText
 73
     3
  0
ENDBLK
  5
1B0
330
1AC
100
AcDbEntity
  8
0
100
AcDbBlockEnd
  0
BLOCK
  5
1B6
330
1B3
100
AcDbEntity
  8
0
100
AcDbBlockBegin
  2
SEANNOT_GROUP6
 70
     0
 71
     0
 10
0.0
 20
0.0
 30
0.0
  3
SEANNOT_GROUP6
  1

  0
TEXT
  5
1B5
330
1B3
100
AcDbEntity
  8
Default
  6
Continuous
 62
     7
 48
25.4
100
AcDbText
 10
553.774
 20
11.651
 30
0.0
 40
3.048
  1
SHEET 1 OF 1
  7
SEACAD_seiso_ttf
 11
553.774
 21
14.699
 31
0.0
100
AcDbText
 73
     3
  0
ENDBLK
  5
1B7
330
1B3
100
AcDbEntity
  8
0
100
AcDbBlockEnd
  0
ENDSEC
  0
SECTION
  2
ENTITIES
  0
LINE
  5
2B
330
1F
100
AcDbEntity
  8
Default
  6
Continuous
 62
     7
 48
25.4
100
AcDbLine
 10
126.8553369475
 20
241.8184385583
 30
0.0
 11
141.8553369475
 21
241.8184385583
 31
0.0
  0
LINE
  5
2C
330
1F
100
AcDbEntity
  8
Default
  6
Continuous
 62
     7
 48
25.4
100
AcDbLine
 10
141.8553369475
 20
241.8184385583
 30
0.0
 11
157.8553369475
 21
241.8184385583
 31
0.0
  0
LINE
  5
2D
330
1F
100
AcDbEntity
  8
Default
  6
Continuous
 62
     7
 48
25.4
100
AcDbLine
 10
157.8553369475
 20
241.8184385583
 30
0.0
 11
173.8553369475
 21
241.8184385583
 31
0.0
  0
LINE
  5
2E
330
1F
100
AcDbEntity
  8
Default
  6
Continuous
 62
     7
 48
25.4
100
AcDbLine
 10
173.8553369475
 20
241.8184385583
 30
0.0
 11
231.8553369475
 21
241.8184385583
 31
0.0
  0
LINE
  5
2F
330
1F
100
AcDbEntity
  8
Default
  6
Continuous
 62
     7
 48
25.4
100
AcDbLine
 10
231.8553369475
 20
241.8184385583
 30
0.0
 11
247.8553369475
 21
241.8184385583
 31
0.0
  0
LINE
  5
30
330
1F
100
AcDbEntity
  8
Default
  6
Continuous
 62
     7
 48
25.4
100
AcDbLine
 10
247.8553369475
 20
241.8184385583
 30
0.0
 11
263.8553369475
 21
241.8184385583
 31
0.0
  0
LINE
  5
31
330
1F
100
AcDbEntity
  8
Default
  6
Continuous
 62
     7
 48
25.4
100
AcDbLine
 10
263.8553369475
 20
241.8184385583
 30
0.0
 11
278.8553369475
 21
241.8184385583
 31
0.0
  0
LINE
  5
32
330
1F
100
AcDbEntity
  8
Default
  6
Continuous
 62
     7
 48
25.4
100
AcDbLine
 10
126.8553369475
 20
313.8370683958
 30
0.0
 11
278.8553369475
 21
313.8370683958
 31
0.0
  0
LINE
  5
33
330
1F
100
AcDbEntity
  8
Default
  6
Continuous
 62
     7
 48
25.4
100
AcDbLine
 10
278.8553369475
 20
313.8370683958
 30
0.0
 11
278.8553369475
 21
340.8370683958
 31
0.0
  0
LINE
  5
34
330
1F
100
AcDbEntity
  8
Default
  6
Continuous
 62
     7
 48
25.4
100
AcDbLine
 10
278.8553369475
 20
340.8370683958
 30
0.0
 11
126.8553369475
 21
340.8370683958
 31
0.0
  0
LINE
  5
35
330
1F
100
AcDbEntity
  8
Default
  6
Continuous
 62
     7
 48
25.4
100
AcDbLine
 10
126.8553369475
 20
340.8370683958
 30
0.0
 11
126.8553369475
 21
313.8370683958
 31
0.0
  0
LINE
  5
36
330
1F
100
AcDbEntity
  8
Default
  6
Continuous
 62
     7
 48
25.4
100
AcDbLine
 10
311.921302861
 20
283.8184385583
 30
0.0
 11
311.921302861
 21
241.8184385583
 31
0.0
  0
LINE
  5
37
330
1F
100
AcDbEntity
  8
Default
  6
Continuous
 62
     7
 48
25.4
100
AcDbLine
 10
311.921302861
 20
241.8184385583
 30
0.0
 11
338.921302861
 21
241.8184385583
 31
0.0
  0
LINE
  5
38
330
1F
100
AcDbEntity
  8
Default
  6
Continuous
 62
     7
 48
25.4
100
AcDbLine
 10
338.921302861
 20
241.8184385583
 30
0.0
 11
338.921302861
 21
283.8184385583
 31
0.0
  0
LINE
  5
39
330
1F
100
AcDbEntity
  8
Default
  6
Continuous
 62
     7
 48
25.4
100
AcDbLine
 10
338.921302861
 20
283.8184385583
 30
0.0
 11
311.921302861
 21
283.8184385583
 31
0.0
  0
LINE
  5
3B
330
1F
100
AcDbEntity
  8
Default
  6
CENTER2
 62
     7
 48
25.4
100
AcDbLine
 10
126.8553369475
 20
327.3370683958
 30
0.0
 11
278.8553369475
 21
327.3370683958
 31
0.0
  0
LINE
  5
3C
330
1F
100
AcDbEntity
  8
Default
  6
Continuous
 62
     7
 48
25.4
100
AcDbLine
 10
157.8553369475
 20
219.3184385583
 30
0.0
 11
247.8553369475
 21
219.3184385583
 31
0.0
  0
LINE
  5
3D
330
1F
100
AcDbEntity
  8
Default
  6
Continuous
 62
     7
 48
25.4
100
AcDbLine
 10
206.7855891517
 20
235.3184385583
 30
0.0
 11
172.4755284647
 21
235.3184385583
 31
0.0
  0
LINE
  5
3E
330
1F
100
AcDbEntity
  8
Default
  6
Continuous
 62
     7
 48
25.4
100
AcDbLine
 10
206.7855891517
 20
235.3184385583
 30
0.0
 11
233.2351454302
 21
235.3184385583
 31
0.0
  0
LINE
  5
3F
330
1F
100
AcDbEntity
  8
Default
  6
Continuous
 62
     7
 48
25.4
100
AcDbLine
 10
247.8553369475
 20
219.3184385583
 30
0.0
 11
252.1958438303
 21
219.3184385583
 31
0.0
  0
LINE
  5
40
330
1F
100
AcDbEntity
  8
Default
  6
Continuous
 62
     7
 48
25.4
100
AcDbLine
 10
153.5148300646
 20
219.3184385583
 30
0.0
 11
157.8553369475
 21
219.3184385583
 31
0.0
  0
LINE
  5
41
330
1F
100
AcDbEntity
  8
Default
  6
CENTER2
 62
     7
 48
25.4
100
AcDbLine
 10
202.8553369475
 20
305.7063876255
 30
0.0
 11
202.8553369475
 21
345.5128058203
 31
0.0
  0
HATCH
  5
42
330
1F
100
AcDbEntity
  8
Default
  6
Continuous
 62
     7
 48
25.4
100
AcDbHatch
 10
0.0
 20
0.0
 30
0.0
210
0.0
220
0.0
230
1.0
  2
LINE
 70
     0
 71
     0
 91
        1
 92
        1
 93
        6
 72
     1
 10
202.8553369474538
 20
283.8184385583095
 11
202.8553369474538
 21
241.8184385583094
 72
     1
 10
202.8553369474538
 20
241.8184385583094
 11
231.8553369474538
 21
241.8184385583094
 72
     2
 10
247.8553369474539
 20
241.8184385583093
 40
16.0
 50
180.0000000000004
 51
359.9999999999995
 73
     0
 72
     1
 10
263.8553369474539
 20
241.8184385583095
 11
278.8553369474538
 21
241.8184385583095
 72
     1
 10
278.8553369474538
 20
241.8184385583095
 11
278.8553369474539
 21
283.8184385583095
 72
     1
 10
278.8553369474539
 20
283.8184385583095
 11
202.8553369474538
 21
283.8184385583095
 97
        0
 75
     0
 76
     2
 52
45.0
 41
0.5905511811
 77
     0
 78
     1
 53
45.0
 43
0.0
 44
0.0
 45
-1.325825214724776
 46
1.325825214724776
 79
     0
 98
        0
  0
LWPOLYLINE
  5
43
330
1F
100
AcDbEntity
  8
Default
  6
Continuous
 62
     7
 48
25.4
100
AcDbPolyline
 90
        7
 70
     1
 43
0.0
 10
202.8553369475
 20
283.8184385583
 10
202.8553369475
 20
241.8184385583
 10
231.8553369475
 20
241.8184385583
 42
-1.0
 10
263.8553369475
 20
241.8184385583
 10
278.8553369475
 20
241.8184385583
 10
278.8553369475
 20
283.8184385583
 10
202.8553369475
 20
283.8184385583
  0
LINE
  5
44
330
1F
100
AcDbEntity
  8
Default
  6
Continuous
 62
     7
 48
25.4
100
AcDbLine
 10
278.8553369475
 20
283.8184385583
 30
0.0
 11
278.8553369475
 21
241.8184385583
 31
0.0
  0
HATCH
  5
45
330
1F
100
AcDbEntity
  8
Default
  6
Continuous
 62
     7
 48
25.4
100
AcDbHatch
 10
0.0
 20
0.0
 30
0.0
210
0.0
220
0.0
230
1.0
  2
LINE
 70
     0
 71
     0
 91
        1
 92
        1
 93
        6
 72
     1
 10
202.8553369474538
 20
241.8184385583093
 11
202.8553369474538
 21
283.8184385583095
 72
     1
 10
202.8553369474538
 20
283.8184385583095
 11
126.8553369474538
 21
283.8184385583095
 72
     1
 10
126.8553369474538
 20
283.8184385583094
 11
126.8553369474538
 21
241.8184385583094
 72
     1
 10
126.8553369474538
 20
241.8184385583094
 11
141.8553369474538
 21
241.8184385583094
 72
     2
 10
157.8553369474538
 20
241.8184385583094
 40
16.0
 50
180.0000000000001
 51
359.9999999999998
 73
     0
 72
     1
 10
173.8553369474538
 20
241.8184385583094
 11
202.8553369474539
 21
241.8184385583094
 97
        0
 75
     0
 76
     2
 52
45.0
 41
0.5905511811
 77
     0
 78
     1
 53
45.0
 43
0.0
 44
0.0
 45
-1.325825214724776
 46
1.325825214724776
 79
     0
 98
        0
  0
LWPOLYLINE
  5
46
330
1F
100
AcDbEntity
  8
Default
  6
Continuous
 62
     7
 48
25.4
100
AcDbPolyline
 90
        7
 70
     1
 43
0.0
 10
202.8553369475
 20
241.8184385583
 10
202.8553369475
 20
283.8184385583
 10
126.8553369475
 20
283.8184385583
 10
126.8553369475
 20
241.8184385583
 10
141.8553369475
 20
241.8184385583
 42
-1.0
 10
173.8553369475
 20
241.8184385583
 10
202.8553369475
 20
241.8184385583
  0
LINE
  5
47
330
1F
100
AcDbEntity
  8
Default
  6
CENTER2
 62
     7
 48
25.4
100
AcDbLine
 10
202.8553369475
 20
241.8184385583
 30
0.0
 11
202.8553369475
 21
291.6113559195
 31
0.0
  0
LINE
  5
48
330
1F
100
AcDbEntity
  8
Default
  6
Continuous
 62
     7
 48
25.4
100
AcDbLine
 10
126.8553369475
 20
283.8184385583
 30
0.0
 11
278.8553369475
 21
283.8184385583
 31
0.0
  0
LINE
  5
49
330
1F
100
AcDbEntity
  8
Default
  6
Continuous
 62
     7
 48
25.4
100
AcDbLine
 10
126.8553369475
 20
241.8184385583
 30
0.0
 11
126.8553369475
 21
283.8184385583
 31
0.0
  0
LINE
  5
4A
330
1F
100
AcDbEntity
  8
Default
  6
Continuous
 62
     7
 48
25.4
100
AcDbLine
 10
278.8553369475
 20
241.8184385583
 30
0.0
 11
126.8553369475
 21
241.8184385583
 31
0.0
  0
HATCH
  5
4B
330
1F
100
AcDbEntity
  8
Default
  6
Continuous
 62
     7
 48
25.4
100
AcDbHatch
 10
0.0
 20
0.0
 30
0.0
210
0.0
220
0.0
230
1.0
  2
LINE
 70
     0
 71
     0
 91
        1
 92
        1
 93
        6
 72
     1
 10
157.8553369474538
 20
219.3184385583093
 11
202.8553369474538
 21
219.3184385583093
 72
     1
 10
202.8553369474538
 20
219.3184385583093
 11
202.8553369474538
 21
231.028747174646
 72
     1
 10
202.8553369474538
 20
231.028747174646
 11
202.8553369474538
 21
235.3184385583093
 72
     1
 10
202.8553369474539
 20
235.3184385583094
 11
172.4755284646673
 21
235.3184385583094
 72
     2
 10
157.8553369474538
 20
241.8184385583094
 40
16.0
 50
23.96948231775957
 51
90.0
 73
     0
 72
     1
 10
157.8553369474538
 20
225.8184385583094
 11
157.8553369474538
 21
219.3184385583094
 97
        0
 75
     0
 76
     2
 52
45.0
 41
0.5905511811
 77
     0
 78
     1
 53
45.0
 43
0.0
 44
0.0
 45
-1.325825214724776
 46
1.325825214724776
 79
     0
 98
        0
  0
LWPOLYLINE
  5
4C
330
1F
100
AcDbEntity
  8
Default
  6
Continuous
 62
     7
 48
25.4
100
AcDbPolyline
 90
        7
 70
     1
 43
0.0
 10
157.8553369475
 20
219.3184385583
 10
202.8553369475
 20
219.3184385583
 10
202.8553369475
 20
231.0287471746
 10
202.8553369475
 20
235.3184385583
 10
172.4755284647
 20
235.3184385583
 42
-0.2963583428
 10
157.8553369475
 20
225.8184385583
 10
157.8553369475
 20
219.3184385583
  0
HATCH
  5
4D
330
1F
100
AcDbEntity
  8
Default
  6
Continuous
 62
     7
 48
25.4
100
AcDbHatch
 10
0.0
 20
0.0
 30
0.0
210
0.0
220
0.0
230
1.0
  2
LINE
 70
     0
 71
     0
 91
        1
 92
        1
 93
        6
 72
     1
 10
202.8553369474538
 20
219.3184385583093
 11
247.8553369474538
 21
219.3184385583093
 72
     1
 10
247.8553369474539
 20
219.3184385583093
 11
247.8553369474539
 21
225.8184385583093
 72
     2
 10
247.8553369474539
 20
241.8184385583093
 40
16.0
 50
90.0
 51
156.0305176822404
 73
     0
 72
     1
 10
233.2351454302404
 20
235.3184385583093
 11
202.8553369474539
 21
235.3184385583094
 72
     1
 10
202.8553369474538
 20
235.3184385583094
 11
202.8553369474538
 21
231.0287471746461
 72
     1
 10
202.8553369474538
 20
231.028747174646
 11
202.8553369474538
 21
219.3184385583093
 97
        0
 75
     0
 76
     2
 52
45.0
 41
0.5905511811
 77
     0
 78
     1
 53
45.0
 43
0.0
 44
0.0
 45
-1.325825214724776
 46
1.325825214724776
 79
     0
 98
        0
  0
LWPOLYLINE
  5
4E
330
1F
100
AcDbEntity
  8
Default
  6
Continuous
 62
     7
 48
25.4
100
AcDbPolyline
 90
        7
 70
     1
 43
0.0
 10
202.8553369475
 20
219.3184385583
 10
247.8553369475
 20
219.3184385583
 10
247.8553369475
 20
225.8184385583
 42
-0.2963583428
 10
233.2351454302
 20
235.3184385583
 10
202.8553369475
 20
235.3184385583
 10
202.8553369475
 20
231.0287471746
 10
202.8553369475
 20
219.3184385583
  0
LINE
  5
4F
330
1F
100
AcDbEntity
  8
Default
  6
Continuous
 62
     7
 48
25.4
100
AcDbLine
 10
233.2351454302
 20
235.3184385583
 30
0.0
 11
172.4755284647
 21
235.3184385583
 31
0.0
  0
LINE
  5
50
330
1F
100
AcDbEntity
  8
Default
  6
CENTER2
 62
     7
 48
25.4
100
AcDbLine
 10
202.8553369475
 20
231.0287471746
 30
0.0
 11
202.8553369475
 21
235.3184385583
 31
0.0
  0
LINE
  5
51
330
1F
100
AcDbEntity
  8
Default
  6
CENTER2
 62
     7
 48
25.4
100
AcDbLine
 10
202.8553369475
 20
219.3184385583
 30
0.0
 11
202.8553369475
 21
231.0287471746
 31
0.0
  0
HATCH
  5
52
330
1F
100
AcDbEntity
  8
Default
  6
Continuous
 62
     7
 48
25.4
100
AcDbHatch
 10
0.0
 20
0.0
 30
0.0
210
0.0
220
0.0
230
1.0
  2
LINE
 70
     0
 71
     0
 91
        1
 92
        1
 93
        4
 72
     1
 10
247.8553369474539
 20
225.8184385583093
 11
247.8553369474539
 21
219.3184385583094
 72
     1
 10
247.8553369474538
 20
219.3184385583093
 11
252.1958438302961
 21
219.3184385583093
 72
     1
 10
252.1958438302961
 20
219.3184385583093
 11
252.1958438302961
 21
226.4184385583093
 72
     2
 10
247.8553369474539
 20
241.8184385583093
 40
16.0
 50
74.25945147483087
 51
90.0
 73
     0
 97
        0
 75
     0
 76
     2
 52
45.0
 41
0.5905511811
 77
     0
 78
     1
 53
45.0
 43
0.0
 44
0.0
 45
-1.325825214724776
 46
1.325825214724776
 79
     0
 98
        0
  0
LWPOLYLINE
  5
53
330
1F
100
AcDbEntity
  8
Default
  6
Continuous
 62
     7
 48
25.4
100
AcDbPolyline
 90
        5
 70
     1
 43
0.0
 10
247.8553369475
 20
225.8184385583
 10
247.8553369475
 20
219.3184385583
 10
252.1958438303
 20
219.3184385583
 10
252.1958438303
 20
226.4184385583
 42
-0.0687892953
 10
247.8553369475
 20
225.8184385583
 42
-0.0687892953
  0
LINE
  5
54
330
1F
100
AcDbEntity
  8
Default
  6
Continuous
 62
     7
 48
25.4
100
AcDbLine
 10
247.8553369475
 20
225.8184385583
 30
0.0
 11
247.8553369475
 21
219.3184385583
 31
0.0
  0
LINE
  5
55
330
1F
100
AcDbEntity
  8
Default
  6
Continuous
 62
     7
 48
25.4
100
AcDbLine
 10
252.1958438303
 20
226.4184385583
 30
0.0
 11
252.1958438303
 21
219.3184385583
 31
0.0
  0
CIRCLE
  5
56
330
1F
100
AcDbEntity
  8
Default
  6
Continuous
 62
     7
 48
25.4
100
AcDbCircle
 10
247.8553369475
 20
241.8184385583
 30
0.0
 40
16.0
  0
HATCH
  5
57
330
1F
100
AcDbEntity
  8
Default
  6
Continuous
 62
     7
 48
25.4
100
AcDbHatch
 10
0.0
 20
0.0
 30
0.0
210
0.0
220
0.0
230
1.0
  2
LINE
 70
     0
 71
     0
 91
        1
 92
        1
 93
        4
 72
     1
 10
157.8553369474538
 20
219.3184385583093
 11
157.8553369474538
 21
225.8184385583093
 72
     2
 10
157.8553369474538
 20
241.8184385583094
 40
16.0
 50
90.0
 51
105.7405485251684
 73
     0
 72
     1
 10
153.5148300646118
 20
226.4184385583093
 11
153.5148300646118
 21
219.3184385583093
 72
     1
 10
153.5148300646118
 20
219.3184385583093
 11
157.8553369474538
 21
219.3184385583093
 97
        0
 75
     0
 76
     2
 52
45.0
 41
0.5905511811
 77
     0
 78
     1
 53
45.0
 43
0.0
 44
0.0
 45
-1.325825214724776
 46
1.325825214724776
 79
     0
 98
        0
  0
LWPOLYLINE
  5
58
330
1F
100
AcDbEntity
  8
Default
  6
Continuous
 62
     7
 48
25.4
100
AcDbPolyline
 90
        5
 70
     1
 43
0.0
 10
157.8553369475
 20
219.3184385583
 10
157.8553369475
 20
225.8184385583
 42
-0.0687892953
 10
153.5148300646
 20
226.4184385583
 10
153.5148300646
 20
219.3184385583
 10
157.8553369475
 20
219.3184385583
  0
LINE
  5
59
330
1F
100
AcDbEntity
  8
Default
  6
Continuous
 62
     7
 48
25.4
100
AcDbLine
 10
157.8553369475
 20
225.8184385583
 30
0.0
 11
157.8553369475
 21
219.3184385583
 31
0.0
  0
CIRCLE
  5
5A
330
1F
100
AcDbEntity
  8
Default
  6
Continuous
 62
     7
 48
25.4
100
AcDbCircle
 10
157.8553369475
 20
241.8184385583
 30
0.0
 40
16.0
  0
LINE
  5
5B
330
1F
100
AcDbEntity
  8
Default
  6
Continuous
 62
     7
 48
25.4
100
AcDbLine
 10
153.5148300646
 20
226.4184385583
 30
0.0
 11
153.5148300646
 21
219.3184385583
 31
0.0
  0
LINE
  5
5C
330
1F
100
AcDbEntity
  8
Default
  6
Continuous
 62
     7
 48
25.4
100
AcDbLine
 10
153.5148300646
 20
219.3184385583
 30
0.0
 11
252.1958438303
 21
219.3184385583
 31
0.0
  0
CIRCLE
  5
5D
330
1F
100
AcDbEntity
  8
Default
  6
Continuous
 62
     7
 48
25.4
100
AcDbCircle
 10
202.8553369475
 20
327.3370683958
 30
0.0
 40
5.0
  0
LINE
  5
5E
330
1F
100
AcDbEntity
  8
Default
  6
Continuous
 62
     7
 48
25.4
100
AcDbLine
 10
197.8553369475
 20
283.8184385583
 30
0.0
 11
197.8553369475
 21
219.3184385583
 31
0.0
  0
LINE
  5
5F
330
1F
100
AcDbEntity
  8
Default
  6
Continuous
 62
     7
 48
25.4
100
AcDbLine
 10
207.8553369475
 20
283.8184385583
 30
0.0
 11
207.8553369475
 21
219.3184385583
 31
0.0
  0
LINE
  5
60
330
1F
100
AcDbEntity
  8
Default
  6
Continuous
 62
     7
 48
25.4
100
AcDbLine
 10
202.8553369475
 20
219.3184385583
 30
0.0
 11
193.8553369475
 21
219.3184385583
 31
0.0
  0
LINE
  5
61
330
1F
100
AcDbEntity
  8
Default
  6
Continuous
 62
     7
 48
25.4
100
AcDbLine
 10
153.5148300646
 20
184.9191888294
 30
0.0
 11
153.5148300646
 21
158.7142467187
 31
0.0
  0
LINE
  5
62
330
1F
100
AcDbEntity
  8
Default
  6
Continuous
 62
     7
 48
25.4
100
AcDbLine
 10
153.5148300646
 20
158.7142467187
 30
0.0
 11
153.5148300646
 21
184.9191888294
 31
0.0
  0
LINE
  5
63
330
1F
100
AcDbEntity
  8
Default
  6
Continuous
 62
     7
 48
25.4
100
AcDbLine
 10
153.5148300646
 20
184.9191888294
 30
0.0
 11
252.1958438303
 21
184.9191888294
 31
0.0
  0
LINE
  5
64
330
1F
100
AcDbEntity
  8
Default
  6
Continuous
 62
     7
 48
25.4
100
AcDbLine
 10
252.1958438303
 20
184.9191888294
 30
0.0
 11
252.1958438303
 21
152.9191888294
 31
0.0
  0
LINE
  5
65
330
1F
100
AcDbEntity
  8
Default
  6
Continuous
 62
     7
 48
25.4
100
AcDbLine
 10
252.1958438303
 20
152.9191888294
 30
0.0
 11
153.5148300646
 21
152.9191888294
 31
0.0
  0
LINE
  5
66
330
1F
100
AcDbEntity
  8
Default
  6
Continuous
 62
     7
 48
25.4
100
AcDbLine
 10
153.5148300646
 20
152.9191888294
 30
0.0
 11
153.5148300646
 21
158.7142467187
 31
0.0
  0
LINE
  5
67
330
1F
100
AcDbEntity
  8
Default
  6
CENTER2
 62
     7
 48
25.4
100
AcDbLine
 10
202.8553369475
 20
184.9191888294
 30
0.0
 11
202.8553369475
 21
152.9191888294
 31
0.0
  0
LINE
  5
68
330
1F
100
AcDbEntity
  8
Default
  6
CENTER2
 62
     7
 48
25.4
100
AcDbLine
 10
252.1958438303
 20
168.9191888294
 30
0.0
 11
153.5148300646
 21
168.9191888294
 31
0.0
  0
CIRCLE
  5
69
330
1F
100
AcDbEntity
  8
Default
  6
Continuous
 62
     7
 48
25.4
100
AcDbCircle
 10
202.8553369475
 20
168.9191888294
 30
0.0
 40
9.000000000000002
  0
CIRCLE
  5
6A
330
1F
100
AcDbEntity
  8
Default
  6
Continuous
 62
     7
 48
25.4
100
AcDbCircle
 10
202.8553369475
 20
168.9191888294
 30
0.0
 40
5.0
  0
LINE
  5
6B
330
1F
100
AcDbEntity
  8
Default
  6
Continuous
 62
     7
 48
25.4
100
AcDbLine
 10
309.213880959
 20
219.3184385583
 30
0.0
 11
341.213880959
 21
219.3184385583
 31
0.0
  0
LINE
  5
6C
330
1F
100
AcDbEntity
  8
Default
  6
Continuous
 62
     7
 48
25.4
100
AcDbLine
 10
341.213880959
 20
235.3184385583
 30
0.0
 11
309.213880959
 21
235.3184385583
 31
0.0
  0
LINE
  5
6D
330
1F
100
AcDbEntity
  8
Default
  6
Continuous
 62
     7
 48
25.4
100
AcDbLine
 10
325.421302861
 20
219.3184385583
 30
0.0
 11
341.421302861
 21
219.3184385583
 31
0.0
  0
LINE
  5
6E
330
1F
100
AcDbEntity
  8
Default
  6
Continuous
 62
     7
 48
25.4
100
AcDbLine
 10
341.421302861
 20
219.3184385583
 30
0.0
 11
341.213880959
 21
235.3184385583
 31
0.0
  0
LINE
  5
6F
330
1F
100
AcDbEntity
  8
Default
  6
Continuous
 62
     7
 48
25.4
100
AcDbLine
 10
341.213880959
 20
235.3184385583
 30
0.0
 11
309.213880959
 21
235.3184385583
 31
0.0
  0
LINE
  5
70
330
1F
100
AcDbEntity
  8
Default
  6
Continuous
 62
     7
 48
25.4
100
AcDbLine
 10
309.213880959
 20
235.3184385583
 30
0.0
 11
309.213880959
 21
219.3184385583
 31
0.0
  0
DIMENSION
  5
78
330
1F
100
AcDbEntity
  8
Default
  6
Continuous
 62
     7
 48
25.4
100
AcDbDimension
  2
DMBLK1
 10
126.8553369475
 20
232.8163788602
 30
0.0
 11
134.3553367798
 21
232.8163788602
 31
0.0
 70
   161
  1
\A1;<>
 71
     5
 42
-1.0
  3
ISO
100
AcDbAlignedDimension
 13
126.8553369475
 23
241.8184385583
 33
0.0
 14
141.8553369475
 24
241.8184385583
 34
0.0
  0
DIMENSION
  5
84
330
1F
100
AcDbEntity
  8
Default
  6
Continuous
 62
     7
 48
25.4
100
AcDbDimension
  2
DMBLK2
 10
263.8553369475
 20
232.656998834
 30
0.0
 11
271.3553367798
 21
232.656998834
 31
0.0
 70
   161
  1
\A1;<>
 71
     5
 42
-1.0
  3
ISO
100
AcDbAlignedDimension
 13
263.8553369475
 23
241.8184385583
 33
0.0
 14
278.8553369475
 24
241.8184385583
 34
0.0
  0
DIMENSION
  5
90
330
1F
100
AcDbEntity
  8
Default
  6
Continuous
 62
     7
 48
25.4
100
AcDbDimension
  2
DMBLK3
 10
173.8553369475
 20
252.5795617089
 30
0.0
 11
202.855336113
 21
252.5795617089
 31
0.0
 70
   161
  1
\A1;<>
 71
     5
 42
-1.0
  3
ISO
100
AcDbAlignedDimension
 13
173.8553369475
 23
241.8184385583
 33
0.0
 14
231.8553369475
 24
241.8184385583
 34
0.0
  0
DIMENSION
  5
9C
330
1F
100
AcDbEntity
  8
Default
  6
Continuous
 62
     7
 48
25.4
100
AcDbDimension
  2
DMBLK4
 10
157.8553369475
 20
211.9345560246
 30
0.0
 11
202.8553387356
 21
211.9345560246
 31
0.0
 70
   161
  1
\A1;<>
 71
     5
 42
-1.0
  3
ISO
100
AcDbAlignedDimension
 13
157.8553369475
 23
219.3184385583
 33
0.0
 14
247.8553369475
 24
219.3184385583
 34
0.0
  0
DIMENSION
  5
A8
330
1F
100
AcDbEntity
  8
Default
  6
Continuous
 62
     7
 48
25.4
100
AcDbDimension
  2
DMBLK5
 10
141.8553350891
 20
263.0758041446
 30
0.0
 11
157.8553361875
 21
263.0758055434
 31
0.0
 70
   161
  1
\A1;<>
 71
     5
 42
-1.0
  3
ISO
100
AcDbAlignedDimension
 13
173.8553369475
 23
241.8184399571
 33
0.0
 14
141.8553369475
 24
241.8184371595
 34
0.0
1001
ACAD
1000
DSTYLE
1002
{
1070
    73
1070
     1
1070
    74
1070
     1
1070
    77
1070
     0
1070
     0
1002
}
  0
DIMENSION
  5
B6
330
1F
100
AcDbEntity
  8
Default
  6
Continuous
 62
     7
 48
25.4
100
AcDbDimension
  2
DMBLK6
 10
231.8553352907
 20
260.7691621338
 30
0.0
 11
247.8553361875
 21
260.7691635326
 31
0.0
 70
   161
  1
\A1;<>
 71
     5
 42
-1.0
  3
ISO
100
AcDbAlignedDimension
 13
263.8553369475
 23
241.8184399571
 33
0.0
 14
231.8553369475
 24
241.8184371595
 34
0.0
1001
ACAD
1000
DSTYLE
1002
{
1070
    73
1070
     1
1070
    74
1070
     1
1070
    77
1070
     0
1070
     0
1002
}
  0
DIMENSION
  5
C3
330
1F
100
AcDbEntity
  8
Default
  6
Continuous
 62
     7
 48
25.4
100
AcDbDimension
  2
DMBLK7
 10
112.3930894566
 20
241.8184385583
 30
0.0
 11
112.3930894566
 21
262.8184382752
 31
0.0
 70
   161
  1
\A1;<>
 71
     5
 42
-1.0
  3
ISO
100
AcDbAlignedDimension
 13
126.8553369475
 23
241.8184385583
 33
0.0
 14
126.8553369475
 24
283.8184385583
 34
0.0
  0
DIMENSION
  5
CF
330
1F
100
AcDbEntity
  8
Default
  6
Continuous
 62
     7
 48
25.4
100
AcDbDimension
  2
DMBLK8
 10
126.8553369475
 20
287.5732594658
 30
0.0
 11
202.8553345037
 21
287.5732594658
 31
0.0
 70
   161
  1
\A1;<>
 71
     5
 42
-1.0
  3
ISO
100
AcDbAlignedDimension
 13
126.8553369475
 23
283.8184385583
 33
0.0
 14
278.8553369475
 24
283.8184385583
 34
0.0
  0
DIMENSION
  5
DB
330
1F
100
AcDbEntity
  8
Default
  6
Continuous
 62
     7
 48
25.4
100
AcDbDimension
  2
DMBLK9
 10
296.9105319363
 20
313.8370683958
 30
0.0
 11
296.9105319363
 21
327.337068746
 31
0.0
 70
   161
  1
\A1;<>
 71
     5
 42
-1.0
  3
ISO
100
AcDbAlignedDimension
 13
278.8553369475
 23
313.8370683958
 33
0.0
 14
278.8553369475
 24
340.8370683958
 34
0.0
  0
DIMENSION
  5
E7
330
1F
100
AcDbEntity
  8
Default
  6
Continuous
 62
     7
 48
25.4
100
AcDbDimension
  2
DMBLK10
 10
202.8553393912
 20
340.8370683958
 30
0.0
 11
202.8553393912
 21
353.193900088
 31
0.0
 70
   160
  1
\A1;<>
 71
     5
 42
-1.0
  3
ISO
100
AcDbAlignedDimension
 13
278.8553369475
 23
340.8370683958
 33
0.0
 14
126.8553369475
 24
340.8370683958
 34
0.0
100
AcDbRotatedDimension
  0
DIMENSION
  5
F3
330
1F
100
AcDbEntity
  8
Default
  6
Continuous
 62
     7
 48
25.4
100
AcDbDimension
  2
DMBLK11
 10
197.937108856
 20
326.4364950002
 30
0.0
 11
213.9643105877
 21
329.3712249918
 31
0.0
 70
   163
  1
\A1;<>
 71
     5
 42
-1.0
  3
ISO
100
AcDbDiametricDimension
 15
207.7735650389
 25
328.2376417914
 35
0.0
 40
0.0
1001
ACAD
1000
DSTYLE
1002
{
1070
    73
1070
     1
1070
    74
1070
     1
1070
    77
1070
     0
1070
   279
1070
     2
1070
     0
1002
}
  0
DIMENSION
  5
FF
330
1F
100
AcDbEntity
  8
Default
  6
Continuous
 62
     7
 48
25.4
100
AcDbDimension
  2
DMBLK12
 10
303.6241956786
 20
283.8184385583
 30
0.0
 11
303.6241956786
 21
262.8184388414
 31
0.0
 70
   161
  1
\A1;<>
 71
     5
 42
-1.0
  3
ISO
100
AcDbAlignedDimension
 13
311.921302861
 23
283.8184385583
 33
0.0
 14
311.921302861
 24
241.8184385583
 34
0.0
  0
DIMENSION
  5
10B
330
1F
100
AcDbEntity
  8
Default
  6
Continuous
 62
     7
 48
25.4
100
AcDbDimension
  2
DMBLK13
 10
325.4213025109
 20
283.8184385583
 30
0.0
 11
325.4213025109
 21
289.5223874621
 31
0.0
 70
   160
  1
\A1;<>
 71
     5
 42
-1.0
  3
ISO
100
AcDbAlignedDimension
 13
338.921302861
 23
283.8184385583
 33
0.0
 14
311.921302861
 24
283.8184385583
 34
0.0
100
AcDbRotatedDimension
  0
DIMENSION
  5
117
330
1F
100
AcDbEntity
  8
Default
  6
Continuous
 62
     7
 48
25.4
100
AcDbDimension
  2
DMBLK14
 10
346.4929302272
 20
219.3841864705
 30
0.0
 11
346.3892192808
 21
227.3841861147
 31
0.0
 70
   161
  1
\A1;<>
 71
     5
 42
-1.0
  3
ISO
100
AcDbAlignedDimension
 13
341.421302861
 23
219.3184385583
 33
0.0
 14
341.213880959
 24
235.3184385583
 34
0.0
  0
DIMENSION
  5
123
330
1F
100
AcDbEntity
  8
Default
  6
Continuous
 62
     7
 48
25.4
100
AcDbDimension
  2
DMBLK15
 10
309.213880959
 20
209.613237767
 30
0.0
 11
325.213881719
 21
209.613237767
 31
0.0
 70
   161
  1
\A1;<>
 71
     5
 42
-1.0
  3
ISO
100
AcDbAlignedDimension
 13
309.213880959
 23
219.3184385583
 33
0.0
 14
341.213880959
 24
219.3184385583
 34
0.0
  0
DIMENSION
  5
12F
330
1F
100
AcDbEntity
  8
Default
  6
Continuous
 62
     7
 48
25.4
100
AcDbDimension
  2
DMBLK16
 10
270.9741865839
 20
184.9191888294
 30
0.0
 11
270.9741865839
 21
168.9191880695
 31
0.0
 70
   161
  1
\A1;<>
 71
     5
 42
-1.0
  3
ISO
100
AcDbAlignedDimension
 13
252.1958438303
 23
184.9191888294
 33
0.0
 14
252.1958438303
 24
152.9191888294
 34
0.0
  0
DIMENSION
  5
13B
330
1F
100
AcDbEntity
  8
Default
  6
Continuous
 62
     7
 48
25.4
100
AcDbDimension
  2
DMBLK17
 10
252.1958438303
 20
138.8038580663
 30
0.0
 11
202.8553386774
 21
138.8038580663
 31
0.0
 70
   161
  1
\A1;<>
 71
     5
 42
-1.0
  3
ISO
100
AcDbAlignedDimension
 13
252.1958438303
 23
152.9191888294
 33
0.0
 14
153.5148300646
 24
152.9191888294
 34
0.0
  0
DIMENSION
  5
147
330
1F
100
AcDbEntity
  8
Default
  6
Continuous
 62
     7
 48
25.4
100
AcDbDimension
  2
DMBLK18
 10
153.5148300646
 20
202.3969946936
 30
0.0
 11
202.8553352176
 21
202.3969946936
 31
0.0
 70
   161
  1
\A1;<>
 71
     5
 42
-1.0
  3
ISO
100
AcDbAlignedDimension
 13
153.5148300646
 23
219.3184385583
 33
0.0
 14
252.1958438303
 24
219.3184385583
 34
0.0
  0
DIMENSION
  5
153
330
1F
100
AcDbEntity
  8
Default
  6
Continuous
 62
     7
 48
25.4
100
AcDbDimension
  2
DMBLK19
 10
220.0908279789
 20
177.9191895828
 30
0.0
 11
220.0908283723
 21
168.919188442
 31
0.0
 70
   161
  1
\A1;<>
 71
     5
 42
-1.0
  3
ISO
100
AcDbAlignedDimension
 13
202.8553373409
 23
159.9191888294
 33
0.0
 14
202.8553365541
 24
177.9191888294
 34
0.0
1001
ACAD
1000
DSTYLE
1002
{
1070
    73
1070
     1
1070
    74
1070
     1
1070
    77
1070
     0
1070
     0
1002
}
  0
DIMENSION
  5
160
330
1F
100
AcDbEntity
  8
Default
  6
Continuous
 62
     7
 48
25.4
100
AcDbDimension
  2
DMBLK20
 10
187.363174993
 20
163.9191895066
 30
0.0
 11
187.3631752116
 21
168.9191889412
 31
0.0
 70
   161
  1
\A1;<>
 71
     5
 42
-1.0
  3
ISO
100
AcDbAlignedDimension
 13
202.855337166
 23
173.9191888294
 33
0.0
 14
202.8553367289
 24
163.9191888294
 34
0.0
1001
ACAD
1000
DSTYLE
1002
{
1070
    73
1070
     1
1070
    74
1070
     1
1070
    77
1070
     0
1070
     0
1002
}
  0
LINE
  5
16D
330
1F
100
AcDbEntity
  8
Default
  6
Continuous
 62
     7
 48
25.4
100
AcDbLine
 10
10.0
 20
10.0
 30
0.0
 11
584.0
 21
10.0
 31
0.0
  0
LINE
  5
16E
330
1F
100
AcDbEntity
  8
Default
  6
Continuous
 62
     7
 48
25.4
100
AcDbLine
 10
584.0
 20
10.0
 30
0.0
 11
584.0
 21
410.0
 31
0.0
  0
LINE
  5
16F
330
1F
100
AcDbEntity
  8
Default
  6
Continuous
 62
     7
 48
25.4
100
AcDbLine
 10
584.0
 20
410.0
 30
0.0
 11
10.0
 21
410.0
 31
0.0
  0
LINE
  5
170
330
1F
100
AcDbEntity
  8
Default
  6
Continuous
 62
     7
 48
25.4
100
AcDbLine
 10
10.0
 20
410.0
 30
0.0
 11
10.0
 21
10.0
 31
0.0
  0
LINE
  5
171
330
1F
100
AcDbEntity
  8
Default
  6
Continuous
 62
     7
 48
25.4
100
AcDbLine
 10
441.125
 20
10.0
 30
0.0
 11
441.125
 21
60.8
 31
0.0
  0
LINE
  5
172
330
1F
100
AcDbEntity
  8
Default
  6
Continuous
 62
     7
 48
25.4
100
AcDbLine
 10
463.35
 20
32.225
 30
0.0
 11
463.35
 21
60.8
 31
0.0
  0
LINE
  5
173
330
1F
100
AcDbEntity
  8
Default
  6
Continuous
 62
     7
 48
25.4
100
AcDbLine
 10
482.4
 20
32.225
 30
0.0
 11
482.4
 21
60.8
 31
0.0
  0
LINE
  5
174
330
1F
100
AcDbEntity
  8
Default
  6
Continuous
 62
     7
 48
25.4
100
AcDbLine
 10
504.625
 20
10.0
 30
0.0
 11
504.625
 21
60.8
 31
0.0
  0
LINE
  5
175
330
1F
100
AcDbEntity
  8
Default
  6
Continuous
 62
     7
 48
25.4
100
AcDbLine
 10
514.15
 20
22.7
 30
0.0
 11
514.15
 21
32.098
 31
0.0
  0
LINE
  5
176
330
1F
100
AcDbEntity
  8
Default
  6
Continuous
 62
     7
 48
25.4
100
AcDbLine
 10
526.85
 20
10.0
 30
0.0
 11
526.85
 21
16.35
 31
0.0
  0
LINE
  5
177
330
1F
100
AcDbEntity
  8
Default
  6
Continuous
 62
     7
 48
25.4
100
AcDbLine
 10
552.25
 20
10.0
 30
0.0
 11
552.25
 21
16.35
 31
0.0
  0
LINE
  5
178
330
1F
100
AcDbEntity
  8
Default
  6
Continuous
 62
     7
 48
25.4
100
AcDbLine
 10
574.348
 20
22.7
 30
0.0
 11
574.348
 21
32.098
 31
0.0
  0
LINE
  5
179
330
1F
100
AcDbEntity
  8
Default
  6
Continuous
 62
     7
 48
25.4
100
AcDbLine
 10
441.125
 20
60.8
 30
0.0
 11
584.0
 21
60.8
 31
0.0
  0
LINE
  5
17A
330
1F
100
AcDbEntity
  8
Default
  6
Continuous
 62
     7
 48
25.4
100
AcDbLine
 10
441.125
 20
55.085
 30
0.0
 11
504.625
 21
55.085
 31
0.0
  0
LINE
  5
17B
330
1F
100
AcDbEntity
  8
Default
  6
Continuous
 62
     7
 48
25.4
100
AcDbLine
 10
441.125
 20
49.37
 30
0.0
 11
504.625
 21
49.37
 31
0.0
  0
LINE
  5
17C
330
1F
100
AcDbEntity
  8
Default
  6
Continuous
 62
     7
 48
25.4
100
AcDbLine
 10
504.625
 20
45.052
 30
0.0
 11
584.0
 21
45.052
 31
0.0
  0
LINE
  5
17D
330
1F
100
AcDbEntity
  8
Default
  6
Continuous
 62
     7
 48
25.4
100
AcDbLine
 10
441.125
 20
43.655
 30
0.0
 11
504.625
 21
43.655
 31
0.0
  0
LINE
  5
17E
330
1F
100
AcDbEntity
  8
Default
  6
Continuous
 62
     7
 48
25.4
100
AcDbLine
 10
441.125
 20
37.94
 30
0.0
 11
504.625
 21
37.94
 31
0.0
  0
LINE
  5
17F
330
1F
100
AcDbEntity
  8
Default
  6
Continuous
 62
     7
 48
25.4
100
AcDbLine
 10
441.125
 20
32.225
 30
0.0
 11
584.0
 21
32.225
 31
0.0
  0
LINE
  5
180
330
1F
100
AcDbEntity
  8
Default
  6
Continuous
 62
     7
 48
25.4
100
AcDbLine
 10
504.625
 20
22.7
 30
0.0
 11
584.0
 21
22.7
 31
0.0
  0
LINE
  5
181
330
1F
100
AcDbEntity
  8
Default
  6
Continuous
 62
     7
 48
25.4
100
AcDbLine
 10
504.625
 20
16.35
 30
0.0
 11
584.0
 21
16.35
 31
0.0
  0
TEXT
  5
182
330
1F
100
AcDbEntity
  8
Default
  6
Continuous
 62
     7
 48
25.4
100
AcDbText
 10
442.649
 20
50.7727727273
 30
0.0
 40
3.048
  1
DRAWN
  7
SEACAD_seiso_ttf
 11
442.649
 21
53.8207727273
 31
0.0
100
AcDbText
 73
     3
  0
TEXT
  5
183
330
1F
100
AcDbEntity
  8
Default
  6
Continuous
 62
     7
 48
25.4
100
AcDbText
 10
442.649
 20
45.0577727273
 30
0.0
 40
3.048
  1
CHECKED
  7
SEACAD_seiso_ttf
 11
442.649
 21
48.1057727273
 31
0.0
100
AcDbText
 73
     3
  0
TEXT
  5
184
330
1F
100
AcDbEntity
  8
Default
  6
Continuous
 62
     7
 48
25.4
100
AcDbText
 10
442.649
 20
39.3427727273
 30
0.0
 40
3.048
  1
ENG APPR
  7
SEACAD_seiso_ttf
 11
442.649
 21
42.3907727273
 31
0.0
100
AcDbText
 73
     3
  0
TEXT
  5
185
330
1F
100
AcDbEntity
  8
Default
  6
Continuous
 62
     7
 48
25.4
100
AcDbText
 10
442.649
 20
33.6277727273
 30
0.0
 40
3.048
  1
MGR APPR
  7
SEACAD_seiso_ttf
 11
442.649
 21
36.6757727273
 31
0.0
100
AcDbText
 73
     3
  0
TEXT
  5
186
330
1F
100
AcDbEntity
  8
Default
  6
Continuous
 62
     7
 48
25.4
100
AcDbText
 10
451.8853636364
 20
27.1392272727
 30
0.0
 40
3.048
  1
UNLESS OTHERWISE SPECIFIED
  7
SEACAD_seiso_ttf
 11
451.8853636364
 21
30.1872272727
 31
0.0
100
AcDbText
 73
     3
  0
TEXT
  5
187
330
1F
100
AcDbEntity
  8
Default
  6
Continuous
 62
     7
 48
25.4
100
AcDbText
 10
449.9110909091
 20
22.1515909091
 30
0.0
 40
3.048
  1
DIMENSIONS ARE IN MILLIMETERS
  7
SEACAD_seiso_ttf
 11
449.9110909091
 21
25.1995909091
 31
0.0
100
AcDbText
 73
     3
  0
TEXT
  5
188
330
1F
100
AcDbEntity
  8
Default
  6
Continuous
 62
     7
 48
25.4
100
AcDbText
 10
463.4192727273
 20
17.1639545455
 30
0.0
 40
3.048
  1
ANGLES ±X.X°
  7
SEACAD_seiso_ttf
 11
463.4192727273
 21
20.2119545455
 31
0.0
100
AcDbText
 73
     3
  0
TEXT
  5
189
330
1F
100
AcDbEntity
  8
Default
  6
Continuous
 62
     7
 48
25.4
100
AcDbText
 10
455.6953636364
 20
12.1763181818
 30
0.0
 40
3.048
  1
2 PL ±X.XX 3 PL ±X.XXX
  7
SEACAD_seiso_ttf
 11
455.6953636364
 21
15.2243181818
 31
0.0
100
AcDbText
 73
     3
  0
TEXT
  5
18A
330
1F
100
AcDbEntity
  8
Default
  6
Continuous
 62
     7
 48
25.4
100
AcDbText
 10
469.0996363636
 20
56.4877727273
 30
0.0
 40
3.048
  1
NAME
  7
SEACAD_seiso_ttf
 11
469.0996363636
 21
59.5357727273
 31
0.0
100
AcDbText
 73
     3
  0
INSERT
  5
18C
330
1F
100
AcDbEntity
  8
Default
100
AcDbBlockReference
  2
SEANNOT_GROUP
 10
0.0
 20
0.0
 30
0.0
  0
TEXT
  5
190
330
1F
100
AcDbEntity
  8
Default
  6
Continuous
 62
     7
 48
25.4
100
AcDbText
 10
490.0835
 20
56.4877727273
 30
0.0
 40
3.048
  1
DATE
  7
SEACAD_seiso_ttf
 11
490.0835
 21
59.5357727273
 31
0.0
100
AcDbText
 73
     3
  0
INSERT
  5
192
330
1F
100
AcDbEntity
  8
Default
100
AcDbBlockReference
  2
SEANNOT_GROUP1
 10
0.0
 20
0.0
 30
0.0
  0
TEXT
  5
197
330
1F
100
AcDbEntity
  8
Default
  6
Continuous
 62
     7
 48
25.4
100
AcDbText
 10
518.5061
 20
51.9862
 30
0.0
 40
6.096
  1
SOLID EDGE
  7
SEACAD_arial_ttfB
 11
518.5061
 21
58.0822
 31
0.0
100
AcDbText
 73
     3
  0
TEXT
  5
199
330
1F
100
AcDbEntity
  8
Default
  6
Continuous
 62
     7
 48
25.4
100
AcDbText
 10
515.6902777778
 20
46.422425303
 30
0.0
 40
3.5
  1
UGS - The PLM Company
  7
SEACAD_arial_ttfI
 11
515.6902777778
 21
49.922425303
 31
0.0
100
AcDbText
 73
     3
  0
TEXT
  5
19A
330
1F
100
AcDbEntity
  8
Default
  6
Continuous
 62
     7
 48
25.4
100
AcDbText
 10
505.895
 20
41.7615454545
 30
0.0
 40
2.54
  1
TITLE
  7
SEACAD_seiso_ttf
 11
505.895
 21
44.3015454545
 31
0.0
100
AcDbText
 73
     3
  0
INSERT
  5
19C
330
1F
100
AcDbEntity
  8
Default
100
AcDbBlockReference
  2
SEANNOT_GROUP2
 10
0.0
 20
0.0
 30
0.0
  0
TEXT
  5
19F
330
1F
100
AcDbEntity
  8
Default
  6
Continuous
 62
     7
 48
25.4
100
AcDbText
 10
506.8475
 20
28.9345454545
 30
0.0
 40
2.54
  1
SIZE
  7
SEACAD_seiso_ttf
 11
506.8475
 21
31.4745454545
 31
0.0
100
AcDbText
 73
     3
  0
TEXT
  5
1A1
330
1F
100
AcDbEntity
  8
Default
  6
Continuous
 62
     7
 48
25.4
100
AcDbText
 10
507.6210454545
 20
24.7377727273
 30
0.0
 40
3.048
  1
A2
  7
SEACAD_seiso_ttfB
 11
507.6210454545
 21
27.7857727273
 31
0.0
100
AcDbText
 73
     3
  0
TEXT
  5
1A2
330
1F
100
AcDbEntity
  8
Default
  6
Continuous
 62
     7
 48
25.4
100
AcDbText
 10
515.42
 20
28.9345454545
 30
0.0
 40
2.54
  1
DWG NO
  7
SEACAD_seiso_ttf
 11
515.42
 21
31.4745454545
 31
0.0
100
AcDbText
 73
     3
  0
INSERT
  5
1A4
330
1F
100
AcDbEntity
  8
Default
100
AcDbBlockReference
  2
SEANNOT_GROUP3
 10
0.0
 20
0.0
 30
0.0
  0
TEXT
  5
1A7
330
1F
100
AcDbEntity
  8
Default
  6
Continuous
 62
     7
 48
25.4
100
AcDbText
 10
577.0092272727
 20
28.9345454545
 30
0.0
 40
2.54
  1
REV
  7
SEACAD_seiso_ttf
 11
577.0092272727
 21
31.4745454545
 31
0.0
100
AcDbText
 73
     3
  0
INSERT
  5
1A9
330
1F
100
AcDbEntity
  8
Default
100
AcDbBlockReference
  2
SEANNOT_GROUP4
 10
0.0
 20
0.0
 30
0.0
  0
INSERT
  5
1AD
330
1F
100
AcDbEntity
  8
Default
100
AcDbBlockReference
  2
SEANNOT_GROUP5
 10
0.0
 20
0.0
 30
0.0
  0
TEXT
  5
1B1
330
1F
100
AcDbEntity
  8
Default
  6
Continuous
 62
     7
 48
25.4
100
AcDbText
 10
506.149
 20
11.7202727273
 30
0.0
 40
3.048
  1
SCALE:
  7
SEACAD_seiso_ttf
 11
506.149
 21
14.7682727273
 31
0.0
100
AcDbText
 73
     3
  0
TEXT
  5
1B2
330
1F
100
AcDbEntity
  8
Default
  6
Continuous
 62
     7
 48
25.4
100
AcDbText
 10
528.374
 20
11.7202727273
 30
0.0
 40
3.048
  1
WEIGHT:
  7
SEACAD_seiso_ttf
 11
528.374
 21
14.7682727273
 31
0.0
100
AcDbText
 73
     3
  0
INSERT
  5
1B4
330
1F
100
AcDbEntity
  8
Default
100
AcDbBlockReference
  2
SEANNOT_GROUP6
 10
0.0
 20
0.0
 30
0.0
  0
LINE
  5
1B8
330
1F
100
AcDbEntity
  8
Default
  6
Continuous
 62
     7
 48
25.4
100
AcDbLine
 10
457.0
 20
410.0
 30
0.0
 11
457.0
 21
390.95
 31
0.0
  0
LINE
  5
1B9
330
1F
100
AcDbEntity
  8
Default
  6
Continuous
 62
     7
 48
25.4
100
AcDbLine
 10
466.652
 20
403.65
 30
0.0
 11
466.652
 21
390.95
 31
0.0
  0
LINE
  5
1BA
330
1F
100
AcDbEntity
  8
Default
  6
Continuous
 62
     7
 48
25.4
100
AcDbLine
 10
536.248
 20
403.65
 30
0.0
 11
536.248
 21
390.95
 31
0.0
  0
LINE
  5
1BB
330
1F
100
AcDbEntity
  8
Default
  6
Continuous
 62
     7
 48
25.4
100
AcDbLine
 10
558.6
 20
403.65
 30
0.0
 11
558.6
 21
390.95
 31
0.0
  0
LINE
  5
1BC
330
1F
100
AcDbEntity
  8
Default
  6
Continuous
 62
     7
 48
25.4
100
AcDbLine
 10
457.0
 20
403.65
 30
0.0
 11
584.0
 21
403.65
 31
0.0
  0
LINE
  5
1BD
330
1F
100
AcDbEntity
  8
Default
  6
Continuous
 62
     7
 48
25.4
100
AcDbLine
 10
457.0
 20
397.3
 30
0.0
 11
584.0
 21
397.3
 31
0.0
  0
TEXT
  5
1BE
330
1F
100
AcDbEntity
  8
Default
  6
Continuous
 62
     7
 48
25.4
100
AcDbText
 10
507.8923636364
 20
405.3702727273
 30
0.0
 40
3.048
  1
REVISION HISTORY
  7
SEACAD_seiso_ttf
 11
507.8923636364
 21
408.4182727273
 31
0.0
100
AcDbText
 73
     3
  0
TEXT
  5
1BF
330
1F
100
AcDbEntity
  8
Default
  6
Continuous
 62
     7
 48
25.4
100
AcDbText
 10
459.2282727273
 20
399.0202727273
 30
0.0
 40
3.048
  1
REV
  7
SEACAD_seiso_ttf
 11
459.2282727273
 21
402.0682727273
 31
0.0
100
AcDbText
 73
     3
  0
TEXT
  5
1C0
330
1F
100
AcDbEntity
  8
Default
  6
Continuous
 62
     7
 48
25.4
100
AcDbText
 10
492.687
 20
399.0202727273
 30
0.0
 40
3.048
  1
DESCRIPTION
  7
SEACAD_seiso_ttf
 11
492.687
 21
402.0682727273
 31
0.0
100
AcDbText
 73
     3
  0
TEXT
  5
1C1
330
1F
100
AcDbEntity
  8
Default
  6
Continuous
 62
     7
 48
25.4
100
AcDbText
 10
543.995
 20
399.0202727273
 30
0.0
 40
3.048
  1
DATE
  7
SEACAD_seiso_ttf
 11
543.995
 21
402.0682727273
 31
0.0
100
AcDbText
 73
     3
  0
TEXT
  5
1C2
330
1F
100
AcDbEntity
  8
Default
  6
Continuous
 62
     7
 48
25.4
100
AcDbText
 10
564.3380909091
 20
399.0202727273
 30
0.0
 40
3.048
  1
APPROVED
  7
SEACAD_seiso_ttf
 11
564.3380909091
 21
402.0682727273
 31
0.0
100
AcDbText
 73
     3
  0
ENDSEC
  0
SECTION
  2
OBJECTS
  0
DICTIONARY
  5
C
330
0
100
AcDbDictionary
281
     1
  3
ACAD_GROUP
350
D
  3
ACAD_LAYOUT
350
1A
  3
ACAD_MLINESTYLE
350
17
  3
ACAD_PLOTSETTINGS
350
19
  3
ACAD_PLOTSTYLENAME
350
E
  0
DICTIONARY
  5
D
102
{ACAD_REACTORS
330
C
102
}
330
C
100
AcDbDictionary
281
     1
  0
DICTIONARY
  5
1A
102
{ACAD_REACTORS
330
C
102
}
330
C
100
AcDbDictionary
281
     1
  3
Layout1
350
1E
  3
Model
350
22
  0
DICTIONARY
  5
17
102
{ACAD_REACTORS
330
C
102
}
330
C
100
AcDbDictionary
281
     1
  3
Standard
350
18
  0
DICTIONARY
  5
19
102
{ACAD_REACTORS
330
C
102
}
330
C
100
AcDbDictionary
281
     1
  0
ACDBDICTIONARYWDFLT
  5
E
102
{ACAD_REACTORS
330
C
102
}
330
C
100
AcDbDictionary
281
     1
  3
Normal
350
F
100
AcDbDictionaryWithDefault
340
F
  0
LAYOUT
  5
1E
102
{ACAD_REACTORS
330
1A
102
}
330
1A
100
AcDbPlotSettings
  1

  2

  4

  6

 40
0.0
 41
0.0
 42
0.0
 43
0.0
 44
0.0
 45
0.0
 46
0.0
 47
0.0
 48
0.0
 49
0.0
140
0.0
141
0.0
142
1.0
143
1.0
 70
   688
 72
     0
 73
     0
 74
     5
  7

 75
    16
147
1.0
148
0.0
149
0.0
100
AcDbLayout
  1
Layout1
 70
     1
 71
     1
 10
0.0
 20
0.0
 11
594.0
 21
420.0
 12
0.0
 22
0.0
 32
0.0
 14
0.0
 24
0.0
 34
0.0
 15
594.0
 25
420.0
 35
0.0
146
0.0
 13
0.0
 23
0.0
 33
0.0
 16
1.0
 26
0.0
 36
0.0
 17
0.0
 27
1.0
 37
0.0
 76
     0
330
1B
  0
LAYOUT
  5
22
102
{ACAD_REACTORS
330
1A
102
}
330
1A
100
AcDbPlotSettings
  1

  2

  4

  6

 40
0.0
 41
0.0
 42
0.0
 43
0.0
 44
0.0
 45
0.0
 46
0.0
 47
0.0
 48
0.0
 49
0.0
140
0.0
141
0.0
142
1.0
143
1.0
 70
  1712
 72
     0
 73
     0
 74
     0
  7

 75
     0
147
1.0
148
0.0
149
0.0
100
AcDbLayout
  1
Model
 70
     1
 71
     0
 10
0.0
 20
0.0
 11
594.0
 21
420.0
 12
0.0
 22
0.0
 32
0.0
 14
0.0
 24
0.0
 34
0.0
 15
594.0
 25
420.0
 35
0.0
146
0.0
 13
0.0
 23
0.0
 33
0.0
 16
1.0
 26
0.0
 36
0.0
 17
0.0
 27
1.0
 37
0.0
 76
     0
330
1F
  0
MLINESTYLE
  5
18
102
{ACAD_REACTORS
330
17
102
}
330
17
100
AcDbMlineStyle
  2
Standard
 70
     0
  3

 62
   256
 51
90.0
 52
90.0
 71
     2
 49
0.5
 62
   256
  6
BYLAYER
 49
-0.5
 62
   256
  6
BYLAYER
  0
ACDBPLACEHOLDER
  5
F
102
{ACAD_REACTORS
330
E
102
}
330
E
  0
ENDSEC
  0
EOF
